Ответить на тему
Статистика раздачи [Обновить пиров]
Размер:  248 MB   |    Зарегистрирован:  1 месяц 1 день   |    Скачан:  3 раза
Сидов:  600  [  0 KB/s  ]   Личеров:  52  [  0 KB/s  ]  
 
     
 
 
Автор Сообщение

RelizMAN ®

11

Создавать темы 17-Янв-2019 20:15

[Цитировать]

Oswald - Twelve Divertimentos for the Guittar (1759)
Жанр: Classical guitar solo
Страна-производитель диска: Made in England
Год издания диска: 2001
Издатель (лейбл): ASV / Gaudeamus
Номер по каталогу: CD GAU 221
Дата записи: 2000
Аудиокодек: FLAC
Тип рипа: image+.cue
Битрейт аудио: lossless
Продолжительность: 00.59.15
Источник: релизер
сайт-источник/ник/другое: Fasch, подарок; Caterina Sforza - работа с cue
Наличие сканов в содержимом раздачи: да
Треклист:
1 Divertimento 1 Amoroso - Vivace - Gavota 4:10
2 Divertimento 2 Affetuoso - Tempo Di Minuetto - Gavotto 4:40
3 Divertimento 3 Amoroso - Allegro Moderato - Andante 6:04
4 Divertimento 4 Affetuoso - Gavotta - Aria - Con Spirito 4:25
5 Divertimento 5 Cantabile - Allegro Moderato - Pastorali - Tempo Di Minuetto 5:43
6 Divertimento 6 Amoroso - Moderato - Pastorali - Affetuoso 4:52
7 Divertimento 7 Affetuoso - Andante Allegro - Adagio - Tempo Di Minuetto 4:43
8 Divertimento 8 Affetuoso - La Chase - Tempo Di Minuetto 4:09
9 Divertimento 9 Gratioso - Musette Moderato - Andante Con Spirito 4:34
10 Divertimento 10 Amoroso - Allegro Moderato - Andante - Adagio - Giga 4:55
11 Divertimento 11 Andante - Allegro Moderato - Cantabile 5:12
12 Divertimento 12 Largo - Moderato Con Spirito - Amoroso - Giga 5:10

Исполнители

James Oswald (1710-1769)
Twelve Divertimentis For The Guittar (1759)
Rob MacKillop (guittar)
Recorded in Pier House Studios, Edinburgh, 24th/25th January 2000Audio CD (June 26, 2001)

Лог создания рипа

Exact Audio Copy V1.3 from 2. September 2016
EAC extraction logfile from 17. January 2019, 0:48
Rob MacKillop / James Oswald - Twelve Divertimentos for the Guitar (1759)
Used drive : hp CDDVDW SU-208GB Adapter: 1 ID: 0
Read mode : SecureUtilize accurate stream : YesDefeat audio cache : YesMake use of C2 pointers : No
Read offset correction : 6Overread into Lead-In and Lead-Out : NoFill up missing offset samples with silence : YesDelete leading and trailing silent blocks : NoNull samples used in CRC calculations : YesUsed interface : Native Win32 interface for Win NT & 2000
Used output format : User Defined EncoderSelected bitrate : 1024 kBit/sQuality : HighAdd ID3 tag : NoCommand line compressor : C:\Program Files (x86)\Exact Audio Copy\FLAC\FLAC.EXEAdditional command line options : -6 -V -T "ARTIST=%artist%" -T "TITLE=%title%" -T "ALBUM=%albumtitle%" -T "DATE=%year%" -T "TRACKNUMBER=%tracknr%" -T "GENRE=%genre%" -T "COMMENT=%comment%" -T "BAND=%albuminterpret%" -T "ALBUMARTIST=%albuminterpret%" -T "COMPOSER=%composer%" %haslyrics%--tag-from-file=LYRICS="%lyricsfile%"%haslyrics% -T "DISCNUMBER=%cdnumber%" -T "TOTALDISCS=%totalcds%" -T "TOTALTRACKS=%numtracks%" %hascover%--picture="%coverfile%"%hascover% %source% -o %dest%
TOC of the extracted CD
Track | Start | Length | Start sector | End sector --------------------------------------------------------- 1 | 0:00.00 | 4:13.26 | 0 | 19000 2 | 4:13.26 | 4:43.30 | 19001 | 40255 3 | 8:56.56 | 6:06.65 | 40256 | 67770 4 | 15:03.46 | 4:28.45 | 67771 | 87915 5 | 19:32.16 | 5:46.50 | 87916 | 113915 6 | 25:18.66 | 4:54.68 | 113916 | 136033 7 | 30:13.59 | 4:46.55 | 136034 | 157538 8 | 35:00.39 | 4:11.70 | 157539 | 176433 9 | 39:12.34 | 4:37.01 | 176434 | 197209 10 | 43:49.35 | 4:58.47 | 197210 | 219606 11 | 48:48.07 | 5:14.61 | 219607 | 243217 12 | 54:02.68 | 5:12.61 | 243218 | 266678
Range status and errors
Selected range
Filename C:\Users\MATS\Documents\Oswald_Twelve Divertimentis for the Guittar [1750]_Rob MacKillop\Rob MacKillop - James Oswald - Twelve Divertimentos for the Guitar (1759).wav
Peak level 89.1 % Extraction speed 3.6 X Range quality 99.9 % Test CRC 860158A0 Copy CRC 860158A0 Copy OK
No errors occurred
AccurateRip summary
Track 1 cannot be verified as accurate (confidence 1) [834D89B0], AccurateRip returned [68D70EC8] (AR v2)Track 2 cannot be verified as accurate (confidence 1) [74C419EE], AccurateRip returned [C2AE2840] (AR v2)Track 3 cannot be verified as accurate (confidence 1) [3D859DA5], AccurateRip returned [E81CF274] (AR v2)Track 4 cannot be verified as accurate (confidence 1) [5FEBDE74], AccurateRip returned [4F3CCC42] (AR v2)Track 5 cannot be verified as accurate (confidence 1) [B595FDF0], AccurateRip returned [C5BD3253] (AR v2)Track 6 cannot be verified as accurate (confidence 1) [DD929155], AccurateRip returned [668C644A] (AR v2)Track 7 cannot be verified as accurate (confidence 1) [DE0059F2], AccurateRip returned [DC07F139] (AR v2)Track 8 cannot be verified as accurate (confidence 1) [10F41A70], AccurateRip returned [B99ADF3E] (AR v2)Track 9 cannot be verified as accurate (confidence 1) [05F07BC3], AccurateRip returned [DF3EDC95] (AR v2)Track 10 cannot be verified as accurate (confidence 1) [92014035], AccurateRip returned [8BEF2D87] (AR v2)Track 11 cannot be verified as accurate (confidence 1) [BC4AC467], AccurateRip returned [7DA43E43] (AR v2)Track 12 cannot be verified as accurate (confidence 1) [AB55FEA4], AccurateRip returned [B9409602] (AR v2)
No tracks could be verified as accurateYou may have a different pressing from the one(s) in the database
End of status report
---- CUETools DB Plugin V2.1.6
[CTDB TOCID: 2FgoDRmy.286VrNCrYNKoSH7eSk-] disk not present in databaseSubmit result: 2FgoDRmy.286VrNCrYNKoSH7eSk- has been uploaded
==== Log checksum 53BA3AB45D6D96F50168E98F6FAF6B86AC7829C8FF8A7898C4798DF6C70656F5 ====

Содержание индексной карты (.CUE)

REM GENRE ClassicalREM DATE 2001REM DISCID 8A0DE30CREM COMMENT "ExactAudioCopy v1.3"PERFORMER "Rob MacKillop (guittar)"TITLE "James Oswald: Twelve Divertimentos for the Guitar (1759)"REM COMPOSER "James Oswald (1710-1769)"FILE "Rob MacKillop - James Oswald - Twelve Divertimentos for the Guitar (1759).flac" WAVE  TRACK 01 AUDIO    TITLE "Divertimento I (Amoroso - Vivace - Gavota)"    PERFORMER "Rob MacKillop"    REM COMPOSER "James Oswald"    INDEX 01 00:00:00  TRACK 02 AUDIO    TITLE "Divertimento II (Affetuoso - Tempo di Minuetto - Gavotto)"    PERFORMER "Rob MacKillop"    REM COMPOSER "James Oswald"    INDEX 00 04:10:44    INDEX 01 04:13:26  TRACK 03 AUDIO    TITLE "Divertimento III (Amoroso - Allegro Moderato - Andante)"    PERFORMER "Rob MacKillop"    REM COMPOSER "James Oswald"    INDEX 00 08:53:74    INDEX 01 08:56:56  TRACK 04 AUDIO    TITLE "Divertimento IV (Affetuoso - Gavotta - Aria - Con Spirito)"    PERFORMER "Rob MacKillop"    REM COMPOSER "James Oswald"    INDEX 00 15:00:64    INDEX 01 15:03:46  TRACK 05 AUDIO    TITLE "Divertimento V (Cantabile - Allegro Moderato - Pastorali - Tempo di Minuetto)"    PERFORMER "Rob MacKillop"    REM COMPOSER "James Oswald"    INDEX 00 19:29:34    INDEX 01 19:32:16  TRACK 06 AUDIO    TITLE "Divertimento VI (Amoroso - Moderato - Pastorali - Affetuoso)"    PERFORMER "Rob MacKillop"    REM COMPOSER "James Oswald"    INDEX 00 25:16:08    INDEX 01 25:18:66  TRACK 07 AUDIO    TITLE "Divertimento VII (Affetuoso - Andante Allegro - Adagio - Tempo di Minuetto)"    PERFORMER "Rob MacKillop"    REM COMPOSER "James Oswald"    INDEX 00 30:11:02    INDEX 01 30:13:59  TRACK 08 AUDIO    TITLE "Divertimento VIII (Affetuoso - La Chase - Tempo di Minuetto)"    PERFORMER "Rob MacKillop"    REM COMPOSER "James Oswald"    INDEX 00 34:57:58    INDEX 01 35:00:39  TRACK 09 AUDIO    TITLE "Divertimento IX (Gratioso - Musette Moderato - Andante con Spirito)"    PERFORMER "Rob MacKillop"    REM COMPOSER "James Oswald"    INDEX 00 39:09:52    INDEX 01 39:12:34  TRACK 10 AUDIO    TITLE "Divertimento X (Amoroso - Allegro Moderato - Andante - Adagio - Giga)"    PERFORMER "Rob MacKillop"    REM COMPOSER "James Oswald"    INDEX 00 43:46:53    INDEX 01 43:49:35  TRACK 11 AUDIO    TITLE "Divertimento XI (Andante - Allegro Moderato - Cantabile)"    PERFORMER "Rob MacKillop"    REM COMPOSER "James Oswald"    INDEX 00 48:45:25    INDEX 01 48:48:07  TRACK 12 AUDIO    TITLE "Divertimento XII (Largo - Moderato con Spirito - Amoroso - Giga)"    PERFORMER "Rob MacKillop"    REM COMPOSER "James Oswald"    INDEX 00 54:00:11    INDEX 01 54:02:68

[doutdess.info].t314829.torrent
Торрент: Зарегистрирован [ 2019-01-17 20:15 ] · 41528FD2DE198CB7705014266EDDEB437E13CDDB

20 KB

Статус: проверено
Скачан: 3 раз
Размер: 248 MB
(Classical guitar solo) Oswald - Twelve Divertimentos for the Guitar, 1759 (Rob MacKillop) - 2001, FLAC (image+.cue) lossless скачать торрент бесплатно и без регистрации

[Профиль] [ЛС]
Форум Тема Автор Размер
Вокальная музыка в lossless ((classical/operetta)) Schönes bleibt. Unvergessene Tenöre bei WDR 4 / Прекрасное остаётся - 2000, FLAC (image+.cue) lossless Vi$itReal 401 MB
Вокальная и хоровая музыка lossy (Classical (Lieder)) (Lieder) Norman Bailey - Songs of Hugo Wolf - 1979, MP3 (tracks) 320 kbps RelizMAN 120 MB
Концерт для инструмента с оркестром в lossless (Classical ) Top 20 CDs for your Classical Music Collection - ClassicalCDguide.com: 02 - W. A. Mozart - Great Piano Concertos N 20 - 25 (1997) APE (tracks), 450-566 kb/s RelizMAN 582 MB
Концерт для инструмента с оркестром в lossless (Classical ) Top 20 CDs for your Classical Music Collection - ClassicalCDguide.com: 04 - Bach: Die Brandenburgische Konzerte - Orchestra of the Age of Enlightenment 2 CD (1999) APE (tracks), 610-769... RelizMAN 462 MB
Оркестровая музыка в lossless (Classical ) Top 20 CDs for your Classical Music Collection - ClassicalCDguide.com: 06 - Igor Stravinsky; Petroushka, Le Sacre du Printemps - Columbia Symphony Orchestra (Sony 1990) APE (tracks),... Vi$itReal 274 MB
Камерная инструментальная музыка в lossless (Classical ) Top 20 CDs for your Classical Music Collection - ClassicalCDguide.com: 07 - Franz Schubert - \'Trout\' Quintet & \'Death and the Maiden\' - Amadeus Quartet (DG ... Vi$itReal 343 MB
Камерная инструментальная музыка в lossless (Classical ) Top 20 CDs for your Classical Music Collection - ClassicalCDguide.com: 10 - Georges Bizet; Carmen - Sir Thomas Beecham, de Los Angeles, Gedda, Michau, Blanc (EMI 2000) аре (по-треково),... Vi$itReal 745 MB
Камерная инструментальная музыка в lossless (Classical ) Top 20 CDs for your Classical Music Collection - ClassicalCDguide.com: 12 - Франц Шуберт - Симфония No. 3, Unfinished 39; - Carlos Kleiber и Wiener Philharmoniker (DG 1... Vi$itReal 186 MB
Показать сообщения:    

Текущее время: 19-Фев 19:35

Часовой пояс: UTC + 3



Вы не можете начинать темы
Вы не можете отвечать на сообщения
Вы не можете редактировать свои сообщения
Вы не можете удалять свои сообщения
Вы не можете голосовать в опросах
Вы не можете прикреплять файлы к сообщениям
Вы можете скачивать файлы