Ответить на тему
 
Автор Сообщение

Puzzzle ®

2

Создавать темы 05-Сен-2014 23:24

[Цитировать]

Разумное сомнение / Reasonable Doubt- Год выпуска: 2014
Выпущено: Германия, Канада / Paradox Entertainment
Жанр: триллер, криминал
Продолжительность: 01:31:16
Перевод: Одноголосый закадровый + Оригинальная дорожка
Cубтитры: нет-Режиссер:
Питер Хауит / Peter Howitt-В ролях:
Доминик Купер, Сэмюэл Л. Джексон, Эрин Карплак, Глория Рубен, Райан Роббинс, Дилан Тейлор, Лэйн Стайлз, Филипп Бреннинкмейер, Джон Б. Лоу, Джессика Бёрлсон-Описание:
Жизнь окружного прокурора переворачивается с ног на голову, когда он оказывается вовлеченным в перестрелку и за его преступление другого человека арестовывают и обвиняют в убийстве.-Релиз группы | IMDB | КиноПоиск | Сэмпл |-Качество: WEB-DLRip [Reasonable.Doubt.2014.1080p.WEB-DL.H264-PublicHD]
Формат: AVI
Видео: 720x304 (2.37:1), 23.976 fps, XviD build 73 ~1893 kbps avg, 0.36 bit/pixel
Аудио #1: 48 kHz, AC3 Dolby Digital, 2/0 (L,R) ch, ~192 kbps (RUS)
Аудио #2: 48 kHz, AC3 Dolby Digital, 2/0 (L,R) ch, ~192 kbps (ENG)
-

Скриншоты

MediaInfo

General
Complete name                            : E:\Razumnoe_somnenie_2014_WEB_DLRip_by_Dalemake.avi
Format                                   : AVI
Format/Info                              : Audio Video Interleave
File size                                : 1.46 GiB
Duration                                 : 1h 31mn
Overall bit rate                         : 2 292 Kbps
Writing application                      : VirtualDubMod 1.5.10.3 | www.virtualdub-fr.org || (build 2550/release)
Writing library                          : VirtualDubMod build 2550/release
Video
ID                                       : 0
Format                                   : MPEG-4 Visual
Format profile                           : Advanced Simple@L5
Format settings, BVOP                    : 2
Format settings, QPel                    : No
Format settings, GMC                     : No warppoints
Format settings, Matrix                  : Custom
Codec ID                                 : XVID
Codec ID/Hint                            : XviD
Duration                                 : 1h 31mn
Bit rate                                 : 1 894 Kbps
Width                                    : 720 pixels
Height                                   : 304 pixels
Display aspect ratio                     : 2.35:1
Frame rate                               : 23.976 fps
Color space                              : YUV
Chroma subsampling                       : 4:2:0
Bit depth                                : 8 bits
Scan type                                : Progressive
Compression mode                         : Lossy
Bits/(Pixel*Frame)                       : 0.361
Stream size                              : 1.21 GiB (83%)
Writing library                          : XviD 73
Audio #1
ID                                       : 1
Format                                   : AC-3
Format/Info                              : Audio Coding 3
Mode extension                           : CM (complete main)
Format settings, Endianness              : Big
Codec ID                                 : 2000
Duration                                 : 1h 31mn
Bit rate mode                            : Constant
Bit rate                                 : 192 Kbps
Channel(s)                               : 2 channels
Channel positions                        : Front: L R
Sampling rate                            : 48.0 KHz
Bit depth                                : 16 bits
Compression mode                         : Lossy
Stream size                              : 125 MiB (8%)
Alignment                                : Split accross interleaves
Interleave, duration                     : 42 ms (1.00 video frame)
Interleave, preload duration             : 500 ms
Audio #2
ID                                       : 2
Format                                   : AC-3
Format/Info                              : Audio Coding 3
Mode extension                           : CM (complete main)
Format settings, Endianness              : Big
Codec ID                                 : 2000
Duration                                 : 1h 31mn
Bit rate mode                            : Constant
Bit rate                                 : 192 Kbps
Channel(s)                               : 2 channels
Channel positions                        : Front: L R
Sampling rate                            : 48.0 KHz
Bit depth                                : 16 bits
Compression mode                         : Lossy
Stream size                              : 125 MiB (8%)
Alignment                                : Split accross interleaves
Interleave, duration                     : 42 ms (1.00 video frame)
Interleave, preload duration             : 500 ms
-
[doutdess.info].t226.torrent
Торрент: Не зарегистрирован

Скачать .torrent

Скачать

15 KB

Добавлен: 2014-09-05 23:24
Скачано: 0 раз  [ Список скачавших ]
   
[Профиль] [ЛС]
Быстрый ответ

Имя:

      
Для отправки сообщений необходимо включить JavaScript
Показать сообщения:    

Текущее время: 22-Апр 07:21

Часовой пояс: UTC + 3



Вы можете начинать темы
Вы можете отвечать на сообщения
Вы можете редактировать свои сообщения
Вы можете удалять свои сообщения
Вы можете голосовать в опросах
Вы можете прикреплять файлы к сообщениям
Вы можете скачивать файлы


Рейтинг@Mail.ru