Ответить на тему
 
Автор Сообщение

Puzzzle ®

2

Создавать темы 05-Сен-2014 23:32

[Цитировать]

Разумное сомнение / Reasonable Doubt- Год выпуска: 2014
Выпущено: Германия, Канада / Paradox Entertainment
Жанр: триллер, криминал
Продолжительность: 01:31:16
Перевод: Одноголосый закадровый
Cубтитры: нет-Режиссер:
Питер Хауит / Peter Howitt-В ролях:
Доминик Купер, Сэмюэл Л. Джексон, Эрин Карплак, Глория Рубен, Райан Роббинс, Дилан Тейлор, Лэйн Стайлз, Филипп Бреннинкмейер, Джон Б. Лоу, Джессика Бёрлсон-Описание:
Жизнь окружного прокурора переворачивается с ног на голову, когда он оказывается вовлеченным в перестрелку и за его преступление другого человека арестовывают и обвиняют в убийстве.-Релиз группы | IMDB | КиноПоиск | Сэмпл |-Качество: WEB-DLRip [Reasonable.Doubt.2014.1080p.WEB-DL.H264-PublicHD]
Формат: AVI
Видео: 688x288 (2.39:1), 23.976 fps, XviD build 73 ~1003 kbps avg, 0.21 bit/pixel
Аудио: 48 kHz, MPEG Layer 3, 2 ch, ~128.00 kbps avg
-

Скриншоты

MediaInfo

General
Complete name                            : E:\Razumnoe_somnenie_2014_WEB_DLRip_745_by_Dalemake.avi
Format                                   : AVI
Format/Info                              : Audio Video Interleave
File size                                : 745 MiB
Duration                                 : 1h 31mn
Overall bit rate                         : 1 141 Kbps
Writing application                      : VirtualDubMod 1.5.10.3 | www.virtualdub-fr.org || (build 2550/release)
Writing library                          : VirtualDubMod build 2550/release
Video
ID                                       : 0
Format                                   : MPEG-4 Visual
Format profile                           : Advanced Simple@L5
Format settings, BVOP                    : 1
Format settings, QPel                    : No
Format settings, GMC                     : No warppoints
Format settings, Matrix                  : Custom
Codec ID                                 : XVID
Codec ID/Hint                            : XviD
Duration                                 : 1h 31mn
Bit rate                                 : 1 003 Kbps
Width                                    : 688 pixels
Height                                   : 288 pixels
Display aspect ratio                     : 2.40:1
Frame rate                               : 23.976 fps
Color space                              : YUV
Chroma subsampling                       : 4:2:0
Bit depth                                : 8 bits
Scan type                                : Progressive
Compression mode                         : Lossy
Bits/(Pixel*Frame)                       : 0.211
Stream size                              : 655 MiB (88%)
Writing library                          : XviD 73
Audio
ID                                       : 1
Format                                   : MPEG Audio
Format version                           : Version 1
Format profile                           : Layer 3
Codec ID                                 : 55
Codec ID/Hint                            : MP3
Duration                                 : 1h 31mn
Bit rate mode                            : Constant
Bit rate                                 : 128 Kbps
Channel(s)                               : 2 channels
Sampling rate                            : 48.0 KHz
Compression mode                         : Lossy
Stream size                              : 83.6 MiB (11%)
Alignment                                : Aligned on interleaves
Interleave, duration                     : 42 ms (1.00 video frame)
Interleave, preload duration             : 504 ms
-
[doutdess.info].t227.torrent
Торрент: Не зарегистрирован

Скачать .torrent

Скачать

15 KB

Добавлен: 2014-09-05 23:32
Скачано: 0 раз  [ Список скачавших ]
   
[Профиль] [ЛС]
Быстрый ответ

Имя:

      
Для отправки сообщений необходимо включить JavaScript
Показать сообщения:    

Текущее время: 22-Апр 23:07

Часовой пояс: UTC + 3



Вы можете начинать темы
Вы можете отвечать на сообщения
Вы можете редактировать свои сообщения
Вы можете удалять свои сообщения
Вы можете голосовать в опросах
Вы можете прикреплять файлы к сообщениям
Вы можете скачивать файлы


Рейтинг@Mail.ru