Ответить на тему
Статистика раздачи [Обновить пиров]
Размер:  642 MB   |    Зарегистрирован:  4 дня   |    Скачан:  0 раз
Сидов:  448  [  0 KB/s  ]   Личеров:  13  [  0 KB/s  ]  
 
     
 
 
Автор Сообщение

RelizMAN ®

11

Создавать темы 16-Апр-2018 10:25

[Цитировать]

Various Artists - The Sound Track Music From Clint Eastwood's Any Which Way You Can
Жанр: Soundtrack, Country
Носитель: LP
Год выпуска: 1980
Лейбл: Warner Bros. Records / Viva - HS 3499
Страна-производитель: US
Аудио кодек: FLAC
Тип рипа: tracks+.cue
Формат записи: 24/192
Формат раздачи: 24/96
Продолжительность: 00:31:12
Треклист:
Side 1
A1 - Ray Charles And Clint Eastwood - Beers To You 2:42
A2 - Glen Campbell - Any Which Way You Can 3:13
A3 - David Frizzell And Shelly West - You're The Reason God Made Oklahoma 3:21
A4 - Fats Domino - Whiskey Heaven 3:00
A5 - Sondra Locke - One Too Many Women In Your Life 2:06
A6 - Jim Stafford - Cow Patti 3:12
Side 2
B1 - Johnny Duncan - Acapulco 3:31
B2 - Gene Watson - Any Way You Want Me 2:49
B3 – The Texas Opera Company - Cotton-Eyed Clint 1:42
B4 – Cliff Crofford - Orangutan Hall Of Fame 1:00
B5 – Sondra Locke - Too Loose 1:58
B6 – John Durrill - The Good Guys And The Bad Guys 2:34

Credits & Notes

Companies, etc.
Phonographic Copyright (p) - Viva Records
Copyright (c) - Viva Records
Pressed By - Capitol Records Pressing Plant, Winchester
Published By - Peso Music
Published By - Wallet Music
Published By - Warner-Tamerlane Publishing Corp.
Published By - Senor Music
Mastered At - Kendun Recorders
Credits
Arranged By, Conductor - Steve Dorff
Art Direction - Desmond Strobel
Design [Front Cover] - Bill Gold
Editor [Music] - Don Harris
Engineer - Grover Helsley
Engineer [Second] - Chris McNary
Mastered By - JG (John Golden)
Photography By [All Photos Except:] - Jack Shannon
Photography By [Frizzell And West] - Scott Hensel
Photography By [Gene Watson] - Andrew Su
Photography By [John Durrill] - JONATHAN EXLEY
Photography By [Ray Charles And Clint Eastwood] - Mike Shain
Producer - Russ Reeder (tracks: B2), Snuff Garrett, Steve Dorff (tracks: A3)
Notes
℗ and © 1980 Viva Records, 6235 Sunset Boulevard, Suite 1019, Hollywood, California 90028
The sound track music from Clint Eastwood's "Any Which Way You Can"
Ray Charles courtesy of Crossover Records
Glen Campbell courtesy of Capitol Records, Inc.
Johnny Duncan courtesy of CBS Records
Barcode and Other Identifiers
Barcode (Scanned): 075992349918
Barcode (Text): 0 7599-23499-1
Matrix / Runout (Side A Runout Etched): HS-1-3499 WW1 #5 • –––◁ JG
Matrix / Runout (Side A Runout Stamped): KENDUN-B
Matrix / Runout (Side B Runout Etched): HS-2-3499-WW1 #4 • –––◁ JG
Matrix / Runout (Side B Runout Stamped): KENDUN-A
Rights Society: ASCAP
Rights Society: BMI

Техническая информация

Источник оцифровки: третьим лицом
Код класса состояния винила: Ex
Устройство воспроизведения: Technics SL-1210 MKII
Головка звукоснимателя: Denon DL-301 MKII
Предварительный усилитель: Custom built
АЦП: Creative 0404 USB
Программа-оцифровщик: WaveLab
Обработка: iZotope RX Advanced for any cleaning needed

Спектр

АЧХ

Уровень записи

Доп. информация:

DR11

================================================================================
foobar2000 1.2.9 / Dynamic Range Meter 1.1.1
——————————————————————————–
Analyzed: Any Which Way You Can / Soundtrack
——————————————————————————–
DR Peak RMS Duration Track
——————————————————————————–
DR12 -0.07 dB -15.19 dB 2:43 01-Beers To You
DR12 -0.05 dB -15.01 dB 3:13 02-Any Which Way You Can
DR12 -0.05 dB -15.00 dB 3:21 03-You’re The Reason God Made Oklahoma
DR12 -1.40 dB -14.82 dB 3:00 04-Whiskey Heaven
DR11 -1.26 dB -15.14 dB 2:06 05-One Too Many Women In Your Life
DR12 -1.15 dB -16.61 dB 3:13 06-Cow Patti
DR12 -0.05 dB -14.43 dB 3:31 07-Acapulco
DR10 -0.53 dB -14.14 dB 2:50 08-Any Way You Want Me
DR11 -1.63 dB -15.52 dB 1:44 09-Cotton-Eyed Clint
DR10 -0.30 dB -14.23 dB 1:01 10-Orangutan Hall Of Fame
DR10 -2.37 dB -16.49 dB 1:58 11-Too Loose
DR12 -0.93 dB -15.10 dB 2:34 12-The Good Guys And The Bad Guys
——————————————————————————–
Number of tracks: 12
Official DR value: DR11
Samplerate: 96000 Hz
Channels: 2
Bits per sample: 24
Bitrate: 2849 kbps
Codec: FLAC
================================================================================

[doutdess.info].t261593.torrent
Торрент: Зарегистрирован [ 2018-04-16 10:25 ] · CEA807E2CA3AFBD6E211C7B0FAC95088DFDCC8FB

14 KB

Статус: проверено
Скачан: 0 раз
Размер: 642 MB
(Soundtrack, Country) [LP] [24/96] VA - Как только сможешь / The Sound Track Music From Clint Eastwood\'s Any Which Way You Can - 1980 (Ray Charles, Glen Campbell, Jim Stafford, Johnny Duncan & more), FLAC (tracks+.cue) скачать торрент бесплатно и без регистрации

[Профиль] [ЛС]
Форум Тема Автор Размер
NewAge & Meditative lossless (New Age, Meditation, Ethnic Fusion) Peter Kater & R. Carlos Nakai - How the West Was Lost(soundtrack) - 1993, FLAC (image+.cue), lossless RelizMAN 299 MB
Саундтреки к отечественным фильмам lossless (Score / Classical) Мания Жизели - Дневник его жены (Музыка из фильмов А. Учителя) // Giselles Mania / His Wifes Diary (Soundtrack To Film Alexey Uchitel) (Леонид Десятников) - 2000, FLAC... Vi$itReal 236 MB
Саундтреки к отечественным фильмам lossy (Score) Мания Жизели / Дневник его жены (Музыка из фильмов А. Учителя) // Giselles Mania / His Wifes Diary (Soundtrack To Film Alexey Uchitel) (Леонид Десятников) - 2000, MP3 (tracks) 320 kbps RelizMAN 165 MB
Саундтреки к отечественным фильмам lossless (Soundtrack / classical-avantgarde) Леонид Десятников - Москва - Музыка к фильму - 2000, APE (tracks), lossless Vi$itReal 279 MB
Саундтреки к зарубежным фильмам lossy (Soundtrack / Country) Навсегда моя девушка / Forever My Girl (Forever My Girl (Music And Inspired By The Motion Picture)) (VA) - 2018, MP3, 320 kbps RelizMAN 158 MB
Саундтреки к играм lossy (Soundtrack / Death Metal, Deathcore) Death Goat Soundtrack Vol. 1&2 by Various Artists (2016) (MP3, 320 kbps) Vi$itReal 155 MB
Саундтреки к зарубежным фильмам lossless (Soundtrack / Disco)[CD] VA - Лихорадка субботнего вечера / Saturday Night Fever (2CD) - 1977, FLAC (tracks+.cue), lossless Vi$itReal 658 MB
Саундтреки к играм lossy (Soundtrack / Electronic, Trance) Rocket League + Volume 2 by Mike Ault, Hollywood Principle, Kevin Riepl (2015-2016) (MP3, V0) Vi$itReal 187 MB
Показать сообщения:    

Текущее время: 21-Апр 08:45

Часовой пояс: UTC + 3



Вы не можете начинать темы
Вы не можете отвечать на сообщения
Вы не можете редактировать свои сообщения
Вы не можете удалять свои сообщения
Вы не можете голосовать в опросах
Вы не можете прикреплять файлы к сообщениям
Вы можете скачивать файлы


Рейтинг@Mail.ru