Ответить на тему
Статистика раздачи [Обновить пиров]
Размер:  432 MB   |    Зарегистрирован:  4 дня   |    Скачан:  0 раз
Сидов:  728  [  0 KB/s  ]   Личеров:  14  [  0 KB/s  ]  
 
     
 
 
Автор Сообщение

RelizMAN ®

11

Создавать темы 16-Апр-2018 16:55

[Цитировать]

Janacek - The Cunning Little Vixen / Яначек - Приключения лисички-плутовки
Жанр: Classical opera
Страна-производитель диска: Made in Czechoslovakia
Год издания диска: 1982 - винил; 1992 - CD
Издатель (лейбл): Supraphon
Номер по каталогу: 10 3471-2
Дата записи: 1980
Аудиокодек: FLAC
Тип рипа: image+.cue
Битрейт аудио: lossless
Продолжительность: 45'19 + 50'21
Источник: релизер
сайт-источник/ник/другое: Cunctator from Meeting Music
Наличие сканов в содержимом раздачи: да
Disc: 1
1. Act 1. Scene 1.: 'There is a storm coming'
2. Scene 2.: 'What a surprise, isn't it, Lapák?'
3. Act 2. Scene 3.: 'Oh!'
4. Scene 4.: 'Yes, things will be much better in Strán!'
5. Scene 5.: 'Either my centre of gravity is shifting'
Disc: 2
1. Scene 6.: 'I used to steal!'
2. Act 3. Scene 7.: 'When I was a vagabond'
3. Scene 8.: 'Where is your husband, Mrs Pásek?'
4. Scene 9.: 'Wasn't I right?'

Исполнители

Leoš Janáček (1854-1928)
The Cunning Little Vixen (Príhody Lisky Bystrousky), opera, JW 1/9
Revírník / Forester (bas/bass) Richard NovákPaní revírníková / Forester’s Wife – Sova / Owl (soprán/soprano) Helena BuldrováRechtor / Schoolmaster – Komár / Gnat (tenor) Miroslav FrydlewiczFarář / Parson – Jezevec / Badger (bas/bass) Karel PrůšaHarašta, obchodník drůbeží / Pedlar (baryton/baritone) Jaroslav SoučekPásek, hostinský / Innkeeper (bas/bass) Karel HanusPaní Pásková, jeho zena / Mrs. Pásek (soprán/soprano) Drahomíra TikalováBystrouška (soprán/soprano) Magdaléna HajóssyováDatel / Woodpecker (alt/contralto) Marie MrázováLišák Zlatohřbítek / Goldskin, the fox (soprán/soprano) Gabriela Beňačková-ČápováMalá Bystrouška / The Little Vixen (soprán/soprano) Milena ChromkováFrantík - Jiřina MarkováPepík (soprán/soprano) Jarmila Svobodová-ŽilkováLapák, pes / Dog (alt/contralto) Ivana MixováKohout, sojka / Rooster (soprán/soprano) Libuše DomanínskáChocholka, slípka / Hen – Sojka / Jay (soprán/soprano) Božena EffenberkováLištička / A young vixen - Marie KouckáCvrček / Cricket - Irena PillicheváKobylka / The Grasshopperchildren's voices (sopránky/sopranos) Gabriela KrčkováSkokánek / Frog - Marie Koucká
Cvrček / Cricket, Kobylka / Grasshopper, Skokánek / Frog, Malá Bystrouška / YoungVixen, Lištičky / Little Foxes (dětské hlasy/children’s voices)členové Kühnova dětského sboru / Members of the Kühn Children’s ChoirSlípky / Hens, Lesní havěť / Forest Creatures
Kühn Children's ChorusCzech Philharmonic Chorus and OrchestraVáclav Neumann, conductor
Pražský filharmonický sbor, Josef Veselka (Sbormistr)Kühnův dětský sbor, Jiří Chvála (Sbormistr)Česká filharmonie, Václav Neumann (Řídí)
Recorded at the Dvorak Hall of the House of Artists, Prague, 18 December 1979 & 26 June, 1980Audio CD (October 1, 1992)

Лог создания рипа

CD1

Exact Audio Copy V1.0 beta 3 from 29. August 2011
EAC extraction logfile from 30. October 2014, 21:53
Vaclav Neumann / Janacek - The Cunning Little Vixen (CD 1)
Used drive : MATSHITADVD-RAM UJ8C2 S Adapter: 0 ID: 0
Read mode : SecureUtilize accurate stream : YesDefeat audio cache : YesMake use of C2 pointers : No
Read offset correction : 103Overread into Lead-In and Lead-Out : NoFill up missing offset samples with silence : YesDelete leading and trailing silent blocks : NoNull samples used in CRC calculations : YesUsed interface : Native Win32 interface for Win NT & 2000
Used output format : User Defined EncoderSelected bitrate : 768 kBit/sQuality : HighAdd ID3 tag : NoCommand line compressor : C:\Program Files (x86)\Exact Audio Copy\FLAC\FLAC.EXEAdditional command line options : -8 -V -T "ARTIST=%artist%" -T "TITLE=%title%" -T "ALBUM=%albumtitle%" -T "DATE=%year%" -T "TRACKNUMBER=%tracknr%" -T "GENRE=%genre%" -T "PERFORMER=%albuminterpret%" -T "COMPOSER=%composer%" %haslyrics%--tag-from-file=LYRICS="%lyricsfile%"%haslyrics% -T "ALBUMARTIST=%albumartist%" -T "DISCNUMBER=%cdnumber%" -T "TOTALDISCS=%totalcds%" -T "TOTALTRACKS=%numtracks%" -T "COMMENT=%comment%" %source% -o %dest%
TOC of the extracted CD
Track | Start | Length | Start sector | End sector --------------------------------------------------------- 1 | 0:00.33 | 11:48.25 | 33 | 53157 2 | 11:48.58 | 14:39.40 | 53158 | 119122 3 | 26:28.23 | 3:17.72 | 119123 | 133969 4 | 29:46.20 | 8:24.60 | 133970 | 171829 5 | 38:11.05 | 7:09.15 | 171830 | 204019
Range status and errors
Selected range
Filename D:\Janacek - The Cunning Little Vixen (CD 1) - Neumann.wav
Peak level 80.2 % Extraction speed 3.8 X Range quality 100.0 % Test CRC 398DFD3E Copy CRC 398DFD3E Copy OK
No errors occurred
AccurateRip summary
Track 1 accurately ripped (confidence 3) [4201C8DC] (AR v2)Track 2 accurately ripped (confidence 3) [24F031CD] (AR v2)Track 3 accurately ripped (confidence 3) [2DC7F908] (AR v2)Track 4 accurately ripped (confidence 3) [AECC672F] (AR v2)Track 5 accurately ripped (confidence 3) [744904E1] (AR v2)
All tracks accurately ripped
End of status report
---- CUETools DB Plugin V2.1.3
[CTDB TOCID: 4nvgFnt_qsACL9gNrF1DLqYbMRY-] disk not present in database, Submit result: discs with pregaps not supported in this protocol version

CD2

Exact Audio Copy V1.0 beta 3 from 29. August 2011
EAC extraction logfile from 30. October 2014, 22:55
Václav Neumann / Janacek - The Cunning Little Vixen (CD 2)
Used drive : MATSHITADVD-RAM UJ8C2 S Adapter: 0 ID: 0
Read mode : SecureUtilize accurate stream : YesDefeat audio cache : YesMake use of C2 pointers : No
Read offset correction : 103Overread into Lead-In and Lead-Out : NoFill up missing offset samples with silence : YesDelete leading and trailing silent blocks : NoNull samples used in CRC calculations : YesUsed interface : Native Win32 interface for Win NT & 2000
Used output format : User Defined EncoderSelected bitrate : 768 kBit/sQuality : HighAdd ID3 tag : NoCommand line compressor : C:\Program Files (x86)\Exact Audio Copy\FLAC\FLAC.EXEAdditional command line options : -8 -V -T "ARTIST=%artist%" -T "TITLE=%title%" -T "ALBUM=%albumtitle%" -T "DATE=%year%" -T "TRACKNUMBER=%tracknr%" -T "GENRE=%genre%" -T "PERFORMER=%albuminterpret%" -T "COMPOSER=%composer%" %haslyrics%--tag-from-file=LYRICS="%lyricsfile%"%haslyrics% -T "ALBUMARTIST=%albumartist%" -T "DISCNUMBER=%cdnumber%" -T "TOTALDISCS=%totalcds%" -T "TOTALTRACKS=%numtracks%" -T "COMMENT=%comment%" %source% -o %dest%
TOC of the extracted CD
Track | Start | Length | Start sector | End sector --------------------------------------------------------- 1 | 0:00.32 | 19:05.30 | 32 | 85936 2 | 19:05.62 | 14:42.40 | 85937 | 152126 3 | 33:48.27 | 9:08.38 | 152127 | 193264 4 | 42:56.65 | 7:25.55 | 193265 | 226694
Range status and errors
Selected range
Filename D:\Janacek - The Cunning Little Vixen (CD 2) - Neumann.wav
Peak level 83.1 % Extraction speed 3.9 X Range quality 100.0 % Test CRC 9DDC3F55 Copy CRC 9DDC3F55 Copy OK
No errors occurred
AccurateRip summary
Track 1 accurately ripped (confidence 3) [EFC1BCDD] (AR v2)Track 2 accurately ripped (confidence 3) [5ED60FF6] (AR v2)Track 3 accurately ripped (confidence 3) [082D9788] (AR v2)Track 4 accurately ripped (confidence 3) [ADEE00D6] (AR v2)
All tracks accurately ripped
End of status report
---- CUETools DB Plugin V2.1.3
[CTDB TOCID: x94aqdcWwQFjdMYPP_f3c3er44g-] disk not present in database, Submit result: discs with pregaps not supported in this protocol version

Содержание индексной карты (.CUE)

CD1

REM GENRE OperaREM DATE 1992REM DISCID 410AA005REM COMMENT "ExactAudioCopy v1.0b3"PERFORMER "Pražský filharmonický sbor, Josef Veselka (Sbormistr) / Kühnův dětský sbor, Jiří Chvála (Sbormistr) / Česká filharmonie, Václav Neumann (Řídí) / Revírník (bas) Richard Novák, Paní revírníková – sova (soprán) Helena Buldrová, Rechtor – komár (tenor) Miroslav Frydlewicz, Farář - Jezevec (bas) Karel Průša, Harašta, obchodník drůbeží (baryton) Jaroslav Souček, Pásek, hostinský (bas) Karel Hanus, Paní Pásková (soprán) Drahomíra Tikalová, Bystrouška (soprán) Magdaléna Hajóssyová, Datel (alt/contralto) Marie Mrázová, Lišák Zlatohřbítek (soprán) Gabriela Beňačková-Čápová, Malá Bystrouška (soprán) Milena Chromková, Frantík - Jiřina Marková, Pepík (soprán) Jarmila Svobodová-Žilková, Lapák, pes (alt/contralto) Ivana Mixová, Kohout (soprán/soprano) Libuše Domanínská, Chocholka, slípka (soprán) Božena Effenberková, Lištička - Marie Koucká, Cvrček - Irena Pillichevá, Kobylka (sopránky) Gabriela Krčková, Skokánek - Marie Koucká"TITLE "Janacek - The Cunning Little Vixen (CD 1)"REM COMPOSER "Leoš Janáček (1854–1928)"FILE "Janáček - The Cunning Little Vixen (CD 1) - Neumann.flac" WAVE  TRACK 01 AUDIO    TITLE "1. DĚJSTVÍ. 1. obraz. 1,1 Orchestrální úvod / 1,2 “Dostaneme bóřku” (revírník, kobylka, cvrček, komár, skokánek, Malinká Bystrouška, Bystrouška)"    PERFORMER "Česká filharmonie, Václav Neumann & Richard Novák, Irena Pillichevá, Gabriela Krčková, Miroslav Frydlewicz, Marie Koucká, Milena Chromková, Magdaléna Hajóssyová"    REM COMPOSER "Leoš Janáček (1854–1928)"    FLAGS PRE    INDEX 00 00:00:00    INDEX 01 00:00:33    INDEX 02 03:31:60  TRACK 02 AUDIO    TITLE "2. obraz. 2,1 Orchestrální mezihra / 2,2 “To čučíš, Lapáku?” (revírník, revírníková, Bystrouška, Lapák, frantík, pepík) / 2,3 “Bystrouščin dívčí zjev” (orch.) / 2,4 “Mělas dělat podlivá mně!” (Lapák, kohout, slípky, chocholka, Bystrouška, revírníková, revírník)"    PERFORMER "Česká filharmonie, Václav Neumann & Richard Novák, Helena Buldrová, Magdaléna Hajóssyová, Ivana Mixová, Jarmila Svobodová-Žilková, Jiřina Marková, Libuše Domanínská, Božena Effenberková"    REM COMPOSER "Leoš Janáček (1854–1928)"    FLAGS PRE    INDEX 00 11:46:53    INDEX 01 11:48:58    INDEX 02 13:52:45    INDEX 03 17:50:20    INDEX 04 21:33:43  TRACK 03 AUDIO    TITLE "2. DĚJSTVÍ. 3. obraz. 3,1 Orchestrální úvod / 3,2 “Ach!” (Byštrouska, jezevec, lesní havěť)"    PERFORMER "Pražský filharmonický sbor, Josef Veselka / Kühnův dětský sbor, Jiří Chvála / Česká filharmonie, Václav Neumann & Magdaléna Hajóssyová, Karel Průša"    REM COMPOSER "Leoš Janáček (1854–1928)"    FLAGS PRE    INDEX 00 26:25:68    INDEX 01 26:28:23    INDEX 02 27:35:00  TRACK 04 AUDIO    TITLE "4. obraz. 4,1 Orchestrální mezihra / 4,2 “Ano, ve stráni bude daleko lépe!” (farář, revírník, rechtor) / 4,2 “Domů? Pro ten šňupec tvého spaní?” (revírník, pásek)"    PERFORMER "Česká filharmonie, Václav Neumann & Karel Průša, Richard Novák, Miroslav Frydlewicz, Karel Hanus"    REM COMPOSER "Leoš Janáček (1854–1928)"    FLAGS PRE    INDEX 01 29:46:20    INDEX 02 31:02:65    INDEX 03 35:46:20  TRACK 05 AUDIO    TITLE "5. obraz. 5,1 Orchestrální mezihra. “Buďto mám těžiště pohyblivé” (rechtor, Bystrouška) / 5,2 “Pomni, abys byl dobrým muzém!” (farář, revírník, rechtor)"    PERFORMER "Česká filharmonie, Václav Neumann & Miroslav Frydlewicz, Magdaléna Hajóssyová, Karel Průša, Richard Novák"    REM COMPOSER "Leoš Janáček (1854–1928)"    FLAGS PRE    INDEX 01 38:11:05    INDEX 02 41:32:20

CD2

REM DATE 1992REM DISCID 2A0BCE04REM COMMENT "ExactAudioCopy v1.0b3"PERFORMER "Pražský filharmonický sbor, Josef Veselka (Sbormistr) / Kühnův dětský sbor, Jiří Chvála (Sbormistr) / Česká filharmonie, Václav Neumann (Řídí) / Revírník (bas) Richard Novák, Paní revírníková – sova (soprán) Helena Buldrová, Rechtor – komár (tenor) Miroslav Frydlewicz, Farář - Jezevec (bas) Karel Průša, Harašta, obchodník drůbeží (baryton) Jaroslav Souček, Pásek, hostinský (bas) Karel Hanus, Paní Pásková (soprán) Drahomíra Tikalová, Bystrouška (soprán) Magdaléna Hajóssyová, Datel (alt/contralto) Marie Mrázová, Lišák Zlatohřbítek (soprán) Gabriela Beňačková-Čápová, Malá Bystrouška (soprán) Milena Chromková, Frantík - Jiřina Marková, Pepík (soprán) Jarmila Svobodová-Žilková, Lapák, pes (alt/contralto) Ivana Mixová, Kohout (soprán/soprano) Libuše Domanínská, Chocholka, slípka (soprán) Božena Effenberková, Lištička - Marie Koucká, Cvrček - Irena Pillichevá, Kobylka (sopránky) Gabriela Krčková, Skokánek - Marie Koucká"TITLE "Janacek - The Cunning Little Vixen (CD 2)"REM COMPOSER "Leoš Janáček (1854–1928)"FILE "Janáček - The Cunning Little Vixen (CD 2) - Neumann.flac" WAVE  TRACK 01 AUDIO    TITLE "6. obraz. 1,1 Orchestrální úvod. “Bóžinku, ten je hezké!” (Byštrouska, lišák) / 1,2 “Kradlajsem!” (Byštrouska, lišák) / 1,3 “Zlatohřbítek, lišák” (lišák, Byštrouska) / 1,4 “Kdybyste věděli” (sova, sojka, Byštrouska, lišák, datel, hlas lesa)"    PERFORMER "Pražský filharmonický sbor, Josef Veselka / Česká filharmonie, Václav Neumann & Magdaléna Hajóssyová, Gabriela Beňačková-Čápová, Helena Buldrová, Božena Effenberková, Marie Mrázová"    REM COMPOSER "Leoš Janáček (1854–1928)"    INDEX 00 00:00:00    INDEX 01 00:00:32    INDEX 02 03:00:52    INDEX 03 06:08:72    INDEX 04 15:24:40  TRACK 02 AUDIO    TITLE "7. obraz. 2,1 Orchestrální úvod. “Déž sem vandroval” (Harašta, revírník) / 2,2 “Běží liška k Táboru” (lištičky, Bystrouška, lišák, první lištička, lištičky) / 2,3 “Kolik jsme už měli dětí?” (lišák, Bystrouška, ) / 2,4 “Nůšu důle” (Harašta, Bystrouška)"    PERFORMER "Kühnův dětský sbor, Jiří Chvála / Česká filharmonie, Václav Neumann & Jaroslav Souček, Richard Novák, Magdaléna Hajóssyová, Gabriela Beňačková-Čápová"    REM COMPOSER "Leoš Janáček (1854–1928)"    FLAGS PRE    INDEX 00 18:59:30    INDEX 01 19:05:62    INDEX 02 25:59:02    INDEX 03 27:57:33    INDEX 04 30:27:67  TRACK 03 AUDIO    TITLE "3. DĚJSTVÍ. 8. obraz. 3,1 Orchestrální úvod. “A kde otec Pásek?” (revírník, Pásková, rechtor)"    PERFORMER "Česká filharmonie, Václav Neumann & Richard Novák, Drahomíra Tikalová, Miroslav Frydlewicz"    REM COMPOSER "Leoš Janáček (1854–1928)"    FLAGS PRE    INDEX 01 33:48:27    INDEX 02 37:39:27  TRACK 04 AUDIO    TITLE "9. obraz. 4,1 Orchestrální mezihra. “Neříkal jsem to?” (revírník, skokánek)"    PERFORMER "Česká filharmonie, Václav Neumann & Richard Novák, Marie Koucká"    REM COMPOSER "Leoš Janáček (1854–1928)"    FLAGS PRE    INDEX 01 42:56:65

[doutdess.info].t261630.torrent
Торрент: Зарегистрирован [ 2018-04-16 16:55 ] · 898DFE1F10A02F2195E332D19FDDF52EC789AC81

19 KB

Статус: проверено
Скачан: 0 раз
Размер: 432 MB
(Classical opera) Janacek - The Cunning Little Vixen / Яначек - Приключения лисички-плутовки [2CD\'s] (Kuhn Children\'s Chorus, Czech Philharmonic Chorus and Orchestra, Vaclav Neumann) - 1992, FLAC (image+.cue) lossless скачать торрент бесплатно и без регистрации

[Профиль] [ЛС]
Форум Тема Автор Размер
Вокальная музыка в lossless ((classical/operetta)) Schönes bleibt. Unvergessene Tenöre bei WDR 4 / Прекрасное остаётся - 2000, FLAC (image+.cue) lossless Vi$itReal 401 MB
Вокальная и хоровая музыка lossy (Classical (Lieder)) (Lieder) Norman Bailey - Songs of Hugo Wolf - 1979, MP3 (tracks) 320 kbps RelizMAN 120 MB
Концерт для инструмента с оркестром в lossless (Classical ) Top 20 CDs for your Classical Music Collection - ClassicalCDguide.com: 02 - W. A. Mozart - Great Piano Concertos N 20 - 25 (1997) APE (tracks), 450-566 kb/s RelizMAN 582 MB
Концерт для инструмента с оркестром в lossless (Classical ) Top 20 CDs for your Classical Music Collection - ClassicalCDguide.com: 04 - Bach: Die Brandenburgische Konzerte - Orchestra of the Age of Enlightenment 2 CD (1999) APE (tracks), 610-769... RelizMAN 462 MB
Оркестровая музыка в lossless (Classical ) Top 20 CDs for your Classical Music Collection - ClassicalCDguide.com: 06 - Igor Stravinsky; Petroushka, Le Sacre du Printemps - Columbia Symphony Orchestra (Sony 1990) APE (tracks),... Vi$itReal 274 MB
Камерная инструментальная музыка в lossless (Classical ) Top 20 CDs for your Classical Music Collection - ClassicalCDguide.com: 07 - Franz Schubert - \'Trout\' Quintet & \'Death and the Maiden\' - Amadeus Quartet (DG ... Vi$itReal 343 MB
Камерная инструментальная музыка в lossless (Classical ) Top 20 CDs for your Classical Music Collection - ClassicalCDguide.com: 10 - Georges Bizet; Carmen - Sir Thomas Beecham, de Los Angeles, Gedda, Michau, Blanc (EMI 2000) аре (по-треково),... Vi$itReal 745 MB
Камерная инструментальная музыка в lossless (Classical ) Top 20 CDs for your Classical Music Collection - ClassicalCDguide.com: 12 - Франц Шуберт - Симфония No. 3, Unfinished 39; - Carlos Kleiber и Wiener Philharmoniker (DG 1... Vi$itReal 186 MB
Показать сообщения:    

Текущее время: 21-Апр 14:41

Часовой пояс: UTC + 3



Вы не можете начинать темы
Вы не можете отвечать на сообщения
Вы не можете редактировать свои сообщения
Вы не можете удалять свои сообщения
Вы не можете голосовать в опросах
Вы не можете прикреплять файлы к сообщениям
Вы можете скачивать файлы


Рейтинг@Mail.ru