Reply to topic
DL-List and Torrent activity [Update пиров]
Size:  276 MB   |    Registered:  3 years 8 months   |    Completed:  0 times
Seeders:  109  [  0 KB/s  ]   Leechers:  13  [  0 KB/s  ]  
 
     
 
 
Author Message

Vi$itReal ®

12

Post 04-Oct-2015 19:05

[Quote]

Комитас / Komitas Vardapet - Hommage a Komitas: Armenian and German Songs
Жанр: Classical
Год издания диска: 2010
Издатель (лейбл): Audite
Номер по каталогу: no
Дата записи: 2010
Аудиокодек: FLAC
Тип рипа: tracks+.cue
Битрейт аудио: lossless
Продолжительность: 01:13:10
Источник: собственный рип
Наличие сканов в содержимом раздачи: да
Исполнители:
Hasmik Papian, soprano
Vardan Mamikonian, piano

Треклист:

01. Dsirani dsar (Apricot Tree) (03:03)
02. Garun a, dzun a arel (It is Spring, but Snow has Fallen) (02:42)
03. Antuni (Song of the Homeless) (04:34)
04. Kanche, krunk (Crane, Sing) (02:39)
05. Garun (Spring) (03:48)
Mankakan aghotq.
06. Hayr Mer (Children's Prayer: Our Father) (00:59)
07. Oror, Adino (Lullaby) (02:49)
08. Tchinar es (Like a Poplar) (03:16)
09. Erkink'n ampel e (The Sky is Cloudy) (01:15)
10. Shogher djan (Dear Shogher) (01:07)
11. Chem kina khagha (I cannot dance) (01:14)
12. K'eler, tsoler (He Walked, Radiant) (02:34)
13. Es saren kugayi (I Returned from the Mountain) (02:10)
14. Es arun djur e gali (Water Flows Down This Stream) (00:37)
15. Hoy, Nazan (Oh, Nazan) (01:26)
16. Shakhkr, shukhkr (00:47)
17. Hoy, Nazan im (Hey, My dear Nazan) (02:36)
18. Alagyaz sarn ampel a (Alagyaz is covered with Clouds) (01:23)
19. Khnki dsar (Incense Tree) (00:40)
20. Ampel a kamar-kamar (The Clouds formed Arches) (01:31)
21. K'ele, K'ele (March, March) (02:05)
22. Kak'avi erg (Song of the Partridge) (00:58)
23. Es gisher, lusnak gisher (This Night, Moonlit night) (01:42)
24. Le, le yaman (Love song) (03:38)
25. Krunk (The Crane) (03:44)
26. Hayastan (Armenia) (02:51)
9 Songs on German Poems (Johanna Ambrosius).
27. No. 1. April (01:39)
28. No. 2. Fruhlingsruhe (01:16)
29. No. 3. Du Fragst? (01:31)
30. No. 4. Komm, O Nacht (02:24)
31. No. 5. Meeresstille (01:27)
32. No. 6. Gluckliche Fahrt (00:54)
33. No. 7. Nachtlied (01:29)
34. No. 8. Nebel (01:27)
35. No. 9. Sturmesmythe (04:55)

-

LOG EAC:

Exact Audio Copy V1.0 beta 3 from 29. August 2011
EAC extraction logfile from 4. October 2015, 17:34
Hasmik Papian, Vardan Mamikonian / Hommage a Komitas
Used drive : PIONEER DVD-RW DVR-221L Adapter: 2 ID: 0
Read mode : SecureUtilize accurate stream : YesDefeat audio cache : YesMake use of C2 pointers : No
Read offset correction : 6Overread into Lead-In and Lead-Out : NoFill up missing offset samples with silence : YesDelete leading and trailing silent blocks : NoNull samples used in CRC calculations : YesUsed interface : Installed external ASPI interfaceGap handling : Appended to previous track
Used output format : User Defined EncoderSelected bitrate : 768 kBit/sQuality : HighAdd ID3 tag : NoCommand line compressor : C:\Program Files\Exact Audio Copy\Flac\flac.exeAdditional command line options : -6 -V -T "ARTIST=%artist%" -T "TITLE=%title%" -T "ALBUM=%albumtitle%" -T "DATE=%year%" -T "TRACKNUMBER=%tracknr%" -T "GENRE=%genre%" -T "COMMENT=%comment%" -T "ALBUMARTIST=%albuminterpret%" -T "COMPOSER=%composer%" -T "DISCNUMBER=%cdnumber%" -T "TOTALDISCS=%totalcds%" -T "TOTALTRACKS=%numtracks%" %source% -o %dest%
TOC of the extracted CD
Track | Start | Length | Start sector | End sector --------------------------------------------------------- 1 | 0:00.00 | 3:03.22 | 0 | 13746 2 | 3:03.22 | 2:42.07 | 13747 | 25903 3 | 5:45.29 | 4:34.36 | 25904 | 46489 4 | 10:19.65 | 2:39.25 | 46490 | 58439 5 | 12:59.15 | 3:47.72 | 58440 | 75536 6 | 16:47.12 | 0:58.58 | 75537 | 79944 7 | 17:45.70 | 2:48.73 | 79945 | 92617 8 | 20:34.68 | 3:16.02 | 92618 | 107319 9 | 23:50.70 | 1:14.62 | 107320 | 112931 10 | 25:05.57 | 1:07.15 | 112932 | 117971 11 | 26:12.72 | 1:14.00 | 117972 | 123521 12 | 27:26.72 | 2:34.25 | 123522 | 135096 13 | 30:01.22 | 2:10.33 | 135097 | 144879 14 | 32:11.55 | 0:36.59 | 144880 | 147638 15 | 32:48.39 | 1:25.66 | 147639 | 154079 16 | 34:14.30 | 0:46.62 | 154080 | 157591 17 | 35:01.17 | 2:36.05 | 157592 | 169296 18 | 37:37.22 | 1:23.16 | 169297 | 175537 19 | 39:00.38 | 0:39.59 | 175538 | 178521 20 | 39:40.22 | 1:31.07 | 178522 | 185353 21 | 41:11.29 | 2:05.18 | 185354 | 194746 22 | 43:16.47 | 0:57.43 | 194747 | 199064 23 | 44:14.15 | 1:41.45 | 199065 | 206684 24 | 45:55.60 | 3:38.37 | 206685 | 223071 25 | 49:34.22 | 3:44.00 | 223072 | 239871 26 | 53:18.22 | 2:51.31 | 239872 | 252727 27 | 56:09.53 | 1:39.20 | 252728 | 260172 28 | 57:48.73 | 1:16.24 | 260173 | 265896 29 | 59:05.22 | 1:31.00 | 265897 | 272721 30 | 60:36.22 | 2:24.00 | 272722 | 283521 31 | 63:00.22 | 1:27.00 | 283522 | 290046 32 | 64:27.22 | 0:54.00 | 290047 | 294096 33 | 65:21.22 | 1:29.00 | 294097 | 300771 34 | 66:50.22 | 1:27.00 | 300772 | 307296 35 | 68:17.22 | 4:55.14 | 307297 | 329435
Track 1
Filename D:\EAC\01 - Dsirani dsar (Apricot Tree).wav
Pre-gap length 0:00:02.00
Peak level 65.2 % Extraction speed 4.6 X Track quality 100.0 % Test CRC 39AD6550 Copy CRC 39AD6550 Cannot be verified as accurate (confidence 1) [38BDF10D], AccurateRip returned [AF97BB48] (AR v2) Copy OK
Track 2
Filename D:\EAC\02 - Garun a, dzun a arel (It is Spring, but Snow has Fallen).wav
Peak level 82.2 % Extraction speed 4.9 X Track quality 100.0 % Test CRC B9D4D317 Copy CRC B9D4D317 Cannot be verified as accurate (confidence 1) [68BA79E4], AccurateRip returned [72729F7D] (AR v2) Copy OK
Track 3
Filename D:\EAC\03 - Antuni (Song of the Homeless).wav
Peak level 87.4 % Extraction speed 5.7 X Track quality 100.0 % Test CRC D87DD0A7 Copy CRC D87DD0A7 Cannot be verified as accurate (confidence 1) [16B7E592], AccurateRip returned [20CAFF54] (AR v2) Copy OK
Track 4
Filename D:\EAC\04 - Kanche, krunk (Crane, Sing).wav
Peak level 65.5 % Extraction speed 4.2 X Track quality 99.9 % Test CRC E573B8D0 Copy CRC E573B8D0 Cannot be verified as accurate (confidence 1) [95BF6B59], AccurateRip returned [C4EAEE11] (AR v2) Copy OK
Track 5
Filename D:\EAC\05 - Garun (Spring).wav
Peak level 67.3 % Extraction speed 6.2 X Track quality 100.0 % Test CRC EB28394D Copy CRC EB28394D Cannot be verified as accurate (confidence 1) [092B7C68], AccurateRip returned [820184AB] (AR v2) Copy OK
Track 6
Filename D:\EAC\06 - Mankakan aghotq. Hayr Mer (Children's Prayer- Our Father).wav
Peak level 48.5 % Extraction speed 2.7 X Track quality 99.8 % Test CRC CD5FEEA2 Copy CRC CD5FEEA2 Cannot be verified as accurate (confidence 1) [93FD72DB], AccurateRip returned [62AAD675] (AR v2) Copy OK
Track 7
Filename D:\EAC\07 - Oror, Adino (Lullaby).wav
Peak level 56.2 % Extraction speed 4.7 X Track quality 99.9 % Test CRC 296114CD Copy CRC 296114CD Cannot be verified as accurate (confidence 1) [C41CC93D], AccurateRip returned [CC7DA60F] (AR v2) Copy OK
Track 8
Filename D:\EAC\08 - Tchinar es (Like a Poplar).wav
Peak level 55.7 % Extraction speed 6.7 X Track quality 100.0 % Test CRC 39C6C2C3 Copy CRC 39C6C2C3 Cannot be verified as accurate (confidence 1) [3E3654D5], AccurateRip returned [1747204D] (AR v2) Copy OK
Track 9
Filename D:\EAC\09 - Erkink'n ampel e (The Sky is Cloudy).wav
Peak level 64.1 % Extraction speed 5.4 X Track quality 100.0 % Test CRC 4EF7AC7C Copy CRC 4EF7AC7C Cannot be verified as accurate (confidence 1) [956EDC55], AccurateRip returned [3C10A6BD] (AR v2) Copy OK
Track 10
Filename D:\EAC\10 - Shogher djan (Dear Shogher).wav
Peak level 68.7 % Extraction speed 5.3 X Track quality 100.0 % Test CRC 0AE7673D Copy CRC 0AE7673D Cannot be verified as accurate (confidence 1) [31DBE05F], AccurateRip returned [C493E5F2] (AR v2) Copy OK
Track 11
Filename D:\EAC\11 - Chem kina khagha (I cannot dance).wav
Peak level 55.9 % Extraction speed 3.5 X Track quality 99.8 % Test CRC 56D2B8AD Copy CRC 56D2B8AD Cannot be verified as accurate (confidence 1) [A61742AD], AccurateRip returned [1E9348B7] (AR v2) Copy OK
Track 12
Filename D:\EAC\12 - K'eler, tsoler (He Walked, Radiant).wav
Peak level 47.9 % Extraction speed 5.1 X Track quality 99.9 % Test CRC 10B48549 Copy CRC 10B48549 Cannot be verified as accurate (confidence 1) [A8B30623], AccurateRip returned [843772A2] (AR v2) Copy OK
Track 13
Filename D:\EAC\13 - Es saren kugayi (I Returned from the Mountain).wav
Peak level 71.0 % Extraction speed 4.9 X Track quality 99.9 % Test CRC 2DCE2278 Copy CRC 2DCE2278 Cannot be verified as accurate (confidence 1) [6704F07B], AccurateRip returned [E0272BB4] (AR v2) Copy OK
Track 14
Filename D:\EAC\14 - Es arun djur e gali (Water Flows Down This Stream).wav
Peak level 53.3 % Extraction speed 4.1 X Track quality 100.0 % Test CRC 5F806E7C Copy CRC 5F806E7C Cannot be verified as accurate (confidence 1) [A8C73552], AccurateRip returned [93721235] (AR v2) Copy OK
Track 15
Filename D:\EAC\15 - Hoy, Nazan (Oh, Nazan).wav
Peak level 62.1 % Extraction speed 6.1 X Track quality 100.0 % Test CRC B49ED388 Copy CRC B49ED388 Cannot be verified as accurate (confidence 1) [9980CE2A], AccurateRip returned [528C2F79] (AR v2) Copy OK
Track 16
Filename D:\EAC\16 - Shakhkr, shukhkr.wav
Peak level 83.7 % Extraction speed 2.8 X Track quality 99.7 % Test CRC FEEC76FA Copy CRC FEEC76FA Cannot be verified as accurate (confidence 1) [C6FF85E2], AccurateRip returned [3EC1E84E] (AR v2) Copy OK
Track 17
Filename D:\EAC\17 - Hoy, Nazan im (Hey, My dear Nazan).wav
Peak level 20.5 % Extraction speed 7.2 X Track quality 100.0 % Test CRC FAFECF01 Copy CRC FAFECF01 Cannot be verified as accurate (confidence 1) [45DFF081], AccurateRip returned [1013F2BC] (AR v2) Copy OK
Track 18
Filename D:\EAC\18 - Alagyaz sarn ampel a (Alagyaz is covered with Clouds).wav
Pre-gap length 0:00:00.01
Peak level 70.9 % Extraction speed 6.1 X Track quality 100.0 % Test CRC 3793A2E5 Copy CRC 3793A2E5 Cannot be verified as accurate (confidence 1) [02B9589F], AccurateRip returned [D4EE0398] (AR v2) Copy OK
Track 19
Filename D:\EAC\19 - Khnki dsar (Incense Tree).wav
Peak level 54.6 % Extraction speed 4.4 X Track quality 100.0 % Test CRC 4F160443 Copy CRC 4F160443 Cannot be verified as accurate (confidence 1) [DCABC15F], AccurateRip returned [00650D3C] (AR v2) Copy OK
Track 20
Filename D:\EAC\20 - Ampel a kamar-kamar (The Clouds formed Arches).wav
Peak level 59.2 % Extraction speed 6.7 X Track quality 100.0 % Test CRC 77DC296B Copy CRC 77DC296B Cannot be verified as accurate (confidence 1) [8D8CA275], AccurateRip returned [66406C6D] (AR v2) Copy OK
Track 21
Filename D:\EAC\21 - K'ele, K'ele (March, March).wav
Peak level 70.1 % Extraction speed 7.2 X Track quality 100.0 % Test CRC 8062A961 Copy CRC 8062A961 Cannot be verified as accurate (confidence 1) [C8089693], AccurateRip returned [E9BEAC67] (AR v2) Copy OK
Track 22
Filename D:\EAC\22 - Kak'avi erg (Song of the Partridge).wav
Peak level 46.3 % Extraction speed 5.6 X Track quality 100.0 % Test CRC DFF8C3CC Copy CRC DFF8C3CC Cannot be verified as accurate (confidence 1) [07A9BFE6], AccurateRip returned [A9268E1F] (AR v2) Copy OK
Track 23
Filename D:\EAC\23 - Es gisher, lusnak gisher (This Night, Moonlit night).wav
Peak level 93.8 % Extraction speed 4.7 X Track quality 99.8 % Test CRC 559D2F6D Copy CRC 559D2F6D Cannot be verified as accurate (confidence 1) [127BE6B2], AccurateRip returned [86338636] (AR v2) Copy OK
Track 24
Filename D:\EAC\24 - Le, le yaman (Love song).wav
Peak level 47.6 % Extraction speed 8.0 X Track quality 100.0 % Test CRC CD27D88A Copy CRC CD27D88A Cannot be verified as accurate (confidence 1) [6D839A63], AccurateRip returned [C147B63E] (AR v2) Copy OK
Track 25
Filename D:\EAC\25 - Krunk (The Crane).wav
Peak level 53.0 % Extraction speed 8.0 X Track quality 100.0 % Test CRC 67D92C5E Copy CRC 67D92C5E Cannot be verified as accurate (confidence 1) [33F08105], AccurateRip returned [464F5200] (AR v2) Copy OK
Track 26
Filename D:\EAC\26 - Hayastan (Armenia).wav
Peak level 81.3 % Extraction speed 8.1 X Track quality 100.0 % Test CRC 42D8B176 Copy CRC 42D8B176 Cannot be verified as accurate (confidence 1) [5A68E111], AccurateRip returned [AC389E6F] (AR v2) Copy OK
Track 27
Filename D:\EAC\27 - 9 Songs on German Poems (Johanna Ambrosius). No. 1. April.wav
Peak level 58.4 % Extraction speed 4.9 X Track quality 99.8 % Test CRC 0CFD75C7 Copy CRC 0CFD75C7 Cannot be verified as accurate (confidence 1) [585C130A], AccurateRip returned [7874575A] (AR v2) Copy OK
Track 28
Filename D:\EAC\28 - No. 2. Fruhlingsruhe.wav
Peak level 40.3 % Extraction speed 4.4 X Track quality 99.8 % Test CRC 524927E7 Copy CRC 524927E7 Cannot be verified as accurate (confidence 1) [56670427], AccurateRip returned [B9766B11] (AR v2) Copy OK
Track 29
Filename D:\EAC\29 - No. 3. Du Fragst.wav
Peak level 97.6 % Extraction speed 7.2 X Track quality 100.0 % Test CRC 5F704A5A Copy CRC 5F704A5A Cannot be verified as accurate (confidence 1) [2BB67A3B], AccurateRip returned [D872F84E] (AR v2) Copy OK
Track 30
Filename D:\EAC\30 - No. 4. Komm, O Nacht.wav
Peak level 58.6 % Extraction speed 8.2 X Track quality 100.0 % Test CRC 8BCA838F Copy CRC 8BCA838F Cannot be verified as accurate (confidence 1) [6EEBCA26], AccurateRip returned [270D81CF] (AR v2) Copy OK
Track 31
Filename D:\EAC\31 - No. 5. Meeresstille.wav
Peak level 41.6 % Extraction speed 7.2 X Track quality 100.0 % Test CRC 3B93071F Copy CRC 3B93071F Cannot be verified as accurate (confidence 1) [4C9FC1EA], AccurateRip returned [8BDFD0FA] (AR v2) Copy OK
Track 32
Filename D:\EAC\32 - No. 6. Gluckliche Fahrt.wav
Peak level 93.5 % Extraction speed 6.0 X Track quality 100.0 % Test CRC 1C1ACF1D Copy CRC 1C1ACF1D Cannot be verified as accurate (confidence 1) [D6317E09], AccurateRip returned [4B136AD9] (AR v2) Copy OK
Track 33
Filename D:\EAC\33 - No. 7. Nachtlied.wav
Peak level 58.7 % Extraction speed 7.4 X Track quality 100.0 % Test CRC C58353D4 Copy CRC C58353D4 Cannot be verified as accurate (confidence 1) [C88CC0FB], AccurateRip returned [9F9FEFB0] (AR v2) Copy OK
Track 34
Filename D:\EAC\34 - No. 8. Nebel.wav
Peak level 57.2 % Extraction speed 7.3 X Track quality 100.0 % Test CRC 00DD908C Copy CRC 00DD908C Cannot be verified as accurate (confidence 1) [706A547D], AccurateRip returned [27B68149] (AR v2) Copy OK
Track 35
Filename D:\EAC\35 - No. 9. Sturmesmythe.wav
Peak level 82.0 % Extraction speed 9.6 X Track quality 100.0 % Test CRC FF4EB6F6 Copy CRC FF4EB6F6 Cannot be verified as accurate (confidence 1) [D4BBA58C], AccurateRip returned [71A8C69E] (AR v2) Copy OK
No tracks could be verified as accurateYou may have a different pressing from the one(s) in the database
No errors occurred
End of status report
==== Log checksum 46F03562B914783F6B9CE5F3EFB452442DAC000E42308A3E85434D0AC1B4BCC6 ====

LOG (.CUE):

REM GENRE ClassicalREM DATE 2006REM DISCID 10112823REM COMMENT "ExactAudioCopy v1.0b3"PERFORMER "Hasmik Papian, Vardan Mamikonian"TITLE "Hommage a Komitas"FILE "01 - Dsirani dsar (Apricot Tree).wav" WAVE TRACK 01 AUDIO TITLE "Dsirani dsar (Apricot Tree)" PERFORMER "Hasmik Papian, Vardan Mamikonian" INDEX 01 00:00:00FILE "02 - Garun a, dzun a arel (It is Spring, but Snow has Fallen).wav" WAVE TRACK 02 AUDIO TITLE "Garun a, dzun a arel (It is Spring, but Snow has Fallen)" PERFORMER "Hasmik Papian, Vardan Mamikonian" INDEX 01 00:00:00FILE "03 - Antuni (Song of the Homeless).wav" WAVE TRACK 03 AUDIO TITLE "Antuni (Song of the Homeless)" PERFORMER "Hasmik Papian, Vardan Mamikonian" INDEX 01 00:00:00FILE "04 - Kanche, krunk (Crane, Sing).wav" WAVE TRACK 04 AUDIO TITLE "Kanche, krunk (Crane, Sing)" PERFORMER "Hasmik Papian, Vardan Mamikonian" INDEX 01 00:00:00FILE "05 - Garun (Spring).wav" WAVE TRACK 05 AUDIO TITLE "Garun (Spring)" PERFORMER "Hasmik Papian, Vardan Mamikonian" INDEX 01 00:00:00FILE "06 - Mankakan aghotq. Hayr Mer (Children's Prayer- Our Father).wav" WAVE TRACK 06 AUDIO TITLE "Mankakan aghotq. Hayr Mer (Children's Prayer: Our Father)" PERFORMER "Hasmik Papian, Vardan Mamikonian" INDEX 01 00:00:00FILE "07 - Oror, Adino (Lullaby).wav" WAVE TRACK 07 AUDIO TITLE "Oror, Adino (Lullaby)" PERFORMER "Hasmik Papian, Vardan Mamikonian" INDEX 01 00:00:00FILE "08 - Tchinar es (Like a Poplar).wav" WAVE TRACK 08 AUDIO TITLE "Tchinar es (Like a Poplar)" PERFORMER "Hasmik Papian, Vardan Mamikonian" INDEX 01 00:00:00FILE "09 - Erkink'n ampel e (The Sky is Cloudy).wav" WAVE TRACK 09 AUDIO TITLE "Erkink'n ampel e (The Sky is Cloudy)" PERFORMER "Hasmik Papian, Vardan Mamikonian" INDEX 01 00:00:00FILE "10 - Shogher djan (Dear Shogher).wav" WAVE TRACK 10 AUDIO TITLE "Shogher djan (Dear Shogher)" PERFORMER "Hasmik Papian, Vardan Mamikonian" INDEX 01 00:00:00FILE "11 - Chem kina khagha (I cannot dance).wav" WAVE TRACK 11 AUDIO TITLE "Chem kina khagha (I cannot dance)" PERFORMER "Hasmik Papian, Vardan Mamikonian" INDEX 01 00:00:00FILE "12 - K'eler, tsoler (He Walked, Radiant).wav" WAVE TRACK 12 AUDIO TITLE "K'eler, tsoler (He Walked, Radiant)" PERFORMER "Hasmik Papian, Vardan Mamikonian" INDEX 01 00:00:00FILE "13 - Es saren kugayi (I Returned from the Mountain).wav" WAVE TRACK 13 AUDIO TITLE "Es saren kugayi (I Returned from the Mountain)" PERFORMER "Hasmik Papian, Vardan Mamikonian" INDEX 01 00:00:00FILE "14 - Es arun djur e gali (Water Flows Down This Stream).wav" WAVE TRACK 14 AUDIO TITLE "Es arun djur e gali (Water Flows Down This Stream)" PERFORMER "Hasmik Papian, Vardan Mamikonian" INDEX 01 00:00:00FILE "15 - Hoy, Nazan (Oh, Nazan).wav" WAVE TRACK 15 AUDIO TITLE "Hoy, Nazan (Oh, Nazan)" PERFORMER "Hasmik Papian, Vardan Mamikonian" INDEX 01 00:00:00FILE "16 - Shakhkr, shukhkr.wav" WAVE TRACK 16 AUDIO TITLE "Shakhkr, shukhkr" PERFORMER "Hasmik Papian, Vardan Mamikonian" INDEX 01 00:00:00FILE "17 - Hoy, Nazan im (Hey, My dear Nazan).wav" WAVE TRACK 17 AUDIO TITLE "Hoy, Nazan im (Hey, My dear Nazan)" PERFORMER "Hasmik Papian, Vardan Mamikonian" INDEX 01 00:00:00 TRACK 18 AUDIO TITLE "Alagyaz sarn ampel a (Alagyaz is covered with Clouds)" PERFORMER "Hasmik Papian, Vardan Mamikonian" INDEX 00 02:36:04FILE "18 - Alagyaz sarn ampel a (Alagyaz is covered with Clouds).wav" WAVE INDEX 01 00:00:00FILE "19 - Khnki dsar (Incense Tree).wav" WAVE TRACK 19 AUDIO TITLE "Khnki dsar (Incense Tree)" PERFORMER "Hasmik Papian, Vardan Mamikonian" INDEX 01 00:00:00FILE "20 - Ampel a kamar-kamar (The Clouds formed Arches).wav" WAVE TRACK 20 AUDIO TITLE "Ampel a kamar-kamar (The Clouds formed Arches)" PERFORMER "Hasmik Papian, Vardan Mamikonian" INDEX 01 00:00:00FILE "21 - K'ele, K'ele (March, March).wav" WAVE TRACK 21 AUDIO TITLE "K'ele, K'ele (March, March)" PERFORMER "Hasmik Papian, Vardan Mamikonian" INDEX 01 00:00:00FILE "22 - Kak'avi erg (Song of the Partridge).wav" WAVE TRACK 22 AUDIO TITLE "Kak'avi erg (Song of the Partridge)" PERFORMER "Hasmik Papian, Vardan Mamikonian" INDEX 01 00:00:00FILE "23 - Es gisher, lusnak gisher (This Night, Moonlit night).wav" WAVE TRACK 23 AUDIO TITLE "Es gisher, lusnak gisher (This Night, Moonlit night)" PERFORMER "Hasmik Papian, Vardan Mamikonian" INDEX 01 00:00:00FILE "24 - Le, le yaman (Love song).wav" WAVE TRACK 24 AUDIO TITLE "Le, le yaman (Love song)" PERFORMER "Hasmik Papian, Vardan Mamikonian" INDEX 01 00:00:00FILE "25 - Krunk (The Crane).wav" WAVE TRACK 25 AUDIO TITLE "Krunk (The Crane)" PERFORMER "Hasmik Papian, Vardan Mamikonian" INDEX 01 00:00:00FILE "26 - Hayastan (Armenia).wav" WAVE TRACK 26 AUDIO TITLE "Hayastan (Armenia)" PERFORMER "Hasmik Papian, Vardan Mamikonian" INDEX 01 00:00:00FILE "27 - 9 Songs on German Poems (Johanna Ambrosius). No. 1. April.wav" WAVE TRACK 27 AUDIO TITLE "9 Songs on German Poems (Johanna Ambrosius). No. 1. April" PERFORMER "Hasmik Papian, Vardan Mamikonian" INDEX 01 00:00:00FILE "28 - No. 2. Fruhlingsruhe.wav" WAVE TRACK 28 AUDIO TITLE "No. 2. Fruhlingsruhe" PERFORMER "Hasmik Papian, Vardan Mamikonian" INDEX 01 00:00:00FILE "29 - No. 3. Du Fragst.wav" WAVE TRACK 29 AUDIO TITLE "No. 3. Du Fragst?" PERFORMER "Hasmik Papian, Vardan Mamikonian" INDEX 01 00:00:00FILE "30 - No. 4. Komm, O Nacht.wav" WAVE TRACK 30 AUDIO TITLE "No. 4. Komm, O Nacht" PERFORMER "Hasmik Papian, Vardan Mamikonian" INDEX 01 00:00:00FILE "31 - No. 5. Meeresstille.wav" WAVE TRACK 31 AUDIO TITLE "No. 5. Meeresstille" PERFORMER "Hasmik Papian, Vardan Mamikonian" INDEX 01 00:00:00FILE "32 - No. 6. Gluckliche Fahrt.wav" WAVE TRACK 32 AUDIO TITLE "No. 6. Gluckliche Fahrt" PERFORMER "Hasmik Papian, Vardan Mamikonian" INDEX 01 00:00:00FILE "33 - No. 7. Nachtlied.wav" WAVE TRACK 33 AUDIO TITLE "No. 7. Nachtlied" PERFORMER "Hasmik Papian, Vardan Mamikonian" INDEX 01 00:00:00FILE "34 - No. 8. Nebel.wav" WAVE TRACK 34 AUDIO TITLE "No. 8. Nebel" PERFORMER "Hasmik Papian, Vardan Mamikonian" INDEX 01 00:00:00FILE "35 - No. 9. Sturmesmythe.wav" WAVE TRACK 35 AUDIO TITLE "No. 9. Sturmesmythe" PERFORMER "Hasmik Papian, Vardan Mamikonian" INDEX 01 00:00:00
-

[doutdess.info].t80987.torrent
Torrent: Registered [ 2015-10-04 19:05 ] · D9418F7C3BBA4358E66537AD50217B4DDDFE3CB1

14 KB

Status: checked
Completed: 0 times
Size: 276 MB
(Classical) Комитас / Komitas Vardapet - Hommage a Komitas: Armenian and German Songs - Hasmik Papian, Vardan Mamikonian - 2010, FLAC (tracks+.cue) lossless скачать торрент бесплатно и без регистрации

[Profile] [PM]
Forum Topic Author Size
Вокальная музыка в lossless ((classical/operetta)) Schönes bleibt. Unvergessene Tenöre bei WDR 4 / Прекрасное остаётся - 2000, FLAC (image+.cue) lossless Vi$itReal 401 MB
Вокальная и хоровая музыка lossy (Classical (Lieder)) (Lieder) Norman Bailey - Songs of Hugo Wolf - 1979, MP3 (tracks) 320 kbps RelizMAN 120 MB
Концерт для инструмента с оркестром в lossless (Classical ) Top 20 CDs for your Classical Music Collection - ClassicalCDguide.com: 02 - W. A. Mozart - Great Piano Concertos N 20 - 25 (1997) APE (tracks), 450-566 kb/s RelizMAN 582 MB
Концерт для инструмента с оркестром в lossless (Classical ) Top 20 CDs for your Classical Music Collection - ClassicalCDguide.com: 04 - Bach: Die Brandenburgische Konzerte - Orchestra of the Age of Enlightenment 2 CD (1999) APE (tracks), 610-769... RelizMAN 462 MB
Оркестровая музыка в lossless (Classical ) Top 20 CDs for your Classical Music Collection - ClassicalCDguide.com: 06 - Igor Stravinsky; Petroushka, Le Sacre du Printemps - Columbia Symphony Orchestra (Sony 1990) APE (tracks),... Vi$itReal 274 MB
Камерная инструментальная музыка в lossless (Classical ) Top 20 CDs for your Classical Music Collection - ClassicalCDguide.com: 07 - Franz Schubert - \'Trout\' Quintet & \'Death and the Maiden\' - Amadeus Quartet (DG ... Vi$itReal 343 MB
Камерная инструментальная музыка в lossless (Classical ) Top 20 CDs for your Classical Music Collection - ClassicalCDguide.com: 10 - Georges Bizet; Carmen - Sir Thomas Beecham, de Los Angeles, Gedda, Michau, Blanc (EMI 2000) аре (по-треково),... Vi$itReal 745 MB
Камерная инструментальная музыка в lossless (Classical ) Top 20 CDs for your Classical Music Collection - ClassicalCDguide.com: 12 - Франц Шуберт - Симфония No. 3, Unfinished 39; - Carlos Kleiber и Wiener Philharmoniker (DG 1... Vi$itReal 186 MB
Display posts:    

Current time is: 24-Jun 18:11

All times are UTC + 3



You cannot post new topics in this forum
You cannot reply to topics in this forum
You cannot edit your posts in this forum
You cannot delete your posts in this forum
You cannot vote in polls in this forum
You cannot attach files in this forum
You can download files in this forum