Reply to topic
DL-List and Torrent activity [Update пиров]
Size:  2.4 GB   |    Registered:  3 years 8 months   |    Completed:  0 times
Seeders:  62  [  0 KB/s  ]   Leechers:  13  [  0 KB/s  ]  
 
     
 
 
Author Message

Vi$itReal ®

12

Post 04-Oct-2015 23:25

[Quote]

Жанр: Heavy Metal, Stoner Metal
Год выпуска: 2002-2015
Аудио кодек: FLAC
Тип рипа: image+.cue
Формат записи: 16/44
Формат раздачи: 16/44
Продолжительность: 06:23:54
Источник оцифровки: ; ; ; ; ; ; ; ; Testosterone
Обработка: Устранение клиппинга, восстановление динамического диапазона.
Треклист:

Studio Albums2002 - Above All [EMI – 7243 5 38037 2 8]

01. Down In Black (2:46)
02. I Hunt Alone (3:17)
03. Into The Arena (5:14)
04. Muddy Waters (3:29)
05. Ocean Song (5:47)
06. Sympathy For Destruction (3:15)
07. Teenage Pacifier (4:08)
08. Insanity Walls (4:36)
09. White Magic (4:23)
10. The Dagger (5:15)

Спектр, АЧХ, Уровень записи, Динамический диапазон


АЧХ красного цвета - оригинальная АЧХ до обработки
АЧХ зеленого цвета - после обработки
foobar2000 1.3.7 / Замер динамического диапазона (DR) 1.1.1
Дата отчёта: 2015-10-04 20:48:11
--------------------------------------------------------------------------------
Анализ:   Mustasch / Above All
--------------------------------------------------------------------------------
DR         Пики          RMS        Продолжительность трека
--------------------------------------------------------------------------------
DR12      -0.30 дБ   -13.41 дБ      2:46 1-Down In Black
DR11      -0.78 дБ   -13.46 дБ      3:17 2-I Hunt Alone
DR11      -1.26 дБ   -14.56 дБ      5:14 3-Into The Arena
DR12      -0.33 дБ   -13.68 дБ      3:29 4-Muddy Waters
DR12      -1.23 дБ   -16.92 дБ      5:47 5-Ocean Song
DR11      -0.63 дБ   -13.39 дБ      3:15 6-Sympathy For Destruction
DR12      -0.30 дБ   -13.57 дБ      4:08 7-Teenage Pacifier
DR13      -0.32 дБ   -15.12 дБ      4:36 8-Insanity Walls
DR12      -1.50 дБ   -15.91 дБ      4:23 9-White Magic
DR11      -0.31 дБ   -14.47 дБ      5:15 10-The Dagger
--------------------------------------------------------------------------------
Количество треков: 10
Реальные значения DR: DR12
Частота:  44100 Гц
Каналов:  2
Разрядность:   16
Битрейт:  857 кбит/с
Кодек:   FLAC

2003 - RatSafari [Capitol Records – 7243 5 94188 2 7]

01. Stinger Citizen (3:12)
02. Black City (2:35)
03. Unsafe at Any Speed (4:34)
04. RatSafari (4:21)
05. 6:36 (4:45)
06. The Deadringer (3:20)
07. Fredrika (4:59)
08. Alpha Male (3:39)
09. Mareld (1:30)
10. Lone Song (Reclusion) (4:26)
11. Monday Warrior (4:54)

Спектр, АЧХ, Уровень записи, Динамический диапазон


АЧХ красного цвета - оригинальная АЧХ до обработки
АЧХ зеленого цвета - после обработки
foobar2000 1.3.7 / Замер динамического диапазона (DR) 1.1.1
Дата отчёта: 2015-10-04 20:48:51
--------------------------------------------------------------------------------
Анализ:   Mustasch / RatSafari
--------------------------------------------------------------------------------
DR         Пики          RMS        Продолжительность трека
--------------------------------------------------------------------------------
DR10      -3.03 дБ   -14.84 дБ      3:12 1-Stinger Citizen
DR11      -1.07 дБ   -13.81 дБ      2:35 2-Black City
DR13      -0.97 дБ   -15.29 дБ      4:34 3-Unsafe at Any Speed
DR12      -0.44 дБ   -15.48 дБ      4:21 4-RatSafari
DR12      -0.71 дБ   -14.96 дБ      4:45 5-6:36
DR10      -1.81 дБ   -13.70 дБ      3:20 6-The Deadringer
DR11      -0.28 дБ   -13.00 дБ      4:59 7-Fredrika
DR10      -0.77 дБ   -13.52 дБ      3:39 8-Alpha Male
DR12     -11.97 дБ   -25.58 дБ      1:30 9-Mareld
DR10      -2.96 дБ   -16.02 дБ      4:26 10-Lone Song (Reclusion)
DR11      -2.25 дБ   -15.74 дБ      4:54 11-Monday Warrior
--------------------------------------------------------------------------------
Количество треков: 11
Реальные значения DR: DR11
Частота:  44100 Гц
Каналов:  2
Разрядность:   16
Битрейт:  868 кбит/с
Кодек:   FLAC

2005 - Powerhouse [Capitol Records – 0946 3 30719 2 6]

01. Haunted by Myself (4:13)
02. Accident Black Spot (3:34)
03. Frosty White (3:54)
04. Dogwash (3:04)
05. Turn it Down (2:50)
06. Life on Earth (5:36)
07. Powerhouse (3:26)
08. I Lied (4:24)
09. I`m Alright (3:29)
10. Evil Doer (2:59)
11. In the Deep - October (8:01)

Спектр, АЧХ, Уровень записи, Динамический диапазон


АЧХ красного цвета - оригинальная АЧХ до обработки
АЧХ зеленого цвета - после обработки
foobar2000 1.3.7 / Замер динамического диапазона (DR) 1.1.1
Дата отчёта: 2015-10-04 21:53:40
--------------------------------------------------------------------------------
Анализ:   Mustasch / Powerhouse
--------------------------------------------------------------------------------
DR         Пики          RMS        Продолжительность трека
--------------------------------------------------------------------------------
DR10      -0.31 дБ   -11.71 дБ      4:13 1-Haunted by Myself
DR10      -0.31 дБ   -12.15 дБ      3:34 2-Accident Black Spot
DR10      -0.31 дБ   -11.66 дБ      3:54 3-Frosty White
DR10      -0.30 дБ   -10.96 дБ      3:04 4-Dogwash
DR10      -0.30 дБ   -11.52 дБ      2:50 5-Turn it Down
DR11      -0.30 дБ   -12.26 дБ      5:36 6-Life on Earth
DR10      -0.30 дБ   -12.24 дБ      3:26 7-Powerhouse
DR11      -0.31 дБ   -12.60 дБ      4:24 8-I Lied
DR10      -0.30 дБ   -11.62 дБ      3:29 9-I`m Alright
DR10      -0.42 дБ   -12.08 дБ      2:59 10-Evil Doer
DR10      -0.73 дБ   -13.52 дБ      8:01 11-In the Deep - October
--------------------------------------------------------------------------------
Количество треков: 11
Реальные значения DR: DR10
Частота:  44100 Гц
Каналов:  2
Разрядность:   16
Битрейт:  846 кбит/с
Кодек:   FLAC

2007 - Latest Version Of The Truth [Regain Records – RR113]

01. In The Night (4:23)
02. Double Nature (4:45)
03. Falling Down (3:56)
04. The Heckler (3:31)
05. I Wanna Be Loved (5:46)
06. Scyphozoa (2:14)
07. Spreading The Worst (3:17)
08. Bring Me Everyone (3:59)
09. Forever Begins Today (4:19)
10. I Am Not Aggressive (3:27)
11. The End (9:27)

Спектр, АЧХ, Уровень записи, Динамический диапазон


АЧХ красного цвета - оригинальная АЧХ до обработки
АЧХ зеленого цвета - после обработки
foobar2000 1.3.7 / Замер динамического диапазона (DR) 1.1.1
Дата отчёта: 2015-10-04 20:56:02
--------------------------------------------------------------------------------
Анализ:   Mustasch / Latest Version Of The Truth
--------------------------------------------------------------------------------
DR         Пики          RMS        Продолжительность трека
--------------------------------------------------------------------------------
DR11      -0.63 дБ   -13.65 дБ      4:23 1-In The Night
DR11      -0.53 дБ   -14.02 дБ      4:45 2-Double Nature
DR11      -0.95 дБ   -14.07 дБ      3:56 3-Falling Down
DR12      -1.03 дБ   -15.84 дБ      3:31 4-The Heckler
DR12      -0.80 дБ   -15.17 дБ      5:46 5-I Wanna Be Loved
DR12      -8.92 дБ   -26.72 дБ      2:14 6-Scyphozoa
DR11      -0.97 дБ   -14.82 дБ      3:17 7-Spreading The Worst
DR11      -0.62 дБ   -14.26 дБ      3:59 8-Bring Me Everyone
DR12      -0.77 дБ   -15.55 дБ      4:19 9-Forever Begins Today
DR11      -0.28 дБ   -13.52 дБ      3:27 10-I Am Not Aggressive
DR12      -0.70 дБ   -16.51 дБ      9:27 11-The End
--------------------------------------------------------------------------------
Количество треков: 11
Реальные значения DR: DR12
Частота:  44100 Гц
Каналов:  2
Разрядность:   16
Битрейт:  865 кбит/с
Кодек:   FLAC

2009 - Mustasch [Regain Records – RR164]

01. Tritonus (Prelude) (0:35)
02. Heresy Blasphemy (3:50)
03. Mine (3:36)
04. Damn It's Dark (3:27)
05. The Man The Myth The Wreck (2:41)
06. The Audience is Listening (3:33)
07. Desloate (5:06)
08. Deep In The Woods (4:14)
09. I'm Frustrated (4:00)
10. Lonely (3:18)
11. Blackout Blues (3:39)
12. Tritonus (5:40)

Спектр, АЧХ, Уровень записи, Динамический диапазон


АЧХ красного цвета - оригинальная АЧХ до обработки
АЧХ зеленого цвета - после обработки
foobar2000 1.3.7 / Замер динамического диапазона (DR) 1.1.1
Дата отчёта: 2015-10-04 20:58:33
--------------------------------------------------------------------------------
Анализ:   Mustasch / Mustasch
--------------------------------------------------------------------------------
DR         Пики          RMS        Продолжительность трека
--------------------------------------------------------------------------------
DR12      -2.45 дБ   -16.01 дБ      0:35 1-Tritonus (Prelude)
DR12      -0.56 дБ   -14.92 дБ      3:50 2-Heresy Blasphemy
DR12      -1.12 дБ   -15.17 дБ      3:36 3-Mine
DR13      -0.43 дБ   -14.65 дБ      3:27 4-Damn It's Dark
DR12      -0.35 дБ   -14.50 дБ      2:41 5-The Man The Myth The Wreck
DR13      -0.97 дБ   -16.07 дБ      3:33 6-The Audience is Listening
DR12      -0.96 дБ   -14.84 дБ      5:06 7-Desloate
DR13      -0.43 дБ   -15.64 дБ      4:14 8-Deep In The Woods
DR13      -1.04 дБ   -15.51 дБ      4:00 9-I'm Frustrated
DR12      -1.76 дБ   -15.92 дБ      3:18 10-Lonely
DR12      -1.22 дБ   -15.51 дБ      3:39 11-Blackout Blues
DR13      -0.30 дБ   -17.63 дБ      5:40 12-Tritonus
--------------------------------------------------------------------------------
Количество треков: 12
Реальные значения DR: DR12
Частота:  44100 Гц
Каналов:  2
Разрядность:   16
Битрейт:  888 кбит/с
Кодек:   FLAC

2012 - Sounds Like Hell, Looks Like Heaven [Gain – 88691931272]

01. Speed Metal (3:07)
02. The Challenger (3:46)
03. It's Never Too Late (5:22)
04. Cold Heart Mother Son (3:08)
05. Morning Star (4:01)
06. Dead Again (4:31)
07. Your Father Must Be Proud of You (3:07)
08. Destroyed by Destruction (2:41)
09. I Don't Hate You (4:04)
10. Northern Star (1:26)

Спектр, АЧХ, Уровень записи, Динамический диапазон


АЧХ красного цвета - оригинальная АЧХ до обработки
АЧХ зеленого цвета - после обработки
foobar2000 1.3.7 / Замер динамического диапазона (DR) 1.1.1
Дата отчёта: 2015-10-04 21:01:32
--------------------------------------------------------------------------------
Анализ:   Mustasch / Sounds Like Hell Looks Like Heaven
--------------------------------------------------------------------------------
DR         Пики          RMS        Продолжительность трека
--------------------------------------------------------------------------------
DR11      -0.51 дБ   -13.26 дБ      3:07 1-Speed Metal
DR10      -0.47 дБ   -12.06 дБ      3:46 2-The Challenger
DR12      -0.79 дБ   -16.16 дБ      5:22 3-It's Never Too Late
DR12      -0.64 дБ   -14.20 дБ      3:08 4-Cold Heart Mother Son
DR12      -0.31 дБ   -14.46 дБ      4:01 5-Morning Star
DR12      -0.44 дБ   -13.89 дБ      4:31 6-Dead Again
DR11      -0.31 дБ   -12.33 дБ      3:07 7-Your Father Must Be Proud of You
DR11      -0.91 дБ   -13.72 дБ      2:41 8-Destroyed by Destruction
DR11      -0.59 дБ   -13.06 дБ      4:04 9-I Don't Hate You
DR14      -8.60 дБ   -27.10 дБ      1:26 10-Northern Star
--------------------------------------------------------------------------------
Количество треков: 10
Реальные значения DR: DR12
Частота:  44100 Гц
Каналов:  2
Разрядность:   16
Битрейт:  893 кбит/с
Кодек:   FLAC

2014 - Thank You For The Demon [Gain – 88883796372]

01. Feared And Hated (3:47)
02. Thank You For The Demon (3:42)
03. From Euphoria To Dystopia (3:36)
04. The Mauler (5:05)
05. Borderline (3:40)
06. All My Life (6:59)
07. Lowlife Highlights (2:58)
08. I Hate To Dance (3:35)
09. Don't Want To Be Who I Am (3:32)

Спектр, АЧХ, Уровень записи, Динамический диапазон


АЧХ красного цвета - оригинальная АЧХ до обработки
АЧХ зеленого цвета - после обработки
foobar2000 1.3.7 / Замер динамического диапазона (DR) 1.1.1
Дата отчёта: 2015-10-04 21:03:01
--------------------------------------------------------------------------------
Анализ:   Mustasch / Thank You For The Demon
--------------------------------------------------------------------------------
DR         Пики          RMS        Продолжительность трека
--------------------------------------------------------------------------------
DR10      -0.45 дБ   -12.38 дБ      3:47 1-Feared And Hated
DR11      -0.89 дБ   -13.82 дБ      3:42 2-Thank You For The Demon
DR11      -0.64 дБ   -13.49 дБ      3:36 3-From Euphoria To Dystopia
DR11      -0.34 дБ   -13.78 дБ      5:05 4-The Mauler
DR11      -0.50 дБ   -13.48 дБ      3:40 5-Borderline
DR12      -0.31 дБ   -15.86 дБ      6:59 6-All My Life
DR11      -0.94 дБ   -13.79 дБ      2:58 7-Lowlife Highlights
DR12      -0.83 дБ   -14.66 дБ      3:35 8-I Hate To Dance
DR13      -3.15 дБ   -19.56 дБ      3:32 9-Don't Want To Be Who I Am
--------------------------------------------------------------------------------
Количество треков: 9
Реальные значения DR: DR11
Частота:  44100 Гц
Каналов:  2
Разрядность:   16
Битрейт:  853 кбит/с
Кодек:   FLAC

2015 - Testosterone [Gain – ]

01. Yara's Song (3:44)
02. Breaking Up With Disaster (3:37)
03. The Rider (4:27)
04. Down To Earth (3:24)
05. The Hunter (3:47)
06. Dreamers (4:13)
07. Be Like A Man (3:43)
08. Someone (3:36)
09. Under The Radar (3:51)
10. Testosterone (3:45)

Спектр, АЧХ, Уровень записи, Динамический диапазон


АЧХ красного цвета - оригинальная АЧХ до обработки
АЧХ зеленого цвета - после обработки
foobar2000 1.3.7 / Замер динамического диапазона (DR) 1.1.1
Дата отчёта: 2015-10-04 21:07:02
--------------------------------------------------------------------------------
Анализ:   Mustasch / Testosterone
--------------------------------------------------------------------------------
DR         Пики          RMS        Продолжительность трека
--------------------------------------------------------------------------------
DR11      -0.31 дБ   -13.46 дБ      3:44 1-Yara's Song
DR11      -0.31 дБ   -13.75 дБ      3:37 2-Breaking Up With Disaster
DR11      -2.92 дБ   -18.68 дБ      4:27 3-The Rider
DR11      -0.31 дБ   -12.68 дБ      3:24 4-Down To Earth
DR11      -0.30 дБ   -13.93 дБ      3:47 5-The Hunter
DR11      -0.30 дБ   -12.98 дБ      4:13 6-Dreamers
DR11      -0.31 дБ   -12.54 дБ      3:43 7-Be Like A Man
DR12      -0.31 дБ   -14.07 дБ      3:36 8-Someone
DR11      -0.30 дБ   -13.15 дБ      3:51 9-Under The Radar
DR11      -0.39 дБ   -13.82 дБ      3:45 10-Testosterone
--------------------------------------------------------------------------------
Количество треков: 10
Реальные значения DR: DR11
Частота:  44100 Гц
Каналов:  2
Разрядность:   16
Битрейт:  870 кбит/с
Кодек:   FLAC

Compilations2011 - The New Sound Of The True Best [Gain – GPCD80, Sony Music – GPCD80]

01. Angel's Share (3:41)
02. Parasite (3:16)
03. Dogwash (3:23)
04. Mine (3:37)
05. Homophobic/Alcoholic (4:08)
06. Double Nature (4:40)
07. I Hunt Alone (3:52)
08. I'm Frustrated (3:58)
09. Black City (3:02)
10. Bring Me Everyone (3:56)
11. Down In Black (2:48)
12. Monday Warrior (5:10)
13. 6:36 (LzY) (5:34)

Спектр, АЧХ, Уровень записи, Динамический диапазон


АЧХ красного цвета - оригинальная АЧХ до обработки
АЧХ зеленого цвета - после обработки
foobar2000 1.3.7 / Замер динамического диапазона (DR) 1.1.1
Дата отчёта: 2015-10-04 21:00:18
--------------------------------------------------------------------------------
Анализ:   Mustasch / The New Sound Of The True Best
--------------------------------------------------------------------------------
DR         Пики          RMS        Продолжительность трека
--------------------------------------------------------------------------------
DR13      -0.72 дБ   -15.35 дБ      3:41 1-Angel's Share
DR11      -2.23 дБ   -15.08 дБ      3:16 2-Parasite
DR13      -0.31 дБ   -14.69 дБ      3:23 3-Dogwash
DR11      -1.71 дБ   -15.19 дБ      3:37 4-Mine
DR12      -1.04 дБ   -14.20 дБ      4:08 5-Homophobic/Alcoholic
DR12      -1.68 дБ   -15.61 дБ      4:40 6-Double Nature
DR12      -0.93 дБ   -14.43 дБ      3:52 7-I Hunt Alone
DR13      -1.06 дБ   -16.49 дБ      3:58 8-I'm Frustrated
DR13      -0.61 дБ   -15.18 дБ      3:02 9-Black City
DR12      -1.40 дБ   -16.20 дБ      3:56 10-Bring Me Everyone
DR11      -1.65 дБ   -13.92 дБ      2:48 11-Down In Black
DR13      -0.97 дБ   -15.69 дБ      5:10 12-Monday Warrior
DR13      -1.35 дБ   -16.80 дБ      5:34 13-6:36 (LzY)
--------------------------------------------------------------------------------
Количество треков: 13
Реальные значения DR: DR12
Частота:  44100 Гц
Каналов:  2
Разрядность:   16
Битрейт:  899 кбит/с
Кодек:   FLAC

-

Доп. информация

Обработка проводилась в Adobe Audition с плагинами Perfect Declipper и Fabfilter Pro-MB.
Мониторинг проводился на следующих устройствах:
Стационарная аппаратура: NAD D 1050 + Beyerdynamic DT 990 Pro и Rotel RA-10 + Jamo C603
Мобильная аппаратура: Meizu MX2 + Sennheiser CX 980

Примечание

Деклиппинг и экспандирование - не панацея от некачественной записи. Целью обработки является меньшая усталость при прослушивании, и звучание, приближенное к тому, которое задумывалось звукорежиссером, до вмешательства маркетологов.
Материалы по теме "Война громкости": 1 и 2
Другие раздачи в рамках проекта "Stop the loudness war" можно найти-04.10.2015: Раздача полностью переделана.

[doutdess.info].t81004.torrent
Torrent: Registered [ 2015-10-04 23:25 ] · EE4942A597BD81178895D4ECFDF7142993A450D4

21 KB

Status: checked
Completed: 0 times
Size: 2.4 GB
(Heavy Metal, Stoner Metal) [16/44] [RM] Mustasch - 2002-2015 (declipped), FLAC (image+.cue) скачать торрент бесплатно и без регистрации

[Profile] [PM]
Forum Topic Author Size
Караоке аудио (Heavy metal) Judas Priest Несколько караоке в форме презентации, - Vi$itReal 97 MB
Караоке видео (Heavy Metal) Judas Priest, Караоке RelizMAN 1.99 GB
Аудио (Heavy Metal) Metallica - Metallica Только Факты - 2018, MP3, 320 kbps Vi$itReal 290 MB
Аудио (heavy metal) Woman in Rock. Metal part 1, MP3, 320 kbps Vi$itReal 144 MB
Аудио (Heavy Metal) [16/44] [RM] [declipped] Black Sabbath - 13 - 2013, FLAC (tracks+.cue) Vi$itReal 474 MB
Аудио (Heavy metal) [16/44] [RM] [restored] Manilla Road - To Kill A King - 2017, FLAC (image+.cue) Vi$itReal 440 MB
Аудио (Heavy metal) [16/44] [RM] [restored] [declipped] Heaven & Hell - The Devil You Know - 2009, FLAC (image + .cue) Vi$itReal 347 MB
Аудио (Heavy Metal) [16/44] [RM] [restored] [declipped] Judas Priest - Firepower - 2018, FLAC (tracks+.cue) Vi$itReal 381 MB
Display posts:    

Current time is: 24-Jun 19:39

All times are UTC + 3



You cannot post new topics in this forum
You cannot reply to topics in this forum
You cannot edit your posts in this forum
You cannot delete your posts in this forum
You cannot vote in polls in this forum
You cannot attach files in this forum
You can download files in this forum