Ответить на тему
Статистика раздачи [Обновить пиров]
Размер:  1,08 GB   |    Зарегистрирован:  7 месяцев 16 дней   |    Скачан:  0 раз
Сидов:  502  [  0 KB/s  ]   Личеров:  30  [  0 KB/s  ]  
 
     
 
 
Автор Сообщение

RelizMAN ®

11

Создавать темы 09-Авг-2018 11:10

[Цитировать]

Sixteen Horsepower_коллекция
в дополнение к основной части

Жанр alternative country · Годы издания дисков 1995–2003
Издатель A&M, Jetset Records · Страна исполнителя и производителей дисков USA
Аудио кодек FLAC (*.flac) · Тип рипа tracks+.cue · Битрейт аудио lossless
Продолжительность 02:59:59 · Источник redacted.ch · Сканов в раздаче нет
Трэклист

[1995 · A&M 0416 2] Sackcloth ‘n’ Ashes


01 I Seen What I Saw 3:26
02 Black Soul Choir 3:52
03 Scrawled In Sap 2:48
04 Horse Head 3:03
05 Ruthie Lingle 2:45
06 Harm’s Way 3:23
07 Black Bush 3:17
08 Heel On The Shovel 3:12
09 American Wheeze 3:34
10 Red Neck Reel 2:44
11 Prison Shoe Romp 3:13
12 Neck On The New Blade 3:17
13 Strong Man 4:21
Продолжительность 00:42:56

Лог создания рипа

Exact Audio Copy V1.3 from 2. September 2016
EAC extraction logfile from 19. February 2017, 16:06
16 Horsepower / Sackcloth 'n' Ashes
Used drive : HL-DT-STDVDRAM GP57ES40 Adapter: 1 ID: 0
Read mode : SecureUtilize accurate stream : YesDefeat audio cache : YesMake use of C2 pointers : No
Read offset correction : 6Overread into Lead-In and Lead-Out : NoFill up missing offset samples with silence : YesDelete leading and trailing silent blocks : NoNull samples used in CRC calculations : YesUsed interface : Native Win32 interface for Win NT & 2000Gap handling : Appended to previous track
Used output format : User Defined EncoderSelected bitrate : 1024 kBit/sQuality : HighAdd ID3 tag : NoCommand line compressor : C:\Program Files (x86)\Exact Audio Copy\Flac\flac.exeAdditional command line options : -8 -e -p -V -T "ARTIST=%artist%" -T "TITLE=%title%" -T "ALBUM=%albumtitle%" -T "DATE=%year%" -T "TRACKNUMBER=%tracknr%" -T "GENRE=%genre%" -T "PERFORMER=%albuminterpret%" -T "COMPOSER=%composer%" %haslyrics%--tag-from-file=LYRICS="%lyricsfile%"%haslyrics% -T "ALBUMARTIST=%albumartist%" -T "DISCNUMBER=%cdnumber%" -T "TOTALDISCS=%totalcds%" -T "TOTALTRACKS=%numtracks%" -T "COMMENT=%comment%" %source% -o %dest%
TOC of the extracted CD
Track | Start | Length | Start sector | End sector --------------------------------------------------------- 1 | 0:00.32 | 3:25.38 | 32 | 15444 2 | 3:25.70 | 3:52.25 | 15445 | 32869 3 | 7:18.20 | 2:47.70 | 32870 | 45464 4 | 10:06.15 | 3:03.32 | 45465 | 59221 5 | 13:09.47 | 2:45.35 | 59222 | 71631 6 | 15:55.07 | 3:22.60 | 71632 | 86841 7 | 19:17.67 | 3:17.25 | 86842 | 101641 8 | 22:35.17 | 3:12.35 | 101642 | 116076 9 | 25:47.52 | 3:33.63 | 116077 | 132114 10 | 29:21.40 | 2:43.55 | 132115 | 144394 11 | 32:05.20 | 3:12.55 | 144395 | 158849 12 | 35:18.00 | 3:16.70 | 158850 | 173619 13 | 38:34.70 | 4:21.17 | 173620 | 193211
Track 1
Filename D:\My torrents (FLAC trump)\16 Horsepower - Sackcloth 'n' Ashes {31454 0416 2} [FLAC]\01 - I Seen What I Saw.wav
Pre-gap length 0:00:02.42
Peak level 78.6 % Extraction speed 1.1 X Track quality 99.9 % Test CRC 5AE0B4FA Copy CRC 5AE0B4FA Accurately ripped (confidence 7) [DED8BC0E] (AR v2) Copy OK
Track 2
Filename D:\My torrents (FLAC trump)\16 Horsepower - Sackcloth 'n' Ashes {31454 0416 2} [FLAC]\02 - Black Soul Choir.wav
Pre-gap length 0:00:01.30
Peak level 99.8 % Extraction speed 1.4 X Track quality 100.0 % Test CRC DC9324C3 Copy CRC DC9324C3 Accurately ripped (confidence 7) [C6CF28BE] (AR v2) Copy OK
Track 3
Filename D:\My torrents (FLAC trump)\16 Horsepower - Sackcloth 'n' Ashes {31454 0416 2} [FLAC]\03 - Scrawled in Sap.wav
Pre-gap length 0:00:00.86
Peak level 98.7 % Extraction speed 1.4 X Track quality 100.0 % Test CRC C7538364 Copy CRC C7538364 Accurately ripped (confidence 7) [683CCC5F] (AR v2) Copy OK
Track 4
Filename D:\My torrents (FLAC trump)\16 Horsepower - Sackcloth 'n' Ashes {31454 0416 2} [FLAC]\04 - Horse Head.wav
Pre-gap length 0:00:01.80
Peak level 99.8 % Extraction speed 1.5 X Track quality 100.0 % Test CRC 63427F4E Copy CRC 63427F4E Accurately ripped (confidence 7) [A6ABDDD7] (AR v2) Copy OK
Track 5
Filename D:\My torrents (FLAC trump)\16 Horsepower - Sackcloth 'n' Ashes {31454 0416 2} [FLAC]\05 - Ruthie Lingle.wav
Pre-gap length 0:00:02.26
Peak level 99.8 % Extraction speed 1.5 X Track quality 100.0 % Test CRC E8630F54 Copy CRC E8630F54 Accurately ripped (confidence 7) [FD612ED4] (AR v2) Copy OK
Track 6
Filename D:\My torrents (FLAC trump)\16 Horsepower - Sackcloth 'n' Ashes {31454 0416 2} [FLAC]\06 - Harm's Way.wav
Pre-gap length 0:00:02.02
Peak level 99.8 % Extraction speed 1.7 X Track quality 100.0 % Test CRC DB27191B Copy CRC DB27191B Accurately ripped (confidence 7) [518530A4] (AR v2) Copy OK
Track 7
Filename D:\My torrents (FLAC trump)\16 Horsepower - Sackcloth 'n' Ashes {31454 0416 2} [FLAC]\07 - Black Bush.wav
Pre-gap length 0:00:02.42
Peak level 99.8 % Extraction speed 1.7 X Track quality 100.0 % Test CRC EA6C19E0 Copy CRC EA6C19E0 Accurately ripped (confidence 7) [8BB88C28] (AR v2) Copy OK
Track 8
Filename D:\My torrents (FLAC trump)\16 Horsepower - Sackcloth 'n' Ashes {31454 0416 2} [FLAC]\08 - Heel on the Shovel.wav
Pre-gap length 0:00:01.80
Peak level 99.8 % Extraction speed 1.8 X Track quality 100.0 % Test CRC 05B96F2F Copy CRC 05B96F2F Accurately ripped (confidence 7) [51963823] (AR v2) Copy OK
Track 9
Filename D:\My torrents (FLAC trump)\16 Horsepower - Sackcloth 'n' Ashes {31454 0416 2} [FLAC]\09 - American Wheeze.wav
Pre-gap length 0:00:02.02
Peak level 99.8 % Extraction speed 1.9 X Track quality 100.0 % Test CRC 11FCDD92 Copy CRC 11FCDD92 Accurately ripped (confidence 7) [0186AFCD] (AR v2) Copy OK
Track 10
Filename D:\My torrents (FLAC trump)\16 Horsepower - Sackcloth 'n' Ashes {31454 0416 2} [FLAC]\10 - Red Neck Reel.wav
Pre-gap length 0:00:01.26
Peak level 99.8 % Extraction speed 1.9 X Track quality 100.0 % Test CRC 8621DE3A Copy CRC 8621DE3A Accurately ripped (confidence 7) [68B00619] (AR v2) Copy OK
Track 11
Filename D:\My torrents (FLAC trump)\16 Horsepower - Sackcloth 'n' Ashes {31454 0416 2} [FLAC]\11 - Prison Shoe Romp.wav
Pre-gap length 0:00:02.66
Peak level 99.8 % Extraction speed 2.0 X Track quality 100.0 % Test CRC 87A2A0A2 Copy CRC 87A2A0A2 Accurately ripped (confidence 7) [D8780174] (AR v2) Copy OK
Track 12
Filename D:\My torrents (FLAC trump)\16 Horsepower - Sackcloth 'n' Ashes {31454 0416 2} [FLAC]\12 - Neck on the New Blade.wav
Pre-gap length 0:00:01.46
Peak level 99.8 % Extraction speed 2.0 X Track quality 100.0 % Test CRC 0CA12659 Copy CRC 0CA12659 Accurately ripped (confidence 7) [BD4B1AAB] (AR v2) Copy OK
Track 13
Filename D:\My torrents (FLAC trump)\16 Horsepower - Sackcloth 'n' Ashes {31454 0416 2} [FLAC]\13 - Strong Man.wav
Pre-gap length 0:00:01.93
Peak level 99.8 % Extraction speed 2.2 X Track quality 100.0 % Test CRC AE6D412E Copy CRC AE6D412E Accurately ripped (confidence 6) [F9BAB419] (AR v2) Copy OK
All tracks accurately ripped
No errors occurred
End of status report
---- CUETools DB Plugin V2.1.6
[CTDB TOCID: 03FCrI6rW5.o7yz4CcRmlsgdafE-] foundSubmit result: 03FCrI6rW5.o7yz4CcRmlsgdafE- has been confirmedTrack | CTDB Status 1 | (24/24) Accurately ripped 2 | (24/24) Accurately ripped 3 | (24/24) Accurately ripped 4 | (24/24) Accurately ripped 5 | (24/24) Accurately ripped 6 | (24/24) Accurately ripped 7 | (24/24) Accurately ripped 8 | (24/24) Accurately ripped 9 | (24/24) Accurately ripped 10 | (24/24) Accurately ripped 11 | (24/24) Accurately ripped 12 | (24/24) Accurately ripped 13 | (24/24) Accurately ripped
==== Log checksum 6E3185A1C0EF280E7710ADFDDBDA9765922CFC659CDF0889D7114EEB5A93051F ====

Содержание индексной карты (.cue)

[1997 · A&M 0840 2] Low Estate


01 Brimstone Rock 4:29
02 My Narrow Mind 2:59
03 Low Estate 4:12
04 For Heaven’s Sake 4:54
05 Sac Of Religion 3:28
06 The Denver Grab 5:09
07 Ditch Digger 3:22
08 Pure Clob Road 3:43
09 Phyllis Ruth 4:38
10 Black Lung 2:26
11 Dead Run 3:21
12 Golden Rope 4:17
13 Hang My Teeth On Your Door 2:35
Продолжительность 00:49:35

Лог создания рипа

REM DATE 1995REM DISCID AF0A100DREM COMMENT "ExactAudioCopy v1.3"PERFORMER "16 Horsepower"TITLE "Sackcloth ‘n’ Ashes"FILE "01. I Seen What I Saw.wav" WAVE  TRACK 01 AUDIO    TITLE "I Seen What I Saw"    PERFORMER "16 Horsepower"    ISRC USAM19500856    PREGAP 00:00:32    INDEX 01 00:00:00  TRACK 02 AUDIO    TITLE "Black Soul Choir"    PERFORMER "16 Horsepower"    ISRC USAM19500857    INDEX 00 03:24:15FILE "02. Black Soul Choir.wav" WAVE    INDEX 01 00:00:00  TRACK 03 AUDIO    TITLE "Scrawled In Sap"    PERFORMER "16 Horsepower"    ISRC USAM19500858    INDEX 00 03:51:35FILE "03. Scrawled In Sap.wav" WAVE    INDEX 01 00:00:00  TRACK 04 AUDIO    TITLE "Horse Head"    PERFORMER "16 Horsepower"    ISRC USAM19500859    INDEX 00 02:46:10FILE "04. Horse Head.wav" WAVE    INDEX 01 00:00:00  TRACK 05 AUDIO    TITLE "Ruthie Lingle"    PERFORMER "16 Horsepower"    ISRC USAM19500860    INDEX 00 03:01:12FILE "05. Ruthie Lingle.wav" WAVE    INDEX 01 00:00:00  TRACK 06 AUDIO    TITLE "Harm’s Way"    PERFORMER "16 Horsepower"    ISRC USAM19500861    INDEX 00 02:43:33FILE "06. Harm’s Way.wav" WAVE    INDEX 01 00:00:00  TRACK 07 AUDIO    TITLE "Black Bush"    PERFORMER "16 Horsepower"    ISRC USAM19500862    INDEX 00 03:20:28FILE "07. Black Bush.wav" WAVE    INDEX 01 00:00:00  TRACK 08 AUDIO    TITLE "Heel On The Shovel"    PERFORMER "16 Horsepower"    ISRC USAM19500863    INDEX 00 03:15:40FILE "08. Heel On The Shovel.wav" WAVE    INDEX 01 00:00:00  TRACK 09 AUDIO    TITLE "American Wheeze"    PERFORMER "16 Horsepower"    ISRC USAM19500864    INDEX 00 03:10:33FILE "09. American Wheeze.wav" WAVE    INDEX 01 00:00:00  TRACK 10 AUDIO    TITLE "Red Neck Reel"    PERFORMER "16 Horsepower"    ISRC USAM19500865    INDEX 00 03:32:43FILE "10. Red Neck Reel.wav" WAVE    INDEX 01 00:00:00  TRACK 11 AUDIO    TITLE "Prison Shoe Romp"    PERFORMER "16 Horsepower"    ISRC USAM19500866    INDEX 00 02:41:05FILE "11. Prison Shoe Romp.wav" WAVE    INDEX 01 00:00:00  TRACK 12 AUDIO    TITLE "Neck On The New Blade"    PERFORMER "16 Horsepower"    ISRC USAM19500867    INDEX 00 03:11:20FILE "12. Neck On The New Blade.wav" WAVE    INDEX 01 00:00:00  TRACK 13 AUDIO    TITLE "Strong Man"    PERFORMER "16 Horsepower"    ISRC USAM19500868    INDEX 00 03:15:00FILE "13. Strong Man.wav" WAVE    INDEX 01 00:00:00

Содержание индексной карты (.cue)

REM DATE 1997REM DISCID A20B9F0DREM COMMENT "ExactAudioCopy v1.3"CATALOG 0000000000000PERFORMER "Sixteen Horsepower"TITLE "Low Estate"FILE "01. Brimstone Rock.wav" WAVE  TRACK 01 AUDIO    TITLE "Brimstone Rock"    PERFORMER "Sixteen Horsepower"    ISRC USAM19774781    INDEX 01 00:00:00FILE "02. My Narrow Mind.wav" WAVE  TRACK 02 AUDIO    TITLE "My Narrow Mind"    PERFORMER "Sixteen Horsepower"    ISRC USAM19774782    INDEX 01 00:00:00FILE "03. Low Estate.wav" WAVE  TRACK 03 AUDIO    TITLE "Low Estate"    PERFORMER "Sixteen Horsepower"    ISRC USAM19774783    INDEX 01 00:00:00  TRACK 04 AUDIO    TITLE "For Heaven’s Sake"    PERFORMER "Sixteen Horsepower"    ISRC USAM19774784    INDEX 00 04:10:02FILE "04. For Heaven’s Sake.wav" WAVE    INDEX 01 00:00:00  TRACK 05 AUDIO    TITLE "Sac Of Religion"    PERFORMER "Sixteen Horsepower"    ISRC USAM19774785    INDEX 00 04:53:61FILE "05. Sac Of Religion.wav" WAVE    INDEX 01 00:00:00FILE "06. The Denver Grab.wav" WAVE  TRACK 06 AUDIO    TITLE "The Denver Grab"    PERFORMER "Sixteen Horsepower"    ISRC USAM19774786    INDEX 01 00:00:00  TRACK 07 AUDIO    TITLE "Ditch Digger"    PERFORMER "Sixteen Horsepower"    ISRC USAM19774875    INDEX 00 05:05:22FILE "07. Ditch Digger.wav" WAVE    INDEX 01 00:00:00  TRACK 08 AUDIO    TITLE "Pure Clob Road"    PERFORMER "Sixteen Horsepower"    ISRC USAM19774788    INDEX 00 03:19:54FILE "08. Pure Clob Road.wav" WAVE    INDEX 01 00:00:00FILE "09. Phyllis Ruth.wav" WAVE  TRACK 09 AUDIO    TITLE "Phyllis Ruth"    PERFORMER "Sixteen Horsepower"    ISRC USAM19774789    INDEX 01 00:00:00  TRACK 10 AUDIO    TITLE "Black Lung"    PERFORMER "Sixteen Horsepower"    ISRC USAM19774790    INDEX 00 04:36:27FILE "10. Black Lung.wav" WAVE    INDEX 01 00:00:00  TRACK 11 AUDIO    TITLE "Dead Run"    PERFORMER "Sixteen Horsepower"    ISRC USAM19774791    INDEX 00 02:24:35FILE "11. Dead Run.wav" WAVE    INDEX 01 00:00:00  TRACK 12 AUDIO    TITLE "Golden Rope"    PERFORMER "Sixteen Horsepower"    ISRC USAM19774792    INDEX 00 03:19:57FILE "12. Golden Rope.wav" WAVE    INDEX 01 00:00:00  TRACK 13 AUDIO    TITLE "Hang My Teeth On Your Door"    PERFORMER "Sixteen Horsepower"    ISRC USAM19774793    INDEX 00 04:15:10FILE "13. Hang My Teeth On Your Door.wav" WAVE    INDEX 01 00:00:00

[1998 · A&M 582 803-2] Live


01 Brimstone Rock 6:17
02 Low Estate 4:22
03 For Heaven’s Sake 4:45
04 My Narrow Mind 3:50
05 Haw 4:42
Продолжительность 00:23:55

Лог создания рипа

Exact Audio Copy V1.1 from 23. June 2015
EAC extraction logfile from 16. December 2016, 16:24
Sixteen Horsepower / Live
Used drive : PLDS DVD-RW DH16ACSH Adapter: 1 ID: 0
Read mode : SecureUtilize accurate stream : YesDefeat audio cache : YesMake use of C2 pointers : No
Read offset correction : 6Overread into Lead-In and Lead-Out : NoFill up missing offset samples with silence : YesDelete leading and trailing silent blocks : NoNull samples used in CRC calculations : YesUsed interface : Native Win32 interface for Win NT & 2000Gap handling : Appended to previous track
Used output format : User Defined EncoderSelected bitrate : 128 kBit/sQuality : HighAdd ID3 tag : YesCommand line compressor : C:\Program Files (x86)\Exact Audio Copy\Flac\flac.exeAdditional command line options : -8 -e -V -T "ARTIST=%artist%" -T "TITLE=%title%" -T "ALBUM=%albumtitle%" -T "DATE=%year%" -T "TRACKNUMBER=%tracknr%" -T "GENRE=%genre%" -T "PERFORMER=%albuminterpret%" -T "COMPOSER=%composer%" %haslyrics%--tag-from-file=LYRICS="%lyricsfile%"%haslyrics% -T "ALBUMARTIST=%albumartist%" -T "DISCNUMBER=%cdnumber%" -T "TOTALDISCS=%totalcds%" -T "TOTALTRACKS=%numtracks%" -T "COMMENT=%comment%" %source% -o %dest%
TOC of the extracted CD
Track | Start | Length | Start sector | End sector --------------------------------------------------------- 1 | 0:00.00 | 6:17.27 | 0 | 28301 2 | 6:17.27 | 4:21.45 | 28302 | 47921 3 | 10:38.72 | 4:44.55 | 47922 | 69276 4 | 15:23.52 | 3:50.15 | 69277 | 86541 5 | 19:13.67 | 4:41.40 | 86542 | 107656
Track 1
Filename C:\Users\guillaume.gaillard\Desktop\Sixteen Horsepower - Live\01 - Brimstone Rock.wav
Pre-gap length 0:00:02.00
Peak level 96.0 % Extraction speed 4.0 X Track quality 100.0 % Test CRC 163C3DCE Copy CRC 163C3DCE Accurately ripped (confidence 1) [B5F5526B] (AR v1) Copy OK
Track 2
Filename C:\Users\guillaume.gaillard\Desktop\Sixteen Horsepower - Live\02 - Low Estate.wav
Pre-gap length 0:00:01.29
Peak level 99.4 % Extraction speed 3.5 X Track quality 99.9 % Test CRC 7594040A Copy CRC 7594040A Accurately ripped (confidence 1) [49450018] (AR v1) Copy OK
Track 3
Filename C:\Users\guillaume.gaillard\Desktop\Sixteen Horsepower - Live\03 - For Heaven's Sake.wav
Peak level 96.7 % Extraction speed 4.6 X Track quality 100.0 % Test CRC 84760359 Copy CRC 84760359 Accurately ripped (confidence 1) [15D05D3E] (AR v1) Copy OK
Track 4
Filename C:\Users\guillaume.gaillard\Desktop\Sixteen Horsepower - Live\04 - My Narrow Mind.wav
Peak level 99.9 % Extraction speed 4.8 X Track quality 100.0 % Test CRC C2157808 Copy CRC C2157808 Accurately ripped (confidence 1) [07BB9E24] (AR v1) Copy OK
Track 5
Filename C:\Users\guillaume.gaillard\Desktop\Sixteen Horsepower - Live\05 - Haw.wav
Peak level 100.0 % Extraction speed 4.3 X Track quality 99.9 % Test CRC 4251F87E Copy CRC 4251F87E Accurately ripped (confidence 1) [5161183D] (AR v1) Copy OK
All tracks accurately ripped
No errors occurred
End of status report
---- CUETools DB Plugin V2.1.6
[CTDB TOCID: zZR6DTphImdjef29hD_p_hvFmZk-] foundSubmit result: zZR6DTphImdjef29hD_p_hvFmZk- has been confirmedTrack | CTDB Status 1 | (1/1) Accurately ripped 2 | (1/1) Accurately ripped 3 | (1/1) Accurately ripped 4 | (1/1) Accurately ripped 5 | (1/1) Accurately ripped
==== Log checksum FAD0C523CD1398A6F6EC0EC52C9A06F72CEDD8EB1CBDB10DC29A7EFD76928F9B ====

Содержание индексной карты (.cue)

REM DATE 1998REM DISCID 3B059B05REM COMMENT "ExactAudioCopy v1.1"CATALOG 0000000000000PERFORMER "16 Horsepower"TITLE "Live"FILE "01. Brimstone Rock.wav" WAVE  TRACK 01 AUDIO    TITLE "Brimstone Rock"    PERFORMER "16 Horsepower"    ISRC USAM19774849    INDEX 01 00:00:00  TRACK 02 AUDIO    TITLE "Low Estate"    PERFORMER "16 Horsepower"    INDEX 00 06:16:05FILE "02. Low Estate.wav" WAVE    INDEX 01 00:00:00FILE "03. For Heaven’s Sake.wav" WAVE  TRACK 03 AUDIO    TITLE "For Heaven’s Sake"    PERFORMER "16 Horsepower"    ISRC USAM19774847    INDEX 01 00:00:00FILE "04. My Narrow Mind.wav" WAVE  TRACK 04 AUDIO    TITLE "My Narrow Mind"    PERFORMER "16 Horsepower"    INDEX 01 00:00:00FILE "05. Haw.wav" WAVE  TRACK 05 AUDIO    TITLE "Haw"    PERFORMER "16 Horsepower"    ISRC USAM19774848    INDEX 01 00:00:00

[2003 · TWA65CD] Olden


01 American Wheeze 3:55
02 Coal Black Horses 3:28
03 Scrawled In Sap 2:53
04 Prison Shoe Romp 2:51
05 I Seen What I Saw 3:00
06 Neck On The New Blade 3:08
07 Interview 0:21
08 South Pennsylvania Waltz 4:57
09 My Narrow Mind 3:18
10 American Wheeze 3:40
11 Shametown 2:51
12 Train Serenade 4:21
13 Strong Man 4:36
14 Interview 1:04
15 Slow Guilt Trot 3:34
16 Low Estate 3:39
17 Pure Clob Road 3:01
18 Heel On The Shovel 2:44
19 Sac Of Religion 3:01
20 Dead Run 3:11
Продолжительность 01:03:33

Лог создания рипа

Exact Audio Copy V1.0 beta 1 from 15. November 2010
EAC extraction logfile from 20. March 2011, 13:04
Sixteen Horsepower / Olden
Used drive : TSSTcorpCD/DVDW SH-S182D Adapter: 1 ID: 0
Read mode : SecureUtilize accurate stream : YesDefeat audio cache : YesMake use of C2 pointers : No
Read offset correction : 6Overread into Lead-In and Lead-Out : NoFill up missing offset samples with silence : YesDelete leading and trailing silent blocks : NoNull samples used in CRC calculations : YesUsed interface : Native Win32 interface for Win NT & 2000Gap handling : Appended to previous track
Used output format : User Defined EncoderSelected bitrate : 128 kBit/sQuality : HighAdd ID3 tag : NoCommand line compressor : C:\Program Files\Exact Audio Copy\Flac\flac.exeAdditional command line options : -V -8 -T "artist=%a" -T "title=%t" -T "album=%g" -T "date=%y" -T "tracknumber=%n" -T "genre=%m" %s
TOC of the extracted CD
Track | Start | Length | Start sector | End sector --------------------------------------------------------- 1 | 0:00.00 | 3:55.22 | 0 | 17646 2 | 3:55.22 | 3:27.47 | 17647 | 33218 3 | 7:22.69 | 2:52.45 | 33219 | 46163 4 | 10:15.39 | 2:51.28 | 46164 | 59016 5 | 13:06.67 | 2:59.54 | 59017 | 72495 6 | 16:06.46 | 3:08.28 | 72496 | 86623 7 | 19:14.74 | 0:20.53 | 86624 | 88176 8 | 19:35.52 | 4:56.67 | 88177 | 110443 9 | 24:32.44 | 3:18.08 | 110444 | 125301 10 | 27:50.52 | 3:40.06 | 125302 | 141807 11 | 31:30.58 | 2:51.33 | 141808 | 154665 12 | 34:22.16 | 4:20.64 | 154666 | 174229 13 | 38:43.05 | 4:36.12 | 174230 | 194941 14 | 43:19.17 | 1:03.53 | 194942 | 199719 15 | 44:22.70 | 3:34.30 | 199720 | 215799 16 | 47:57.25 | 3:38.61 | 215800 | 232210 17 | 51:36.11 | 3:01.21 | 232211 | 245806 18 | 54:37.32 | 2:43.46 | 245807 | 258077 19 | 57:21.03 | 3:00.54 | 258078 | 271631 20 | 60:21.57 | 3:10.74 | 271632 | 285955
Track 1
Filename F:\EACrips\Sixteen Horsepower - 2003 - Olden\01 - American Wheeze (Night Owl Session).wav
Pre-gap length 0:00:02.00
Peak level 99.7 % Extraction speed 4.5 X Track quality 100.0 % Test CRC 7A12043F Copy CRC 7A12043F Accurately ripped (confidence 5) [8B8DC0DF] Copy OK
Track 2
Filename F:\EACrips\Sixteen Horsepower - 2003 - Olden\02 - Coal Black Horses (Night Owl Session).wav
Peak level 99.1 % Extraction speed 4.9 X Track quality 100.0 % Test CRC 7A17789F Copy CRC 7A17789F Accurately ripped (confidence 5) [1BFDCCBA] Copy OK
Track 3
Filename F:\EACrips\Sixteen Horsepower - 2003 - Olden\03 - Scrawled in Sap (Night Owl Session).wav
Peak level 100.0 % Extraction speed 5.0 X Track quality 100.0 % Test CRC E5796AAE Copy CRC E5796AAE Accurately ripped (confidence 5) [62DD3F4E] Copy OK
Track 4
Filename F:\EACrips\Sixteen Horsepower - 2003 - Olden\04 - Prison Shoe Romp (Night Owl Session).wav
Peak level 99.9 % Extraction speed 5.2 X Track quality 100.0 % Test CRC 1EE6534A Copy CRC 1EE6534A Accurately ripped (confidence 5) [A4271A8C] Copy OK
Track 5
Filename F:\EACrips\Sixteen Horsepower - 2003 - Olden\05 - I Seen What I Saw (Night Owl Session).wav
Peak level 99.8 % Extraction speed 5.6 X Track quality 100.0 % Test CRC C98577C1 Copy CRC C98577C1 Accurately ripped (confidence 5) [60D949D6] Copy OK
Track 6
Filename F:\EACrips\Sixteen Horsepower - 2003 - Olden\06 - Neck on The New Blade (Night Owl Session).wav
Peak level 100.0 % Extraction speed 6.0 X Track quality 100.0 % Test CRC 7D2ABBFF Copy CRC 7D2ABBFF Accurately ripped (confidence 5) [38190913] Copy OK
Track 7
Filename F:\EACrips\Sixteen Horsepower - 2003 - Olden\07 - Interview (Night Owl Session).wav
Peak level 82.9 % Extraction speed 2.5 X Track quality 100.0 % Test CRC F9EA0A0F Copy CRC F9EA0A0F Accurately ripped (confidence 5) [E1176780] Copy OK
Track 8
Filename F:\EACrips\Sixteen Horsepower - 2003 - Olden\08 - South Pennsylvania Waltz (Kerr Macy Session).wav
Peak level 100.0 % Extraction speed 6.6 X Track quality 100.0 % Test CRC 141DF276 Copy CRC 141DF276 Accurately ripped (confidence 5) [93F38EB4] Copy OK
Track 9
Filename F:\EACrips\Sixteen Horsepower - 2003 - Olden\09 - My Narrow Mind (Kerr Macy Session).wav
Peak level 100.0 % Extraction speed 6.6 X Track quality 100.0 % Test CRC FD571FCA Copy CRC FD571FCA Accurately ripped (confidence 5) [539CB421] Copy OK
Track 10
Filename F:\EACrips\Sixteen Horsepower - 2003 - Olden\10 - American Wheeze (Kerr Macy Session).wav
Peak level 100.0 % Extraction speed 6.9 X Track quality 100.0 % Test CRC 9A885E54 Copy CRC 9A885E54 Accurately ripped (confidence 4) [8F43C490] Copy OK
Track 11
Filename F:\EACrips\Sixteen Horsepower - 2003 - Olden\11 - Shametown (Kerr Macy Session).wav
Peak level 99.6 % Extraction speed 6.9 X Track quality 100.0 % Test CRC 9CCE2786 Copy CRC 9CCE2786 Accurately ripped (confidence 5) [8750EF9F] Copy OK
Track 12
Filename F:\EACrips\Sixteen Horsepower - 2003 - Olden\12 - Train Serenade (Kerr Macy Session).wav
Peak level 100.0 % Extraction speed 7.6 X Track quality 100.0 % Test CRC 04DD1B47 Copy CRC 04DD1B47 Accurately ripped (confidence 5) [1B3238C2] Copy OK
Track 13
Filename F:\EACrips\Sixteen Horsepower - 2003 - Olden\13 - Strong Man (Kerr Macy Session).wav
Peak level 100.0 % Extraction speed 7.9 X Track quality 100.0 % Test CRC 6CE26CFF Copy CRC 6CE26CFF Accurately ripped (confidence 5) [57A37B6F] Copy OK
Track 14
Filename F:\EACrips\Sixteen Horsepower - 2003 - Olden\14 - Interview (Kerr Macy Session).wav
Peak level 83.7 % Extraction speed 5.6 X Track quality 100.0 % Test CRC 91C20A87 Copy CRC 91C20A87 Accurately ripped (confidence 5) [F9ED50CC] Copy OK
Track 15
Filename F:\EACrips\Sixteen Horsepower - 2003 - Olden\15 - Slow Guilt Trot (Live 1994).wav
Peak level 100.0 % Extraction speed 8.0 X Track quality 100.0 % Test CRC 1B19ED13 Copy CRC 1B19ED13 Accurately ripped (confidence 5) [E1A99239] Copy OK
Track 16
Filename F:\EACrips\Sixteen Horsepower - 2003 - Olden\16 - Low Estate (Live 1994).wav
Peak level 100.0 % Extraction speed 7.1 X Track quality 99.9 % Test CRC 8A259E9D Copy CRC 8A259E9D Accurately ripped (confidence 5) [5B5B39D3] Copy OK
Track 17
Filename F:\EACrips\Sixteen Horsepower - 2003 - Olden\17 - Pure Clob Road (Live 1994).wav
Peak level 100.0 % Extraction speed 8.1 X Track quality 100.0 % Test CRC 4DD22C19 Copy CRC 4DD22C19 Accurately ripped (confidence 5) [82EF76F5] Copy OK
Track 18
Filename F:\EACrips\Sixteen Horsepower - 2003 - Olden\18 - Heel on the Shovel (Live 1994).wav
Peak level 100.0 % Extraction speed 8.1 X Track quality 100.0 % Test CRC DFB742DF Copy CRC DFB742DF Accurately ripped (confidence 5) [940F4861] Copy OK
Track 19
Filename F:\EACrips\Sixteen Horsepower - 2003 - Olden\19 - Sac of Religion (Live 1994).wav
Peak level 99.9 % Extraction speed 8.5 X Track quality 100.0 % Test CRC D6359F1F Copy CRC D6359F1F Accurately ripped (confidence 5) [6DE81CDC] Copy OK
Track 20
Filename F:\EACrips\Sixteen Horsepower - 2003 - Olden\20 - Dead Run (Live 1994).wav
Peak level 100.0 % Extraction speed 8.6 X Track quality 100.0 % Test CRC E6E87BEE Copy CRC E6E87BEE Accurately ripped (confidence 5) [0CB82CDC] Copy OK
All tracks accurately ripped
No errors occurred
End of status report
==== Log checksum 47200591A4786675B4A073E3249D89B3DDD71DB63D186B59AAC24235051DA451 ====

Содержание индексной карты (.cue)

REM DATE 2003REM DISCID 3A0EE414REM COMMENT "ExactAudioCopy v1.0b1"PERFORMER "16 Horsepower"TITLE "Olden"FILE "01. American Wheeze.wav" WAVE  TRACK 01 AUDIO    TITLE "American Wheeze"    PERFORMER "16 Horsepower"    INDEX 01 00:00:00FILE "02. Coal Black Horses.wav" WAVE  TRACK 02 AUDIO    TITLE "Coal Black Horses"    PERFORMER "16 Horsepower"    INDEX 01 00:00:00FILE "03. Scrawled In Sap.wav" WAVE  TRACK 03 AUDIO    TITLE "Scrawled In Sap"    PERFORMER "16 Horsepower"    INDEX 01 00:00:00FILE "04. Prison Shoe Romp.wav" WAVE  TRACK 04 AUDIO    TITLE "Prison Shoe Romp"    PERFORMER "16 Horsepower"    INDEX 01 00:00:00FILE "05. I Seen What I Saw.wav" WAVE  TRACK 05 AUDIO    TITLE "I Seen What I Saw"    PERFORMER "16 Horsepower"    INDEX 01 00:00:00FILE "06. Neck On The New Blade.wav" WAVE  TRACK 06 AUDIO    TITLE "Neck On The New Blade"    PERFORMER "16 Horsepower"    INDEX 01 00:00:00FILE "07. Interview.wav" WAVE  TRACK 07 AUDIO    TITLE "Interview"    PERFORMER "16 Horsepower"    INDEX 01 00:00:00FILE "08. South Pennsylvania Waltz.wav" WAVE  TRACK 08 AUDIO    TITLE "South Pennsylvania Waltz"    PERFORMER "16 Horsepower"    INDEX 01 00:00:00FILE "09. My Narrow Mind.wav" WAVE  TRACK 09 AUDIO    TITLE "My Narrow Mind"    PERFORMER "16 Horsepower"    INDEX 01 00:00:00FILE "10. American Wheeze.wav" WAVE  TRACK 10 AUDIO    TITLE "American Wheeze"    PERFORMER "16 Horsepower"    INDEX 01 00:00:00FILE "11. Shametown.wav" WAVE  TRACK 11 AUDIO    TITLE "Shametown"    PERFORMER "16 Horsepower"    INDEX 01 00:00:00FILE "12. Train Serenade.wav" WAVE  TRACK 12 AUDIO    TITLE "Train Serenade"    PERFORMER "16 Horsepower"    INDEX 01 00:00:00FILE "13. Strong Man.wav" WAVE  TRACK 13 AUDIO    TITLE "Strong Man"    PERFORMER "16 Horsepower"    INDEX 01 00:00:00FILE "14. Interview.wav" WAVE  TRACK 14 AUDIO    TITLE "Interview"    PERFORMER "16 Horsepower"    INDEX 01 00:00:00FILE "15. Slow Guilt Trot.wav" WAVE  TRACK 15 AUDIO    TITLE "Slow Guilt Trot"    PERFORMER "16 Horsepower"    INDEX 01 00:00:00FILE "16. Low Estate.wav" WAVE  TRACK 16 AUDIO    TITLE "Low Estate"    PERFORMER "16 Horsepower"    INDEX 01 00:00:00FILE "17. Pure Clob Road.wav" WAVE  TRACK 17 AUDIO    TITLE "Pure Clob Road"    PERFORMER "16 Horsepower"    INDEX 01 00:00:00FILE "18. Heel On The Shovel.wav" WAVE  TRACK 18 AUDIO    TITLE "Heel On The Shovel"    PERFORMER "16 Horsepower"    INDEX 01 00:00:00FILE "19. Sac Of Religion.wav" WAVE  TRACK 19 AUDIO    TITLE "Sac Of Religion"    PERFORMER "16 Horsepower"    INDEX 01 00:00:00FILE "20. Dead Run.wav" WAVE  TRACK 20 AUDIO    TITLE "Dead Run"    PERFORMER "16 Horsepower"    INDEX 01 00:00:00

[doutdess.info].t283219.torrent
Торрент: Зарегистрирован [ 2018-08-09 11:10 ] · 6FDFA7857EB078A5DE360B7DE5247190920E8473

17 KB

Статус: проверено
Скачан: 0 раз
Размер: 1,08 GB
(Alternative country) 16 (Sixteen) Horsepower · коллекция (4 релиза, 1995–2003), FLAC (tracks+.cue) lossless скачать торрент бесплатно и без регистрации

[Профиль] [ЛС]
Форум Тема Автор Размер
Зарубежный Рэп, Хип-Хоп lossless (Alternative / Hip-Hop / Rap / Indie) [WEB] nothing,nowhere. - Коллекция - 2015-2018, FLAC (tracks), lossless Vi$itReal 686 MB
Зарубежный Рэп, Хип-Хоп lossless (Alternative / Hip-Hop / Rapcore / Christian) [CD] Manafest - The Moment - 2014, FLAC (tracks+.cue), lossless Vi$itReal 267 MB
Зарубежный Рэп, Хип-Хоп lossless (Alternative / Hip-Hop / Rapcore / Christian) [WEB] Manafest - Stones (Single) - 2017, FLAC (tracks), lossless Vi$itReal 24 MB
Зарубежный Рэп, Хип-Хоп lossless (Alternative / Hip-Hop / Rapcore / Christian) [WEB] Manafest - Stones - 2017, FLAC (tracks), lossless Vi$itReal 294 MB
Зарубежный Рэп, Хип-Хоп lossy (Alternative / West Coast Rap / Hip-Hop) Childish Gambino - Awaken, My Love! - 2016, MP3, 256 kbps RelizMAN 90 MB
Country, Bluegrass lossless (Alternative Country / Folk) [CD] Kathleen Edwards - Failer - 2003, APE (image+.cue), lossless RelizMAN 265 MB
Country, Bluegrass lossy (Alternative Country Blues Rock) Cowboy Junkies - Дискография 1986-2018 (24 альбома), MP3 (tracks), 320 kbps Vi$itReal 2,77 GB
Country, Bluegrass lossy (Alternative Country) Anna Coogan (& North19, Daniele Fiaschi, JD Foster) - Коллекция 2004-2014 (7 релизов), MP3, 192-320 kbps Vi$itReal 583 MB
Показать сообщения:    

Текущее время: 25-Мар 20:48

Часовой пояс: UTC + 3



Вы не можете начинать темы
Вы не можете отвечать на сообщения
Вы не можете редактировать свои сообщения
Вы не можете удалять свои сообщения
Вы не можете голосовать в опросах
Вы не можете прикреплять файлы к сообщениям
Вы можете скачивать файлы