Reply to topic
DL-List and Torrent activity [Update пиров]
Size:  194 MB   |    Registered:  1 year 3 months   |    Completed:  0 times
Seeders:  341  [  0 KB/s  ]   Leechers:  25  [  0 KB/s  ]  
 
     
 
 
Author Message

RelizMAN ®

11

Post 18-Apr-2018 21:55

[Quote]

The Ethiopians
"Engine '54: Let's Ska and Rock Steady"
— 1968
Страна группы: Jamaica (Kingston)
Лэйбл: Jamaican Gold / 1992, RM
Номер каталога: JMC 200.103
Жанры: Rocksteady | Reggae
Аудио кодек: FLAC (*.flac)
Битрейт аудио: Lossless
Тип рипа: tracks+.cue
Источник: Λpollo.rip
Формат: CD | Album
.
TRACK LISTING
01. Engine '54 (02:38)
02. My Love (04:38)
03. You Got the Dough (03:05)
04. Train to Ska-Ville (original) (02:58)
05. Give Me Your Love (02:24)
06. Train to Glory (02:50)
07. Long Time Now (02:30)
08. Woman's World (02:55)
09. Unchanged Love (03:20)
10. Come on Now (03:19)
11. Love and Respect (03:28)
12. Train to Ska-Ville (version) (03:32)
total length (00:37:31)

l o g

X Lossless Decoder version 20101212 (126.2)
XLD extraction logfile from 2011-01-30 12:18:02 -0500
The Ethiopians / Engine '54 - Let's ska and rock steady
Used drive : OPTIARC DVD RW AD-5670S (revision 2AHI)
Ripper mode : XLD Secure RipperDisable audio cache : OK for the drive with a cache less than 1375KiBMake use of C2 pointers : NORead offset correction : 48Max retry count : 100Gap status : Analyzed, Appended (except HTOA)
TOC of the extracted CD Track | Start | Length | Start sector | End sector --------------------------------------------------------- 1 | 00:00:33 | 02:37:67 | 33 | 11874 2 | 02:38:25 | 04:37:23 | 11875 | 32672 3 | 07:15:48 | 03:04:50 | 32673 | 46522 4 | 10:20:23 | 02:57:05 | 46523 | 59802 5 | 13:17:28 | 02:23:57 | 59803 | 70584 6 | 15:41:10 | 02:49:30 | 70585 | 83289 7 | 18:30:40 | 02:29:05 | 83290 | 94469 8 | 20:59:45 | 02:54:68 | 94470 | 107587 9 | 23:54:38 | 03:19:12 | 107588 | 122524 10 | 27:13:50 | 03:18:23 | 122525 | 137397 11 | 30:31:73 | 03:27:35 | 137398 | 152957 12 | 33:59:33 | 03:31:42 | 152958 | 168824
AccurateRip Summary Track 01 : OK (confidence 1) Track 02 : OK (confidence 1) Track 03 : OK (confidence 1) Track 04 : OK (confidence 1) Track 05 : OK (confidence 1) Track 06 : OK (confidence 1) Track 07 : OK (confidence 1) Track 08 : OK (confidence 1) Track 09 : OK (confidence 1) Track 10 : OK (confidence 1) Track 11 : OK (confidence 1) Track 12 : OK (confidence 1) ->All tracks accurately ripped.
All Tracks Album gain : -4.26 dB Peak : 0.944366 Statistics Read error : 0 Jitter error (maybe fixed) : 0 Retry sector count : 0 Damaged sector count : 0
Track 01 Filename : /Users/XLD/01 - Engine '54.flac Pre-gap length : 00:02:33
Track gain : -4.74 dB Peak : 0.906464 CRC32 hash (test run) : 6F7A1765 CRC32 hash : 6F7A1765 CRC32 hash (skip zero) : 4B511D5D AccurateRip signature : 7B537A47 ->Accurately ripped! (confidence 1) Statistics Read error : 0 Jitter error (maybe fixed) : 0 Retry sector count : 0 Damaged sector count : 0
Track 02 Filename : /Users/XLD/02 - My Love.flac Pre-gap length : 00:01:57
Track gain : -3.91 dB Peak : 0.944366 CRC32 hash (test run) : E61F4281 CRC32 hash : E61F4281 CRC32 hash (skip zero) : 5CCEE569 AccurateRip signature : 500BA9E1 ->Accurately ripped! (confidence 1) Statistics Read error : 0 Jitter error (maybe fixed) : 0 Retry sector count : 0 Damaged sector count : 0
Track 03 Filename : /Users/XLD/03 - You got the dough.flac Pre-gap length : 00:01:55
Track gain : -3.96 dB Peak : 0.905365 CRC32 hash (test run) : 230BADE7 CRC32 hash : 230BADE7 CRC32 hash (skip zero) : 06D4F972 AccurateRip signature : 7E135CB1 ->Accurately ripped! (confidence 1) Statistics Read error : 0 Jitter error (maybe fixed) : 0 Retry sector count : 0 Damaged sector count : 0
Track 04 Filename : /Users/XLD/04 - Train to Ska-Ville.flac Pre-gap length : 00:01:60
Track gain : -2.86 dB Peak : 0.890930 CRC32 hash (test run) : 42B49F28 CRC32 hash : 42B49F28 CRC32 hash (skip zero) : 0CD3DD77 AccurateRip signature : C27A2E57 ->Accurately ripped! (confidence 1) Statistics Read error : 0 Jitter error (maybe fixed) : 0 Retry sector count : 0 Damaged sector count : 0
Track 05 Filename : /Users/XLD/05 - Give me your love.flac Pre-gap length : 00:02:00
Track gain : -3.59 dB Peak : 0.909485 CRC32 hash (test run) : 34F0E453 CRC32 hash : 34F0E453 CRC32 hash (skip zero) : 4D85A1C3 AccurateRip signature : FA4BCEF5 ->Accurately ripped! (confidence 1) Statistics Read error : 0 Jitter error (maybe fixed) : 0 Retry sector count : 0 Damaged sector count : 0
Track 06 Filename : /Users/XLD/06 - Train to glory.flac Pre-gap length : 00:02:05
Track gain : -4.16 dB Peak : 0.897919 CRC32 hash (test run) : 01E6E472 CRC32 hash : 01E6E472 CRC32 hash (skip zero) : 0D25EE9E AccurateRip signature : 1C5953B4 ->Accurately ripped! (confidence 1) Statistics Read error : 0 Jitter error (maybe fixed) : 0 Retry sector count : 0 Damaged sector count : 0
Track 07 Filename : /Users/XLD/07 - Long time now.flac Pre-gap length : 00:02:02
Track gain : -2.31 dB Peak : 0.889191 CRC32 hash (test run) : ABCC78D2 CRC32 hash : ABCC78D2 CRC32 hash (skip zero) : BE052837 AccurateRip signature : AC279F95 ->Accurately ripped! (confidence 1) Statistics Read error : 0 Jitter error (maybe fixed) : 0 Retry sector count : 0 Damaged sector count : 0
Track 08 Filename : /Users/XLD/08 - Woman's world.flac Pre-gap length : 00:01:72
Track gain : -3.91 dB Peak : 0.897430 CRC32 hash (test run) : 3AEB31CB CRC32 hash : 3AEB31CB CRC32 hash (skip zero) : FF27BCBE AccurateRip signature : 61337F71 ->Accurately ripped! (confidence 1) Statistics Read error : 0 Jitter error (maybe fixed) : 0 Retry sector count : 0 Damaged sector count : 0
Track 09 Filename : /Users/XLD/09 - Unchained love.flac Pre-gap length : 00:01:50
Track gain : -6.05 dB Peak : 0.896332 CRC32 hash (test run) : 6C68A373 CRC32 hash : 6C68A373 CRC32 hash (skip zero) : 27909A74 AccurateRip signature : 61BB56F1 ->Accurately ripped! (confidence 1) Statistics Read error : 0 Jitter error (maybe fixed) : 0 Retry sector count : 0 Damaged sector count : 0
Track 10 Filename : /Users/XLD/10 - Come on now.flac Pre-gap length : 00:01:40
Track gain : -4.48 dB Peak : 0.891998 CRC32 hash (test run) : 4F286476 CRC32 hash : 4F286476 CRC32 hash (skip zero) : 9C397C5D AccurateRip signature : 8B32F8F4 ->Accurately ripped! (confidence 1) Statistics Read error : 0 Jitter error (maybe fixed) : 0 Retry sector count : 0 Damaged sector count : 0
Track 11 Filename : /Users/XLD/11 - Love and respect.flac Pre-gap length : 00:01:55
Track gain : -3.37 dB Peak : 0.893127 CRC32 hash (test run) : 1E3587AA CRC32 hash : 1E3587AA CRC32 hash (skip zero) : 13C42374 AccurateRip signature : E03F5257 ->Accurately ripped! (confidence 1) Statistics Read error : 0 Jitter error (maybe fixed) : 0 Retry sector count : 0 Damaged sector count : 0
Track 12 Filename : /Users/XLD/12 - Train to ska-ville (version).flac Pre-gap length : 00:01:33
Track gain : -1.10 dB Peak : 0.738434 CRC32 hash (test run) : 39022176 CRC32 hash : 39022176 CRC32 hash (skip zero) : 5F40EAE0 AccurateRip signature : 9E6B2861 ->Accurately ripped! (confidence 1) Statistics Read error : 0 Jitter error (maybe fixed) : 0 Retry sector count : 0 Damaged sector count : 0
No errors occurred
End of status report

.c u e

REM GENRE "Rocksteady"REM DATE 1968TITLE "Engine '54: Let's Ska and Rock Steady"PERFORMER "The Ethiopians"REM DISCID 8C08CB0CFILE "01. Engine '54.wav" WAVE  TRACK 01 AUDIO    TITLE "Engine '54"    PREGAP 00:00:33    INDEX 01 00:00:00  TRACK 02 AUDIO    TITLE "My Love"    INDEX 00 02:36:10FILE "02. My Love.wav" WAVE    INDEX 01 00:00:00  TRACK 03 AUDIO    TITLE "You Got the Dough"    INDEX 00 04:35:43FILE "03. You Got the Dough.wav" WAVE    INDEX 01 00:00:00  TRACK 04 AUDIO    TITLE "Train to Ska-Ville (original)"    INDEX 00 03:02:65FILE "04. Train to Ska-Ville (original).wav" WAVE    INDEX 01 00:00:00  TRACK 05 AUDIO    TITLE "Give Me Your Love"    INDEX 00 02:55:05FILE "05. Give Me Your Love.wav" WAVE    INDEX 01 00:00:00  TRACK 06 AUDIO    TITLE "Train to Glory"    INDEX 00 02:21:52FILE "06. Train to Glory.wav" WAVE    INDEX 01 00:00:00  TRACK 07 AUDIO    TITLE "Long Time Now"    INDEX 00 02:47:28FILE "07. Long Time Now.wav" WAVE    INDEX 01 00:00:00  TRACK 08 AUDIO    TITLE "Woman's World"    INDEX 00 02:27:08FILE "08. Woman's World.wav" WAVE    INDEX 01 00:00:00  TRACK 09 AUDIO    TITLE "Unchanged Love"    INDEX 00 02:53:18FILE "09. Unchanged Love.wav" WAVE    INDEX 01 00:00:00  TRACK 10 AUDIO    TITLE "Come on Now"    INDEX 00 03:17:47FILE "10. Come on Now.wav" WAVE    INDEX 01 00:00:00  TRACK 11 AUDIO    TITLE "Love and Respect"    INDEX 00 03:16:43FILE "11. Love and Respect.wav" WAVE    INDEX 01 00:00:00  TRACK 12 AUDIO    TITLE "Train to Ska-Ville (version)"    INDEX 00 03:26:02FILE "12. Train to Ska-Ville (version).wav" WAVE    INDEX 01 00:00:00
[doutdess.info].t262143.torrent
Torrent: Registered [ 2018-04-18 21:55 ] · B4BAD4E474005E43BBA71496A9929B5055C8EE3B

16 KB

Status: checked
Completed: 0 times
Size: 194 MB
(Rocksteady, Reggae) [CD] The Ethiopians — Engine \'54: Let\'s Ska and Rock Steady [remastered] — 1968 (1992), FLAC (tracks+.cue), lossless скачать торрент бесплатно и без регистрации

[Profile] [PM]
Forum Topic Author Size
Rocksteady, Early Reggae, Ska-Jazz, Trad.Ska lossy и lossless (Rocksteady / Calypso / Early Reggae) The Wailing Souls - The Wailing Souls - 1976, MP3 (tracks), CBR 192kbps RelizMAN 54 MB
Reggae, Ska, Dub компиляции lossy и lossless (Rocksteady / Lovers Rock / Early Reggae) VA - Celebration (The Best Of Reggae) - 1992, MP3 (tracks), 320 kbps Vi$itReal 302 MB
Rocksteady, Early Reggae, Ska-Jazz, Trad.Ska lossy и lossless (Rocksteady / Lovers Rock) VA - Put It On - It\'s Rocksteady - 1968, MP3 (tracks), CBR 320 kbps RelizMAN 99 MB
Rocksteady, Early Reggae, Ska-Jazz, Trad.Ska lossy и lossless (Rocksteady) Delroy Wilson - Rocksteady Massive! - 2003, FLAC (tracks+.cue) lossless RelizMAN 311 MB
Rocksteady, Early Reggae, Ska-Jazz, Trad.Ska lossy и lossless (Rocksteady) Harry J Allstars - Liquidator (1969) - 2010, FLAC (image+.cue) lossless RelizMAN 117 MB
Rocksteady, Early Reggae, Ska-Jazz, Trad.Ska lossy и lossless (Rocksteady) Hopeton Lewis - Classic Gold Collection 1968-1998 - 1998, FLAC (tracks+.cue) lossless RelizMAN 256 MB
Rocksteady, Early Reggae, Ska-Jazz, Trad.Ska lossy и lossless (Rocksteady) Newtown Rocksteady - East of the Tasman - 2017, MP3, 320 kbps RelizMAN 127 MB
Ska, Ska-Punk, Ska-Jazz lossless (RockSteady) The Sweetbeats - Rub Up! Rub Up! - 2005, FLAC (tracks+.cue), lossless RelizMAN 282 MB
Display posts:    

Current time is: 22-Jul 04:07

All times are UTC + 3



You cannot post new topics in this forum
You cannot reply to topics in this forum
You cannot edit your posts in this forum
You cannot delete your posts in this forum
You cannot vote in polls in this forum
You cannot attach files in this forum
You can download files in this forum