Reply to topic
DL-List and Torrent activity [Update пиров]
Size:  319 MB   |    Registered:  3 years 8 months   |    Completed:  0 times
Seeders:  880  [  0 KB/s  ]   Leechers:  4  [  0 KB/s  ]  
 
     
 
 
Author Message

RelizMAN ®

11

Post 05-Oct-2015 00:31

[Quote]

Sangit Om - Bamboo Moon
Жанр: New Age
Носитель: Audio CD
Год издания: 1994
Страна-производитель диска: Germany
Издатель (лейбл): ® Nightingale Records
Номер по каталогу: NGH-CD-357
Страна исполнителя: Germany
Аудиокодек: FLAC (*.flac)
Тип рипа: image+.cue
Битрейт аудио: lossless
Продолжительность: 55:13
Наличие сканов: Отсутствуют
Источник (релизер): Сайт: osieron-sanctuary.nnm.me (24.02.2013),
авторы рипа - daruma, первоисточник - osieron.
-Об исполнителе.
Сангит Ом – немецкий музыкант, продюсер, исполняющий медитативную музыку в стиле нью-эйдж, этнической музыки. Настоящее имя - Стефан Петерсилг.
Интересовался восточными религиями, побывал в США в поселении у Чандра Мохана Джеина (более известный как Ошо, Бхагван Шри Раджниш), который там основал религиозную общину. Затем поехал в индийскую общину в Пуне, где был очарован индийской культурой и музыкой. Он выпустил три альбома в период между 1988 и 1998 годами, когда сотрудничал с звукозаписывающей компанией «Nightingale Records». Чуть позже он разорвал свой контракт с этой студией и основал свой лейбл «New Spirit», и в 1998 году вышел его первый альбом на этом лейбле для одного из крупных на тот момент лейблов EMI Group. Всего для EMI было выпущено 3 компакт-диска. Позже, он имел положительный опыт работы с голландской музыкальной компанией «Oreade Music», считающейся одним из главных в нью-эйджевой музыке в Европе, который его активно поддерживает. Последняя его работа – альбом «The Spirit of Yoga» 2009 года - получила положительные рецензии.
В настоящее время Стефан со своей супругой проживают в небольшой деревне на греческом острове Крит. Он играет традиционную критскую музыку, проводит живые выступления с танцами. (Критский форум, Английская Википедия, Музыкальная газета (С.Козловский))

-
Треклист:
01 Seven Steps
02 Bamboo Dream
03 Pan's Farewell
04 Little Princess
05 East Wind
06 Liliom
07 The jungle
08 Waves

ЛогиОтчет EAC

Exact Audio Copy V0.99 prebeta 5 from 4. May 2009
Отчёт EAC об извлечении, выполненном 1. марта 2013, 23:45
Sangit Om / Bamboo Moon
Дисковод: PIONEER DVD-RW DVR-118L Adapter: 0 ID: 0
Режим чтения : ДостоверностьИспользование точного потока : ДаОтключение кэша аудио : ДаИспользование указателей C2 : Нет
Коррекция смещения при чтении : 6Способность читать области Lead-in и Lead-out : НетЗаполнение пропущенных сэмплов тишиной : ДаУдаление блоков с тишиной в начале и конце : НетПри вычислениях CRC использовались нулевые сэмплы : ДаИнтерфейс : Встроенный Win32-интерфейс для Win NT/2000
Выходной формат : Пользовательский кодировщикВыбранный битрейт : 1024 kBit/sКачество : ВысокийДобавление ID3-тэга : НетУтилита сжатия : E:\Мои документы\Downloads\Exact Audio Copy\FLAC\FLAC.EXEДополнительные параметры : -6 -V -T "ARTIST=%a" -T "TITLE=%t" -T "ALBUM=%g" -T "DATE=%y" -T "TRACKNUMBER=%n" -T "GENRE=%m" -T "COMMENT=%e" %s -o %d
TOC извлечённого CD
Трек | Старт | Длительность | Начальный сектор | Конечный сектор --------------------------------------------------------------------- 1 | 0:00.32 | 4:33.23 | 32 | 20529 2 | 4:33.55 | 8:13.22 | 20530 | 57526 3 | 12:47.02 | 5:36.70 | 57527 | 82796 4 | 18:23.72 | 7:33.43 | 82797 | 116814 5 | 25:57.40 | 9:02.07 | 116815 | 157471 6 | 34:59.47 | 4:40.53 | 157472 | 178524 7 | 39:40.25 | 5:40.60 | 178525 | 204084 8 | 45:21.10 | 9:52.45 | 204085 | 248529
Характеристики диапазона извлечения и сообщения об ошибках
Выбранный диапазон
Имя файла C:\Вся музыка\Sangit Om - Bamboo Moon.wav
Пиковый уровень 96.3 % Качество диапазона 100.0 % CRC теста 2D7ADFE1 CRC копии 2D7ADFE1 Копирование... OK
Ошибок не произошло
AccurateRip: сводка
Трек 1 точность не определена (достоверность 3) [62F1300B], AccurateRip вернул [3EF2CDD5]Трек 2 точность не определена (достоверность 3) [B1B8F44C], AccurateRip вернул [5A69A7F4]Трек 3 точность не определена (достоверность 3) [83EE0350], AccurateRip вернул [1EF00E34]Трек 4 точность не определена (достоверность 3) [0895D915], AccurateRip вернул [234B0229]Трек 5 точность не определена (достоверность 3) [2C16D9CD], AccurateRip вернул [5A4BCAB9]Трек 6 точность не определена (достоверность 3) [DE7D3230], AccurateRip вернул [C831AEC2]Трек 7 точность не определена (достоверность 3) [0AD9B960], AccurateRip вернул [04C45B4E]Трек 8 точность не определена (достоверность 3) [BAC3673A], AccurateRip вернул [A6D1A540]
Ни один трек не прошёл проверки на точностьВ вашей базе может быть иной вариант штамповки диска
Конец отчёта

Лог проверки качества

-----------------------
DON'T MODIFY THIS FILE
-----------------------
PERFORMER: auCDtect Task Manager, ver. 1.5.1RC4 build 1.5.1.5Copyright (c) 2008-2010 y-soft. All rights reservedhttp://y-soft.org
ANALYZER: auCDtect: CD records authenticity detector, version 0.8.2Copyright (c) 2004 Oleg Berngardt. All rights reserved.Copyright (c) 2004 Alexander Djourik. All rights reserved.
FILE: Sangit Om - Bamboo Moon.flac Size: 333977815 Hash: 448298D1DDD04EE14275218B64AB7089 Accuracy: -m0 Conclusion: CDDA 100% Signature: CA622D9C8F1290E807F0A7CF5385644F5202F7BE

[doutdess.info].t81071.torrent
Torrent: Registered [ 2015-10-05 00:30 ] · A1AA27E42504D67475A17D3C49218F700C412BC8

13 KB

Status: checked
Completed: 0 times
Size: 319 MB
(New Age) [CD] Sangit Om - Bamboo Moon - 1994, FLAC (image+.cue), lossless скачать торрент бесплатно и без регистрации

[Profile] [PM]
Forum Topic Author Size
NewAge & Meditative lossless (New Age) Al Gromer Khan & Emin Corrado - Tantra Electronica - 2004, FLAC (tracks+.cue), lossless RelizMAN 284 MB
NewAge & Meditative lossless (New Age) Al Gromer Khan - Negus - The Royal Principle - 2008, FLAC (tracks+.cue), lossless RelizMAN 227 MB
NewAge & Meditative lossless (New Age) Amethystium - 2005 - "Transversa" [APE (image + .cue)], lossless RelizMAN 437 MB
NewAge & Meditative lossless (New Age) Anima - Temple of the Stars - 2010, FLAC (tracks+.cue), lossless RelizMAN 376 MB
NewAge & Meditative lossless (New Age) Anne Linnet - Relax, No. 1 - 2003, FLAC (tracks+.cue), lossless RelizMAN 312 MB
NewAge & Meditative lossless (New Age) Anthony Miles - Music For Children - 1995, APE (image+.cue) lossless RelizMAN 212 MB
NewAge & Meditative lossless (New Age) Anuragi - Highway Back Home (1990), Morning & Evening Meditation (1992), APE (image + .cue), lossless RelizMAN 331 MB
NewAge & Meditative lossless (New Age) Asha - Chosen by You - 2002, FLAC (tracks+.cue), lossless RelizMAN 350 MB
Display posts:    

Current time is: 24-Jun 19:23

All times are UTC + 3



You cannot post new topics in this forum
You cannot reply to topics in this forum
You cannot edit your posts in this forum
You cannot delete your posts in this forum
You cannot vote in polls in this forum
You cannot attach files in this forum
You can download files in this forum