Reply to topic
DL-List and Torrent activity [Update пиров]
Size:  448 MB   |    Registered:  3 years 8 months   |    Completed:  0 times
Seeders:  927  [  0 KB/s  ]   Leechers:  25  [  0 KB/s  ]  
 
     
 
 
Author Message

RelizMAN ®

11

Post 05-Oct-2015 00:31

[Quote]

Sisumara - Tribal Ragas Of The Dreaming
Жанр: New Age, Meditative, World
Носитель: CD
Год издания: 1994
Издатель (лейбл): Sisumara Records
Номер по каталогу: TR001
Аудиокодек: FLAC (*.flac)
Тип рипа: tracks+.cue
Битрейт аудио: lossless
Источник (релизер): Ian
Наличие сканов в содержимом раздачи: да
Треклист:
01 - Sisumara Rave
02 - Shiva Ranjani
03 - Dhunin Rhag Bhairave
04 - Krishna Jini Ki
05 - Full Moon Ecstasy
06 - Lotus Palace Of Love
07 - Dolphin Flight
08 - Jau Ambre
09 - Sisumara Mantra Dance

Лог создания рипа

X Lossless Decoder version 20140504 (147.0)
XLD extraction logfile from 2014-08-04 08:04:28 +1000
Sisumara / Tribal Ragas Of The Dreaming
Used drive : PIONEER BD-RW BDR-207D (revision 1.20)Media type : Pressed CD
Ripper mode : XLD Secure RipperDisable audio cache : OK for the drive with a cache less than 1375KiBMake use of C2 pointers : NORead offset correction : 667Max retry count : 100Gap status : Analyzed, Appended (except HTOA)
TOC of the extracted CD Track | Start | Length | Start sector | End sector --------------------------------------------------------- 1 | 00:00:00 | 06:17:32 | 0 | 28306 2 | 06:17:32 | 05:08:23 | 28307 | 51429 3 | 11:25:55 | 04:36:67 | 51430 | 72196 4 | 16:02:47 | 05:06:43 | 72197 | 95189 5 | 21:09:15 | 05:57:17 | 95190 | 121981 6 | 27:06:32 | 05:32:20 | 121982 | 146901 7 | 32:38:52 | 05:13:30 | 146902 | 170406 8 | 37:52:07 | 10:29:50 | 170407 | 217631 9 | 48:21:57 | 11:42:40 | 217632 | 270321
AccurateRip Summary Disc not found in AccurateRip DB.
All Tracks Album gain : -6.12 dB Peak : 0.995911 Statistics Read error : 0 Jitter error (maybe fixed) : 0 Retry sector count : 0 Damaged sector count : 0
Track 01 Filename : /Volumes/Macintosh HD/Users/Ian/Music/Convert Audio/Sisumara - Tribal Ragas Of The Dreaming (1994) [FLAC]/01 - Sisumara Rave.flac Pre-gap length : 00:02:00
Track gain : -6.22 dB Peak : 0.927429 CRC32 hash (test run) : 908DC3FD CRC32 hash : 908DC3FD CRC32 hash (skip zero) : 40259D45 AccurateRip v1 signature : 25652657 AccurateRip v2 signature : 60FA6D13 ->Track not present in AccurateRip database. Statistics Read error : 0 Jitter error (maybe fixed) : 0 Retry sector count : 0 Damaged sector count : 0
Track 02 Filename : /Volumes/Macintosh HD/Users/Ian/Music/Convert Audio/Sisumara - Tribal Ragas Of The Dreaming (1994) [FLAC]/02 - Shiva Ranjani.flac
Track gain : -5.97 dB Peak : 0.950989 CRC32 hash (test run) : 9909859A CRC32 hash : 9909859A CRC32 hash (skip zero) : 5CF5BFE7 AccurateRip v1 signature : 3B78FC36 AccurateRip v2 signature : 16DE93FE ->Track not present in AccurateRip database. Statistics Read error : 0 Jitter error (maybe fixed) : 0 Retry sector count : 0 Damaged sector count : 0
Track 03 Filename : /Volumes/Macintosh HD/Users/Ian/Music/Convert Audio/Sisumara - Tribal Ragas Of The Dreaming (1994) [FLAC]/03 - Dhunin Rhag Bhairave.flac
Track gain : -4.40 dB Peak : 0.915741 CRC32 hash (test run) : 352D950C CRC32 hash : 352D950C CRC32 hash (skip zero) : 6754F320 AccurateRip v1 signature : F2B5C326 AccurateRip v2 signature : 2A8ECA65 ->Track not present in AccurateRip database. Statistics Read error : 0 Jitter error (maybe fixed) : 0 Retry sector count : 0 Damaged sector count : 0
Track 04 Filename : /Volumes/Macintosh HD/Users/Ian/Music/Convert Audio/Sisumara - Tribal Ragas Of The Dreaming (1994) [FLAC]/04 - Krishna Jini Ki.flac
Track gain : -6.57 dB Peak : 0.955933 CRC32 hash (test run) : 9703B67D CRC32 hash : 9703B67D CRC32 hash (skip zero) : E2F0ECCA AccurateRip v1 signature : DFA26369 AccurateRip v2 signature : 2B851B20 ->Track not present in AccurateRip database. Statistics Read error : 0 Jitter error (maybe fixed) : 0 Retry sector count : 0 Damaged sector count : 0
Track 05 Filename : /Volumes/Macintosh HD/Users/Ian/Music/Convert Audio/Sisumara - Tribal Ragas Of The Dreaming (1994) [FLAC]/05 - Full Moon Ecstasy.flac
Track gain : -5.50 dB Peak : 0.995911 CRC32 hash (test run) : E4452F60 CRC32 hash : E4452F60 CRC32 hash (skip zero) : DC976A94 AccurateRip v1 signature : D721164F AccurateRip v2 signature : A0A4BBEF ->Track not present in AccurateRip database. Statistics Read error : 0 Jitter error (maybe fixed) : 0 Retry sector count : 0 Damaged sector count : 0
Track 06 Filename : /Volumes/Macintosh HD/Users/Ian/Music/Convert Audio/Sisumara - Tribal Ragas Of The Dreaming (1994) [FLAC]/06 - Lotus Palace Of Love.flac
Track gain : -2.20 dB Peak : 0.928680 CRC32 hash (test run) : A1DC4B67 CRC32 hash : A1DC4B67 CRC32 hash (skip zero) : E90672B1 AccurateRip v1 signature : 28DE9DDD AccurateRip v2 signature : 627AA89B ->Track not present in AccurateRip database. Statistics Read error : 0 Jitter error (maybe fixed) : 0 Retry sector count : 0 Damaged sector count : 0
Track 07 Filename : /Volumes/Macintosh HD/Users/Ian/Music/Convert Audio/Sisumara - Tribal Ragas Of The Dreaming (1994) [FLAC]/07 - Dolphin Flight.flac
Track gain : -5.30 dB Peak : 0.955170 CRC32 hash (test run) : E1E5A6AF CRC32 hash : E1E5A6AF CRC32 hash (skip zero) : 96ED1023 AccurateRip v1 signature : BEA018B9 AccurateRip v2 signature : 93ECB6EB ->Track not present in AccurateRip database. Statistics Read error : 0 Jitter error (maybe fixed) : 0 Retry sector count : 0 Damaged sector count : 0
Track 08 Filename : /Volumes/Macintosh HD/Users/Ian/Music/Convert Audio/Sisumara - Tribal Ragas Of The Dreaming (1994) [FLAC]/08 - Jau Ambre.flac
Track gain : -6.24 dB Peak : 0.918579 CRC32 hash (test run) : 799882B6 CRC32 hash : 799882B6 CRC32 hash (skip zero) : 89DADA7C AccurateRip v1 signature : 7FC7B9A7 AccurateRip v2 signature : 5D9B7745 ->Track not present in AccurateRip database. Statistics Read error : 0 Jitter error (maybe fixed) : 0 Retry sector count : 0 Damaged sector count : 0
Track 09 Filename : /Volumes/Macintosh HD/Users/Ian/Music/Convert Audio/Sisumara - Tribal Ragas Of The Dreaming (1994) [FLAC]/09 - Sisumara Mantra Dance.flac
Track gain : -6.78 dB Peak : 0.975616 CRC32 hash (test run) : 0DD803AE CRC32 hash : 0DD803AE CRC32 hash (skip zero) : D9F2435A AccurateRip v1 signature : A95C8E48 AccurateRip v2 signature : A6B0CF78 ->Track not present in AccurateRip database. Statistics Read error : 0 Jitter error (maybe fixed) : 0 Retry sector count : 0 Damaged sector count : 0
No errors occurred
End of status report
-----BEGIN XLD SIGNATURE-----HbHz8iK7kIMhZXiWwk3MsKqnqG8bDmC19Q4CUShaCDr4jRVEiFgKBtvWmQJo4Ztf.vMnUkqbPuld2515U76i9gPp9Grc_PqFbIPj0iO-----END XLD SIGNATURE-----

Содержание индексной карты (.CUE)

TITLE "Tribal Ragas Of The Dreaming"PERFORMER "Sisumara"REM GENRE "World Music"REM DATE "1994"REM DISCID 860E1409FILE "01 - Sisumara Rave.wav" WAVE TRACK 01 AUDIO TITLE "Sisumara Rave" INDEX 01 00:00:00FILE "02 - Shiva Ranjani.wav" WAVE TRACK 02 AUDIO TITLE "Shiva Ranjani" INDEX 01 00:00:00FILE "03 - Dhunin Rhag Bhairave.wav" WAVE TRACK 03 AUDIO TITLE "Dhunin Rhag Bhairave" INDEX 01 00:00:00FILE "04 - Krishna Jini Ki.wav" WAVE TRACK 04 AUDIO TITLE "Krishna Jini Ki" INDEX 01 00:00:00FILE "05 - Full Moon Ecstasy.wav" WAVE TRACK 05 AUDIO TITLE "Full Moon Ecstasy" INDEX 01 00:00:00FILE "06 - Lotus Palace Of Love.wav" WAVE TRACK 06 AUDIO TITLE "Lotus Palace Of Love" INDEX 01 00:00:00FILE "07 - Dolphin Flight.wav" WAVE TRACK 07 AUDIO TITLE "Dolphin Flight" INDEX 01 00:00:00FILE "08 - Jau Ambre.wav" WAVE TRACK 08 AUDIO TITLE "Jau Ambre" INDEX 01 00:00:00FILE "09 - Sisumara Mantra Dance.wav" WAVE TRACK 09 AUDIO TITLE "Sisumara Mantra Dance" INDEX 01 00:00:00

[doutdess.info].t81080.torrent
Torrent: Registered [ 2015-10-05 00:30 ] · F432FD68A99A390DA240BA68B7A8A33A2202E232

19 KB

Status: checked
Completed: 0 times
Size: 448 MB
(New Age, Meditative, World) [CD] Sisumara - Tribal Ragas Of The Dreaming - 1994, FLAC (tracks+.cue), lossless скачать торрент бесплатно и без регистрации

[Profile] [PM]
Forum Topic Author Size
Фламенко и акустическая гитара lossy (New age, Acoustic guitar) Moreza - Crimson Moon - 2011, MP3, 320 kbps Vi$itReal 107 MB
Фламенко и акустическая гитара lossy (New Age, Acoustic guitar) William Ackerman Discography (1976-2010, 14CD) MP3-tracks CBR 320 kbps Vi$itReal 1.41 GB
Фламенко и акустическая гитара lossy (New Age, Acoustic Guitar, Flamenco) Daveed - World of Illusions (2016), MP3, 320 kbps Vi$itReal 75 MB
NewAge & Meditative lossy (New Age, Acoustic) Antonio Morina Gallerio - Old Fashioned Acoustic Music - 2015, MP3, 320 kbps Vi$itReal 135 MB
NewAge & Meditative lossy (New Age, Acoustic, Ambient) Mishroom & The Galactic Family - Along The Same Path - 2016, MP3, 320 kbps Vi$itReal 134 MB
NewAge & Meditative lossless (New Age, Acoustic, Meditative) Ron Korb - \'Flute Traveller\' - 1994, APE (image+.cue), lossless RelizMAN 159 MB
Фольклор, Народная и Этническая музыка собственные оцифровки (New Age, Acoustic, Neofolk) [24/48] Michael Hedges - Aerial Boundaries - 1984, FLAC (image+.cue) RelizMAN 416 MB
Фламенко и акустическая гитара lossless (New Age, Acoustic, Neofolk) [CD] Michael Hedges - Aerial Boundaries - 1984 (2015 Audio Fidelity), FLAC (tracks+.cue), lossless RelizMAN 173 MB
Display posts:    

Current time is: 24-Jun 19:33

All times are UTC + 3



You cannot post new topics in this forum
You cannot reply to topics in this forum
You cannot edit your posts in this forum
You cannot delete your posts in this forum
You cannot vote in polls in this forum
You cannot attach files in this forum
You can download files in this forum