Reply to topic
DL-List and Torrent activity [Update пиров]
Size:  355 MB   |    Registered:  3 years 8 months   |    Completed:  0 times
Seeders:  413  [  0 KB/s  ]   Leechers:  34  [  0 KB/s  ]  
 
     
 
 
Author Message

RelizMAN ®

11

Post 05-Oct-2015 14:31

[Quote]

Camarón de la Isla / Camarón Nuestro
Жанр: Cante Flamenco
Носитель: CD
Страна-производитель диска (релиза): España
Год издания: 1994
Издатель (лейбл): Universal Music Spain
Номер по каталогу: 0731452618726
Страна исполнителя (группы): España
Аудиокодек: FLAC (*.flac)
Тип рипа: tracks+.cue
Битрейт аудио: lossless
Продолжительность: 01:10:05 (00:34:35 + 00:35:30)
Источник (релизер): Собственный рип
Наличие сканов в содержимом раздачи: нет
Треклист:
Disc 1
01. Limón De Cera (Bulerías)
02. El Embrujo De Tus Ojos (Tangos)
03. Bendita Sea Mi Tierra (Alegrías)
04. Al Relente De La Luna (Fandangos)
05. Nubes De Platino (Bulerías)
06. Sin Descanso, Amar (Tangos)
07. Como Si Fuera Un Castillo (Fandangos)
Disc 2
01. Verano En Bornos (Bulerías)
02. Sufro Por Los Ojos Negros (Tangos)
03. Campesino Andaluz (Fandangos)
04. Reina De La Morería (Bulerías)
05. Carmela (Bulerías)
06. Una Palabrita Tuya (Soleá)
07. La Falsa Moneda (Bulerías)

Лог создания рипа CD1

Exact Audio Copy V1.0 beta 3 from 29. August 2011
Отчёт EAC об извлечении, выполненном 24. апреля 2015, 14:54
Camaron de la Isla / Camaron Nuestro
Дисковод: HL-DT-STDVDRAM GSA-H12N Adapter: 0 ID: 0
Режим чтения : ДостоверностьИспользование точного потока : ДаОтключение кэша аудио : ДаИспользование указателей C2 : Нет
Коррекция смещения при чтении : 667Способность читать области Lead-in и Lead-out : НетЗаполнение пропущенных сэмплов тишиной : ДаУдаление блоков с тишиной в начале и конце : НетПри вычислениях CRC использовались нулевые сэмплы : ДаИнтерфейс : Встроенный Win32-интерфейс для Win NT/2000Обработка зазоров : Добавлено к предыдущему треку
Выходной формат : Пользовательский кодировщикВыбранный битрейт : 896 kBit/sКачество : ВысокийДобавление ID3-тега : НетУтилита сжатия : C:\Program Files\Exact Audio Copy\Flac\flac.exeДополнительные параметры : -V -8 -T "Genre=%genre%" -T "Artist=%artist%" -T "Title=%title%" -T "Album=%albumtitle%" -T "Date=%year%" -T "Tracknumber=%tracknr%" -T "Comment=%comment%" %source%
TOC извлечённого CD
Трек | Старт | Длительность | Начальный сектор | Конечный сектор --------------------------------------------------------------------- 1 | 0:00.32 | 4:13.25 | 32 | 19031 2 | 4:13.57 | 5:51.10 | 19032 | 45366 3 | 10:04.67 | 4:04.58 | 45367 | 63724 4 | 14:09.50 | 3:25.07 | 63725 | 79106 5 | 17:34.57 | 8:18.18 | 79107 | 116474 6 | 25:53.00 | 4:45.42 | 116475 | 137891 7 | 30:38.42 | 4:15.65 | 137892 | 157081
Трек 1
Имя файла D:\AUDIO\Camaron Nuestro - 1994 [FLAC]\Camaron Nuestro - CD1\01. Limon de Cera (Bulerias).wav
Длина предзазора 0:00:02.32
Пиковый уровень 98.8 % Скорость извлечения 4.5 X Качество трека 100.0 % CRC теста C6504EB1 CRC копии C6504EB1 Точное извлечение (достоверность 1) [22FB2AFE] (AR v2) Копирование... OK
Трек 2
Имя файла D:\AUDIO\Camaron Nuestro - 1994 [FLAC]\Camaron Nuestro - CD1\02. El Embrujo de tus Ojos (Tangos).wav
Длина предзазора 0:00:02.05
Пиковый уровень 98.8 % Скорость извлечения 5.3 X Качество трека 100.0 % CRC теста 72A3231B CRC копии 72A3231B Точное извлечение (достоверность 1) [3BCD6DC4] (AR v2) Копирование... OK
Трек 3
Имя файла D:\AUDIO\Camaron Nuestro - 1994 [FLAC]\Camaron Nuestro - CD1\03. Bendita sea mi Tierra (Alegrias).wav
Длина предзазора 0:00:02.35
Пиковый уровень 98.8 % Скорость извлечения 5.7 X Качество трека 100.0 % CRC теста 409DF1F5 CRC копии 409DF1F5 Точное извлечение (достоверность 1) [81E01E78] (AR v2) Копирование... OK
Трек 4
Имя файла D:\AUDIO\Camaron Nuestro - 1994 [FLAC]\Camaron Nuestro - CD1\04. Al Relente de la Luna (Fandangos).wav
Длина предзазора 0:00:03.40
Пиковый уровень 98.8 % Скорость извлечения 5.8 X Качество трека 100.0 % CRC теста 9FD95763 CRC копии 9FD95763 Точное извлечение (достоверность 1) [A4EC0A1C] (AR v2) Копирование... OK
Трек 5
Имя файла D:\AUDIO\Camaron Nuestro - 1994 [FLAC]\Camaron Nuestro - CD1\05. Nubes de Platino (Bulerias).wav
Длина предзазора 0:00:04.30
Пиковый уровень 98.8 % Скорость извлечения 6.9 X Качество трека 100.0 % CRC теста 9E5FA7C9 CRC копии 9E5FA7C9 Точное извлечение (достоверность 1) [5E529FDF] (AR v2) Копирование... OK
Трек 6
Имя файла D:\AUDIO\Camaron Nuestro - 1994 [FLAC]\Camaron Nuestro - CD1\06. Sin Descanso, Amar (Tangos).wav
Длина предзазора 0:00:02.43
Пиковый уровень 98.8 % Скорость извлечения 7.2 X Качество трека 100.0 % CRC теста F35192FC CRC копии F35192FC Точное извлечение (достоверность 1) [07D73F07] (AR v2) Копирование... OK
Трек 7
Имя файла D:\AUDIO\Camaron Nuestro - 1994 [FLAC]\Camaron Nuestro - CD1\07. Como Si Fuera un Castillo (Fandangos).wav
Длина предзазора 0:00:03.60
Пиковый уровень 98.8 % Скорость извлечения 7.4 X Качество трека 100.0 % CRC теста 0F991287 CRC копии 0F991287 Точное извлечение (достоверность 1) [0B8F150C] (AR v2) Копирование... OK
Все треки извлечены точно
Ошибок не произошло
Конец отчёта
==== Контрольная сумма отчёта 264F2BC7A5D22EE430D4447347885BF77366AA5DA9721889345A931687E384F2 ====

Лог создания рипа CD2

Exact Audio Copy V1.0 beta 3 from 29. August 2011
Отчёт EAC об извлечении, выполненном 24. апреля 2015, 15:25
Camaron de la Isla / Camaron Nuestro
Дисковод: HL-DT-STDVDRAM GSA-H12N Adapter: 0 ID: 0
Режим чтения : ДостоверностьИспользование точного потока : ДаОтключение кэша аудио : ДаИспользование указателей C2 : Нет
Коррекция смещения при чтении : 667Способность читать области Lead-in и Lead-out : НетЗаполнение пропущенных сэмплов тишиной : ДаУдаление блоков с тишиной в начале и конце : НетПри вычислениях CRC использовались нулевые сэмплы : ДаИнтерфейс : Встроенный Win32-интерфейс для Win NT/2000Обработка зазоров : Добавлено к предыдущему треку
Выходной формат : Пользовательский кодировщикВыбранный битрейт : 896 kBit/sКачество : ВысокийДобавление ID3-тега : НетУтилита сжатия : C:\Program Files\Exact Audio Copy\Flac\flac.exeДополнительные параметры : -V -8 -T "Genre=%genre%" -T "Artist=%artist%" -T "Title=%title%" -T "Album=%albumtitle%" -T "Date=%year%" -T "Tracknumber=%tracknr%" -T "Comment=%comment%" %source%
TOC извлечённого CD
Трек | Старт | Длительность | Начальный сектор | Конечный сектор --------------------------------------------------------------------- 1 | 0:00.32 | 5:07.36 | 32 | 23092 2 | 5:07.68 | 3:57.32 | 23093 | 40899 3 | 9:05.25 | 4:15.13 | 40900 | 60037 4 | 13:20.38 | 4:46.65 | 60038 | 81552 5 | 18:07.28 | 6:25.07 | 81553 | 110434 6 | 24:32.35 | 5:36.70 | 110435 | 135704 7 | 30:09.30 | 5:21.02 | 135705 | 159781
Трек 1
Имя файла D:\AUDIO\Camaron Nuestro - 1994 [FLAC]\Camaron Nuestro - CD2\01. Verano en Bornos (Bulerias).wav
Длина предзазора 0:00:02.32
Пиковый уровень 98.8 % Скорость извлечения 4.5 X Качество трека 100.0 % CRC теста A663DE20 CRC копии A663DE20 Точность не определена (достоверность 1) [06104519], AccurateRip вернул [95415480] (AR v2) Копирование... OK
Трек 2
Имя файла D:\AUDIO\Camaron Nuestro - 1994 [FLAC]\Camaron Nuestro - CD2\02. Sufro por los ojos negros (Tangos).wav
Длина предзазора 0:00:04.20
Пиковый уровень 90.3 % Скорость извлечения 5.0 X Качество трека 100.0 % CRC теста FA1D46B7 CRC копии FA1D46B7 Точность не определена (достоверность 1) [AA01713F], AccurateRip вернул [95F6268A] (AR v2) Копирование... OK
Трек 3
Имя файла D:\AUDIO\Camaron Nuestro - 1994 [FLAC]\Camaron Nuestro - CD2\03. Campesino andaluz (Fandangos).wav
Длина предзазора 0:00:03.72
Пиковый уровень 95.7 % Скорость извлечения 5.3 X Качество трека 100.0 % CRC теста C8C1BAB3 CRC копии C8C1BAB3 Точность не определена (достоверность 1) [6128BFE6], AccurateRip вернул [14A5F3C8] (AR v2) Копирование... OK
Трек 4
Имя файла D:\AUDIO\Camaron Nuestro - 1994 [FLAC]\Camaron Nuestro - CD2\04. Reina de la moreria (Bulerias).wav
Длина предзазора 0:00:03.38
Пиковый уровень 98.8 % Скорость извлечения 5.9 X Качество трека 100.0 % CRC теста 28CBDF04 CRC копии 28CBDF04 Точность не определена (достоверность 1) [389E8526], AccurateRip вернул [5E8D7F43] (AR v2) Копирование... OK
Трек 5
Имя файла D:\AUDIO\Camaron Nuestro - 1994 [FLAC]\Camaron Nuestro - CD2\05. Carmela (Bulerias).wav
Длина предзазора 0:00:03.40
Пиковый уровень 98.7 % Скорость извлечения 6.0 X Качество трека 99.9 % CRC теста B2CF45EF CRC копии B2CF45EF Точность не определена (достоверность 1) [68AC59EB], AccurateRip вернул [5676A55A] (AR v2) Копирование... OK
Трек 6
Имя файла D:\AUDIO\Camaron Nuestro - 1994 [FLAC]\Camaron Nuestro - CD2\06. Una palabrita Tuya (Solea).wav
Длина предзазора 0:00:03.27
Пиковый уровень 98.8 % Скорость извлечения 7.1 X Качество трека 100.0 % CRC теста 8D12A60B CRC копии 8D12A60B Точность не определена (достоверность 1) [79DEFE4A], AccurateRip вернул [222C1A15] (AR v2) Копирование... OK
Трек 7
Имя файла D:\AUDIO\Camaron Nuestro - 1994 [FLAC]\Camaron Nuestro - CD2\07. La falsa moneda (Bulerias).wav
Длина предзазора 0:00:03.15
Пиковый уровень 98.8 % Скорость извлечения 6.7 X Качество трека 99.9 % CRC теста 34418FEB CRC копии 34418FEB Точность не определена (достоверность 1) [B8CB55EF], AccurateRip вернул [D4E0D361] (AR v2) Копирование... OK
Ни один трек не прошёл проверки на точностьВ вашей базе может быть иной вариант штамповки диска
Ошибок не произошло
Конец отчёта
==== Контрольная сумма отчёта E60989FA1C3B88A91DFCA36D7E6FB36175C366337113FF8EDA6ADD5FDC87B378 ====

Содержание индексной карты (.CUE) CD1

REM GENRE FlamencoREM DATE 1994REM DISCID 51082E07REM COMMENT "ExactAudioCopy v1.0b3"PERFORMER "Camaron de la Isla"TITLE "Camaron Nuestro"FILE "01. Limon de Cera (Bulerias).wav" WAVE TRACK 01 AUDIO TITLE "Limon de Cera (Bulerias)" PERFORMER "Camaron de la Isla" ISRC ES5009400104 PREGAP 00:00:32 INDEX 01 00:00:00 TRACK 02 AUDIO TITLE "El Embrujo de tus Ojos (Tangos)" PERFORMER "Camaron de la Isla" ISRC ES5009400105 INDEX 00 04:11:20FILE "02. El Embrujo de tus Ojos (Tangos).wav" WAVE INDEX 01 00:00:00 TRACK 03 AUDIO TITLE "Bendita sea mi Tierra (Alegrias)" PERFORMER "Camaron de la Isla" ISRC ES5009400106 INDEX 00 05:48:50FILE "03. Bendita sea mi Tierra (Alegrias).wav" WAVE INDEX 01 00:00:00 TRACK 04 AUDIO TITLE "Al Relente de la Luna (Fandangos)" PERFORMER "Camaron de la Isla" ISRC ES5009400107 INDEX 00 04:01:18FILE "04. Al Relente de la Luna (Fandangos).wav" WAVE INDEX 01 00:00:00 TRACK 05 AUDIO TITLE "Nubes de Platino (Bulerias)" PERFORMER "Camaron de la Isla" ISRC ES5009400108 INDEX 00 03:20:52FILE "05. Nubes de Platino (Bulerias).wav" WAVE INDEX 01 00:00:00 TRACK 06 AUDIO TITLE "Sin Descanso, Amar (Tangos)" PERFORMER "Camaron de la Isla" ISRC ES5009400109 INDEX 00 08:15:50FILE "06. Sin Descanso, Amar (Tangos).wav" WAVE INDEX 01 00:00:00 TRACK 07 AUDIO TITLE "Como Si Fuera un Castillo (Fandangos)" PERFORMER "Camaron de la Isla" ISRC ES5009400110 INDEX 00 04:41:57FILE "07. Como Si Fuera un Castillo (Fandangos).wav" WAVE INDEX 01 00:00:00

Содержание индексной карты (.CUE) CD2

REM GENRE FlamencoREM DATE 1994REM DISCID 55085207REM COMMENT "ExactAudioCopy v1.0b3"PERFORMER "Camaron de la Isla"TITLE "Camaron Nuestro"FILE "01. Verano en Bornos (Bulerias).wav" WAVE TRACK 01 AUDIO TITLE "Verano en Bornos (Bulerias)" PERFORMER "Camaron de la Isla" ISRC ES5009400111 PREGAP 00:00:32 INDEX 01 00:00:00 TRACK 02 AUDIO TITLE "Sufro por los ojos negros (Tangos)" PERFORMER "Camaron de la Isla" ISRC ES5009400112 INDEX 00 05:03:16FILE "02. Sufro por los ojos negros (Tangos).wav" WAVE INDEX 01 00:00:00 TRACK 03 AUDIO TITLE "Campesino andaluz (Fandangos)" PERFORMER "Camaron de la Isla" ISRC ES5009400113 INDEX 00 03:53:35FILE "03. Campesino andaluz (Fandangos).wav" WAVE INDEX 01 00:00:00 TRACK 04 AUDIO TITLE "Reina de la moreria (Bulerias)" PERFORMER "Camaron de la Isla" ISRC ES5009400114 INDEX 00 04:11:50FILE "04. Reina de la moreria (Bulerias).wav" WAVE INDEX 01 00:00:00 TRACK 05 AUDIO TITLE "Carmela (Bulerias)" PERFORMER "Camaron de la Isla" ISRC ES5009400115 INDEX 00 04:43:25FILE "05. Carmela (Bulerias).wav" WAVE INDEX 01 00:00:00 TRACK 06 AUDIO TITLE "Una palabrita Tuya (Solea)" PERFORMER "Camaron de la Isla" ISRC ES5009400116 INDEX 00 06:21:55FILE "06. Una palabrita Tuya (Solea).wav" WAVE INDEX 01 00:00:00 TRACK 07 AUDIO TITLE "La falsa moneda (Bulerias)" PERFORMER "Camaron de la Isla" ISRC ES5009400117 INDEX 00 05:33:55FILE "07. La falsa moneda (Bulerias).wav" WAVE INDEX 01 00:00:00
Дополнительная информация:
Песни, вошедшие в этот альбом, были записаны на Фламенко Фестивалях 1978 и 1979 годов.

Состав

Camarón de la Isla: cante;
Tomatito: guitarra

[doutdess.info].t81197.torrent
Torrent: Registered [ 2015-10-05 14:30 ] · B45E052ED3B55D28D7950277B8AD52564CE99C69

16 KB

Status: checked
Completed: 0 times
Size: 355 MB
(Cante Flamenco) [CD] Camaron de la Isla - Camaron Nuestro - 1994, FLAC (tracks+.cue), lossless скачать торрент бесплатно и без регистрации

[Profile] [PM]
Display posts:    

Current time is: 24-Jun 19:07

All times are UTC + 3



You cannot post new topics in this forum
You cannot reply to topics in this forum
You cannot edit your posts in this forum
You cannot delete your posts in this forum
You cannot vote in polls in this forum
You cannot attach files in this forum
You can download files in this forum