Reply to topic
DL-List and Torrent activity [Update пиров]
Size:  242 MB   |    Registered:  3 years 8 months   |    Completed:  0 times
Seeders:  432  [  0 KB/s  ]   Leechers:  13  [  0 KB/s  ]  
 
     
 
 
Author Message

RelizMAN ®

11

Post 05-Oct-2015 00:31

[Quote]

EMIL MONTGOMERY / Esencia
Жанр: New Age, World Fusion
Носитель: CD
Страна-производитель диска (релиза): Uruguay
Год издания: 1997
Издатель (лейбл): Polux Music
Номер по каталогу: PM 1481-2
Страна исполнителя (группы): Uruguay
Аудиокодек: FLAC (*.flac)
Тип рипа: tracks+.cue
Битрейт аудио: lossless
Продолжительность: 38:42
Источник (релизер): Fulca
Наличие сканов в содержимом раздачи: да
Треклист:
01 – 1110
02 – Sin Memoria
03 – Ecos
04 – Lajun Chaan
05 – Inti Jalsu
06 – Cuculcan
07 – El Viento Y La Montaña
08 – Paqariy
09 – Quinto Sol
10 – Sham
Emil Montgomery: teclados y sintetizadores
David Montenegro, Daniel Irilarry: aerofonos andinos
Esteban Klísich: guitarra
Marcelo Zanolli, Sergio Tulbovitz: percusión
Miguel Romano: batería
Ariel Ameijenda: sitar
Alan Wiuker: tabla

Лог создания рипа

Exact Audio Copy V1.0 beta 3 from 29. August 2011
EAC extraction logfile from 13. October 2012, 14:00
Emil Montgomery / Esencia
Used drive : TSSTcorpCDDVDW SH-S203D Adapter: 2 ID: 2
Read mode : SecureUtilize accurate stream : YesDefeat audio cache : YesMake use of C2 pointers : No
Read offset correction : 6Overread into Lead-In and Lead-Out : NoFill up missing offset samples with silence : YesDelete leading and trailing silent blocks : NoNull samples used in CRC calculations : YesUsed interface : Native Win32 interface for Win NT & 2000Gap handling : Appended to previous track
Used output format : User Defined EncoderSelected bitrate : 1024 kBit/sQuality : HighAdd ID3 tag : NoCommand line compressor : C:\Archivos de programa\Exact Audio Copy\FLAC\FLAC.EXEAdditional command line options : -8 -V -T "ARTIST=%artist%" -T "TITLE=%title%" -T "ALBUM=%albumtitle%" -T "DATE=%year%" -T "TRACKNUMBER=%tracknr%" -T "GENRE=%genre%" -T "PERFORMER=%albuminterpret%" -T "COMPOSER=%composer%" %haslyrics%--tag-from-file=LYRICS="%lyricsfile%"%haslyrics% -T "ALBUMARTIST=%albumartist%" -T "DISCNUMBER=%cdnumber%" -T "TOTALDISCS=%totalcds%" -T "TOTALTRACKS=%numtracks%" -T "COMMENT=EAC V1.0b3_SecuMode_Test&Copy_AccuRip_Flac-8_by Goldenwings" %hascover%--picture="%coverfile%"%hascover% %source% -o %dest%
TOC of the extracted CD
Track | Start | Length | Start sector | End sector --------------------------------------------------------- 1 | 0:01.00 | 1:04.60 | 75 | 4934 2 | 1:05.60 | 4:03.40 | 4935 | 23199 3 | 5:09.25 | 2:45.71 | 23200 | 35645 4 | 7:55.21 | 4:03.04 | 35646 | 53874 5 | 11:58.25 | 3:22.55 | 53875 | 69079 6 | 15:21.05 | 3:50.57 | 69080 | 86386 7 | 19:11.62 | 5:12.16 | 86387 | 109802 8 | 24:24.03 | 4:31.72 | 109803 | 130199 9 | 28:56.00 | 3:57.45 | 130200 | 148019 10 | 32:53.45 | 5:49.55 | 148020 | 174249
Track 1
Filename G:\Lossless con Tags\1. Uruguay\Emil Montgomery - Esencia (1997) {Polux Music - PM 1481-2}\01 - 1110.wav
Pre-gap length 0:00:03.00
Peak level 90.8 % Extraction speed 2.9 X Track quality 100.0 % Test CRC EC1190C4 Copy CRC EC1190C4 Accurately ripped (confidence 1) [5BF5589C] (AR v1) Copy OK
Track 2
Filename G:\Lossless con Tags\1. Uruguay\Emil Montgomery - Esencia (1997) {Polux Music - PM 1481-2}\02 - Sin Memoria.wav
Peak level 96.4 % Extraction speed 4.4 X Track quality 100.0 % Test CRC 62F4953E Copy CRC 62F4953E Accurately ripped (confidence 1) [5F3CE5C1] (AR v1) Copy OK
Track 3
Filename G:\Lossless con Tags\1. Uruguay\Emil Montgomery - Esencia (1997) {Polux Music - PM 1481-2}\03 - Ecos.wav
Peak level 67.9 % Extraction speed 4.5 X Track quality 100.0 % Test CRC B05FFBF9 Copy CRC B05FFBF9 Accurately ripped (confidence 1) [20781056] (AR v1) Copy OK
Track 4
Filename G:\Lossless con Tags\1. Uruguay\Emil Montgomery - Esencia (1997) {Polux Music - PM 1481-2}\04 - Lajun Chaan.wav
Peak level 76.0 % Extraction speed 5.1 X Track quality 100.0 % Test CRC 7093D031 Copy CRC 7093D031 Accurately ripped (confidence 1) [3FAF9CD9] (AR v1) Copy OK
Track 5
Filename G:\Lossless con Tags\1. Uruguay\Emil Montgomery - Esencia (1997) {Polux Music - PM 1481-2}\05 - Inti Jalsu.wav
Peak level 71.3 % Extraction speed 5.3 X Track quality 100.0 % Test CRC 52D1412C Copy CRC 52D1412C Accurately ripped (confidence 1) [625B5F35] (AR v1) Copy OK
Track 6
Filename G:\Lossless con Tags\1. Uruguay\Emil Montgomery - Esencia (1997) {Polux Music - PM 1481-2}\06 - Cuculcan.wav
Pre-gap length 0:00:01.00
Peak level 97.5 % Extraction speed 4.6 X Track quality 99.9 % Test CRC 48225339 Copy CRC 48225339 Accurately ripped (confidence 1) [55708309] (AR v1) Copy OK
Track 7
Filename G:\Lossless con Tags\1. Uruguay\Emil Montgomery - Esencia (1997) {Polux Music - PM 1481-2}\07 - El Viento Y La Montana.wav
Pre-gap length 0:00:02.44
Peak level 48.2 % Extraction speed 6.4 X Track quality 100.0 % Test CRC 0F90F2DF Copy CRC 0F90F2DF Accurately ripped (confidence 1) [2B6A7B8A] (AR v1) Copy OK
Track 8
Filename G:\Lossless con Tags\1. Uruguay\Emil Montgomery - Esencia (1997) {Polux Music - PM 1481-2}\08 - Paqariy.wav
Peak level 95.4 % Extraction speed 6.6 X Track quality 100.0 % Test CRC 194D6878 Copy CRC 194D6878 Accurately ripped (confidence 1) [A665A161] (AR v1) Copy OK
Track 9
Filename G:\Lossless con Tags\1. Uruguay\Emil Montgomery - Esencia (1997) {Polux Music - PM 1481-2}\09 - Quinto Sol.wav
Peak level 80.8 % Extraction speed 6.8 X Track quality 100.0 % Test CRC 70320C6B Copy CRC 70320C6B Accurately ripped (confidence 1) [1AE1DB96] (AR v1) Copy OK
Track 10
Filename G:\Lossless con Tags\1. Uruguay\Emil Montgomery - Esencia (1997) {Polux Music - PM 1481-2}\10 - Sham.wav
Peak level 97.5 % Extraction speed 7.5 X Track quality 100.0 % Test CRC E76C4709 Copy CRC E76C4709 Accurately ripped (confidence 1) [56D97A92] (AR v1) Copy OK
All tracks accurately ripped
No errors occurred
End of status report
==== Log checksum FDD82DFA961084AE11B72068CED356C88E4284B7852F2AB51A203030696898DA ====

Содержание индексной карты (.CUE)

REM GENRE "New Age"REM DATE 1997REM DISCID 8209120AREM COMMENT "ExactAudioCopy v1.0b3"PERFORMER "Emil Montgomery"TITLE "Esencia"FILE "01 - 1110.wav" WAVE TRACK 01 AUDIO TITLE "1110" PERFORMER "Emil Montgomery" FLAGS DCP PREGAP 00:01:00 INDEX 01 00:00:00FILE "02 - Sin Memoria.wav" WAVE TRACK 02 AUDIO TITLE "Sin Memoria" PERFORMER "Emil Montgomery" FLAGS DCP INDEX 01 00:00:00FILE "03 - Ecos.wav" WAVE TRACK 03 AUDIO TITLE "Ecos" PERFORMER "Emil Montgomery" FLAGS DCP INDEX 01 00:00:00FILE "04 - Lajun Chaan.wav" WAVE TRACK 04 AUDIO TITLE "Lajun Chaan" PERFORMER "Emil Montgomery" FLAGS DCP INDEX 01 00:00:00FILE "05 - Inti Jalsu.wav" WAVE TRACK 05 AUDIO TITLE "Inti Jalsu" PERFORMER "Emil Montgomery" FLAGS DCP INDEX 01 00:00:00 TRACK 06 AUDIO TITLE "Cuculcan" PERFORMER "Emil Montgomery" FLAGS DCP INDEX 00 03:21:55FILE "06 - Cuculcan.wav" WAVE INDEX 01 00:00:00 TRACK 07 AUDIO TITLE "El Viento Y La Montana" PERFORMER "Emil Montgomery" FLAGS DCP INDEX 00 03:48:13FILE "07 - El Viento Y La Montana.wav" WAVE INDEX 01 00:00:00FILE "08 - Paqariy.wav" WAVE TRACK 08 AUDIO TITLE "Paqariy" PERFORMER "Emil Montgomery" FLAGS DCP INDEX 01 00:00:00FILE "09 - Quinto Sol.wav" WAVE TRACK 09 AUDIO TITLE "Quinto Sol" PERFORMER "Emil Montgomery" FLAGS DCP INDEX 01 00:00:00FILE "10 - Sham.wav" WAVE TRACK 10 AUDIO TITLE "Sham" PERFORMER "Emil Montgomery" FLAGS DCP INDEX 01 00:00:00

Об исполнителе (группе)

Уругвайский композитор родился 6 января 1970 года в Монтевидео. Монтгомери отражает мощные эмоции через свою музыку используя высокие технологиии, благодаря которым получает чистые футуристические звуки и ритмы, вызывающие почти ритуальные настроения предков к празднованию партий и обрядов, опираясь на магию в глубинах человеческого духа. Музыка Монтгомери это путешествие в коллективное бессознательное чистейших корней, являющихся агентом пробуждения онемевшего от темпов современного общества забытого чувства . Это поиск Бога, Бога без религии, универсального Бога, человеческой сущности, сущности, что делает из нас всех братьев и соединяет нас с Землёй и Вселенной. В 6 лет начал сочинять Эмиль свои первые пьесы для фортепиано и был введен в изучение теории музыки. Когда ему было семнадцать, он начал работать с синтезаторами и другими электронными инструментами, а так же редкими акустическими иинструментами которые были включены наряду с электроникой в технологии композиций. В восемнадцать лет он присоединился к музыкальной школе Монтевидео.

Об альбоме (сборнике)

В 1997 году Эмиль Монтгомери запускает этот альбом , шедевр слияния электронной музыки, хоров и коренных инструментов. Он достиг вершины чартов на мексиканском рынке, публиковался в более чем 40 странах. Монтгомери достиг международного успеха и зарекомендовала себя наряду с великими мастерами, которые вдохновили его первые шаги. Этот альбом был вдохновлён работами Jean-Michel Jarre.
На мой слух это гениальный альбом, не пропустите.

[doutdess.info].t81068.torrent
Torrent: Registered [ 2015-10-05 00:30 ] · A8EA557FB99249323983BF15E46E410B0AA3F3DA

21 KB

Status: checked
Completed: 0 times
Size: 242 MB
(New Age, Ambient, World Fusion) [CD] Emil Montgomery - Esencia - 1997, FLAC (tracks+.cue), lossless скачать торрент бесплатно и без регистрации

[Profile] [PM]
Forum Topic Author Size
Фламенко и акустическая гитара lossy (New age, Acoustic guitar) Moreza - Crimson Moon - 2011, MP3, 320 kbps Vi$itReal 107 MB
Фламенко и акустическая гитара lossy (New Age, Acoustic guitar) William Ackerman Discography (1976-2010, 14CD) MP3-tracks CBR 320 kbps Vi$itReal 1.41 GB
Фламенко и акустическая гитара lossy (New Age, Acoustic Guitar, Flamenco) Daveed - World of Illusions (2016), MP3, 320 kbps Vi$itReal 75 MB
NewAge & Meditative lossy (New Age, Acoustic) Antonio Morina Gallerio - Old Fashioned Acoustic Music - 2015, MP3, 320 kbps Vi$itReal 135 MB
NewAge & Meditative lossy (New Age, Acoustic, Ambient) Mishroom & The Galactic Family - Along The Same Path - 2016, MP3, 320 kbps Vi$itReal 134 MB
NewAge & Meditative lossless (New Age, Acoustic, Meditative) Ron Korb - \'Flute Traveller\' - 1994, APE (image+.cue), lossless RelizMAN 159 MB
Фольклор, Народная и Этническая музыка собственные оцифровки (New Age, Acoustic, Neofolk) [24/48] Michael Hedges - Aerial Boundaries - 1984, FLAC (image+.cue) RelizMAN 416 MB
Фламенко и акустическая гитара lossless (New Age, Acoustic, Neofolk) [CD] Michael Hedges - Aerial Boundaries - 1984 (2015 Audio Fidelity), FLAC (tracks+.cue), lossless RelizMAN 173 MB
Display posts:    

Current time is: 27-Jun 16:01

All times are UTC + 3



You cannot post new topics in this forum
You cannot reply to topics in this forum
You cannot edit your posts in this forum
You cannot delete your posts in this forum
You cannot vote in polls in this forum
You cannot attach files in this forum
You can download files in this forum