Reply to topic
DL-List and Torrent activity [Update пиров]
Size:  235 MB   |    Registered:  3 years 8 months   |    Completed:  0 times
Seeders:  158  [  0 KB/s  ]   Leechers:  19  [  0 KB/s  ]  
 
     
 
 
Author Message

RelizMAN ®

11

Post 05-Oct-2015 00:31

[Quote]

All about love
Жанр: New Age, Instrumental, Relax
Носитель: CD
Год издания: 1997
Издатель (лейбл): Wind
Номер по каталогу: TCD-5213
Аудиокодек: FLAC (*.flac)
Тип рипа: image+.cue
Битрейт аудио: lossless
Продолжительность: 55:05
Источник (релизер): internet
Наличие сканов в содержимом раздачи: нет
Треклист:
01.七夕雨
02.素顏鴿
03.璀璨
04.月下仙姝
05.六月茉莉
06.飲盡月光酒
07.帕平的黃昏
08.淺雲來
09.情婦
10.相思燈

Содержание индексной карты (.CUE)

PERFORMER "风潮音乐"TITLE "TCD-5213 爱情新世纪"FILE "CDImage.flac" WAVE TRACK 01 AUDIO TITLE "七夕雨 " INDEX 01 00:00:00 TRACK 02 AUDIO TITLE "素颜鸽 " INDEX 00 06:13:35 INDEX 01 06:16:02 TRACK 03 AUDIO TITLE "璀璨 " INDEX 00 10:28:61 INDEX 01 10:31:27 TRACK 04 AUDIO TITLE "月下仙姝 " INDEX 00 18:01:30 INDEX 01 18:03:72 TRACK 05 AUDIO TITLE "六月茉莉 " INDEX 00 25:18:27 INDEX 01 25:20:70 TRACK 06 AUDIO TITLE "饮尽月光酒 " INDEX 00 28:30:72 INDEX 01 28:33:40 TRACK 07 AUDIO TITLE "帕平的黃昏 " INDEX 00 36:46:35 INDEX 01 36:49:02 TRACK 08 AUDIO TITLE "浅云来 " INDEX 00 42:14:17 INDEX 01 42:16:57 TRACK 09 AUDIO TITLE "情妇 " INDEX 00 47:50:37 INDEX 01 47:53:05 TRACK 10 AUDIO TITLE "相思灯" INDEX 00 51:46:05 INDEX 01 51:48:47

Лог проверки качества

-----------------------
DON'T MODIFY THIS FILE
-----------------------
PERFORMER: auCDtect Task Manager, ver. 1.6.0 RC1 build 1.6.0.1Copyright (c) 2008-2010 y-soft. All rights reservedhttp://y-soft.org
ANALYZER: auCDtect: CD records authenticity detector, version 0.8.2Copyright (c) 2004 Oleg Berngardt. All rights reserved.Copyright (c) 2004 Alexander Djourik. All rights reserved.
FILE: CDImage.flac Size: 246479752 Hash: 4F9EB259F6B15060946730792648EE38 Accuracy: -m0 Conclusion: CDDA 100% Signature: 9D655C6A2EB63D18BFCC080648A47325F60B49E9

[doutdess.info].t81093.torrent
Torrent: Registered [ 2015-10-05 00:30 ] · F4D0220EA4B6E31A0AAF90AA027089AF981DF07C

19 KB

Status: checked
Completed: 0 times
Size: 235 MB
(New Age, Instrumental, Relax) [CD] VA - All about love - 1997, FLAC (image+.cue), lossless скачать торрент бесплатно и без регистрации

[Profile] [PM]
Forum Topic Author Size
Фламенко и акустическая гитара lossy (New age, Acoustic guitar) Moreza - Crimson Moon - 2011, MP3, 320 kbps Vi$itReal 107 MB
Фламенко и акустическая гитара lossy (New Age, Acoustic guitar) William Ackerman Discography (1976-2010, 14CD) MP3-tracks CBR 320 kbps Vi$itReal 1.41 GB
Фламенко и акустическая гитара lossy (New Age, Acoustic Guitar, Flamenco) Daveed - World of Illusions (2016), MP3, 320 kbps Vi$itReal 75 MB
NewAge & Meditative lossy (New Age, Acoustic) Antonio Morina Gallerio - Old Fashioned Acoustic Music - 2015, MP3, 320 kbps Vi$itReal 135 MB
NewAge & Meditative lossy (New Age, Acoustic, Ambient) Mishroom & The Galactic Family - Along The Same Path - 2016, MP3, 320 kbps Vi$itReal 134 MB
NewAge & Meditative lossless (New Age, Acoustic, Meditative) Ron Korb - \'Flute Traveller\' - 1994, APE (image+.cue), lossless RelizMAN 159 MB
Фольклор, Народная и Этническая музыка собственные оцифровки (New Age, Acoustic, Neofolk) [24/48] Michael Hedges - Aerial Boundaries - 1984, FLAC (image+.cue) RelizMAN 416 MB
Фламенко и акустическая гитара lossless (New Age, Acoustic, Neofolk) [CD] Michael Hedges - Aerial Boundaries - 1984 (2015 Audio Fidelity), FLAC (tracks+.cue), lossless RelizMAN 173 MB
Display posts:    

Current time is: 27-Jun 15:39

All times are UTC + 3



You cannot post new topics in this forum
You cannot reply to topics in this forum
You cannot edit your posts in this forum
You cannot delete your posts in this forum
You cannot vote in polls in this forum
You cannot attach files in this forum
You can download files in this forum