Reply to topic
DL-List and Torrent activity [Update пиров]
Size:  227 MB   |    Registered:  3 years 8 months   |    Completed:  0 times
Seeders:  218  [  0 KB/s  ]   Leechers:  13  [  0 KB/s  ]  
 
     
 
 
Author Message

RelizMAN ®

11

Post 05-Oct-2015 00:31

[Quote]

Once in Her Life
Жанр: New Age, Instrumental
Носитель: CD
Год издания: 1997
Издатель (лейбл): Wind
Номер по каталогу: TCD-5212
Аудиокодек: FLAC (*.flac)
Тип рипа: image+.cue
Битрейт аудио: lossless
Продолжительность: 44:45
Источник (релизер): internet
Наличие сканов в содержимом раздачи: нет
Треклист:
1. 女兒紅
2. 千江水月
3. 絕色
4. 青春雨
5. 吉普賽情人
6. 追尋
7. 情婦

Содержание индексной карты (.CUE)

PERFORMER "风潮音乐"TITLE "TCD-5212 女窥 "FILE "CDImage.flac" WAVE TRACK 01 AUDIO TITLE "女儿红" INDEX 01 00:00:00 TRACK 02 AUDIO TITLE "千江水月" INDEX 00 03:17:62 INDEX 01 03:20:30 TRACK 03 AUDIO TITLE "绝色" INDEX 00 11:18:00 INDEX 01 11:20:42 TRACK 04 AUDIO TITLE "青春雨" INDEX 00 21:20:05 INDEX 01 21:22:47 TRACK 05 AUDIO TITLE "吉普赛情人" INDEX 00 26:24:40 INDEX 01 26:27:07 TRACK 06 AUDIO TITLE "追寻" INDEX 00 33:29:47 INDEX 01 33:32:15 TRACK 07 AUDIO TITLE "情妇" INDEX 00 40:50:05 INDEX 01 40:52:47

auCDtect

-----------------------
DON'T MODIFY THIS FILE
-----------------------
PERFORMER: auCDtect Task Manager, ver. 1.6.0 RC1 build 1.6.0.1
Copyright (c) 2008-2010 y-soft. All rights reserved
http://y-soft.org
ANALYZER: auCDtect: CD records authenticity detector, version 0.8.2
Copyright (c) 2004 Oleg Berngardt. All rights reserved.
Copyright (c) 2004 Alexander Djourik. All rights reserved.
FILE: CDImage.flac
Size: 237924384 Hash: 4429EA939A69C205EE593E505E12C359 Accuracy: -m0
Conclusion: CDDA 100%
Signature: 59E088F7D6F26C64819028712D0521D6CAE5DB04

[doutdess.info].t81094.torrent
Torrent: Registered [ 2015-10-05 00:30 ] · C5F5DB01AC1F287F4A7943B408D6F81DFA47FAD4

18 KB

Status: checked
Completed: 0 times
Size: 227 MB
(New Age, Instrumental) [CD] VA - Once in Her Life - 1997, FLAC (image+.cue), lossless скачать торрент бесплатно и без регистрации

[Profile] [PM]
Forum Topic Author Size
Фламенко и акустическая гитара lossy (New age, Acoustic guitar) Moreza - Crimson Moon - 2011, MP3, 320 kbps Vi$itReal 107 MB
Фламенко и акустическая гитара lossy (New Age, Acoustic guitar) William Ackerman Discography (1976-2010, 14CD) MP3-tracks CBR 320 kbps Vi$itReal 1.41 GB
Фламенко и акустическая гитара lossy (New Age, Acoustic Guitar, Flamenco) Daveed - World of Illusions (2016), MP3, 320 kbps Vi$itReal 75 MB
NewAge & Meditative lossy (New Age, Acoustic) Antonio Morina Gallerio - Old Fashioned Acoustic Music - 2015, MP3, 320 kbps Vi$itReal 135 MB
NewAge & Meditative lossy (New Age, Acoustic, Ambient) Mishroom & The Galactic Family - Along The Same Path - 2016, MP3, 320 kbps Vi$itReal 134 MB
NewAge & Meditative lossless (New Age, Acoustic, Meditative) Ron Korb - \'Flute Traveller\' - 1994, APE (image+.cue), lossless RelizMAN 159 MB
Фольклор, Народная и Этническая музыка собственные оцифровки (New Age, Acoustic, Neofolk) [24/48] Michael Hedges - Aerial Boundaries - 1984, FLAC (image+.cue) RelizMAN 416 MB
Фламенко и акустическая гитара lossless (New Age, Acoustic, Neofolk) [CD] Michael Hedges - Aerial Boundaries - 1984 (2015 Audio Fidelity), FLAC (tracks+.cue), lossless RelizMAN 173 MB
Display posts:    

Current time is: 24-Jun 19:12

All times are UTC + 3



You cannot post new topics in this forum
You cannot reply to topics in this forum
You cannot edit your posts in this forum
You cannot delete your posts in this forum
You cannot vote in polls in this forum
You cannot attach files in this forum
You can download files in this forum