Ответить на тему
Статистика раздачи [Обновить пиров]
Размер:  197 MB   |    Зарегистрирован:  7 месяцев 11 дней   |    Скачан:  0 раз
Сидов:  385  [  0 KB/s  ]   Личеров:  9  [  0 KB/s  ]  
 
     
 
 
Автор Сообщение

Vi$itReal ®

12

Создавать темы 07-Авг-2018 12:30

[Цитировать]

The Bulgarian Voices Angelite / Mercy For The Living
Жанр: Religious, Medieval, Romantic
Носитель: CD
Страна-производитель диска (релиза): Germany
Год издания: 1999
Издатель (лейбл): Jaro Medien
Номер по каталогу: JARO 4220-2
Аудиокодек: FLAC (*.flac)
Тип рипа: tracks+.cue
Битрейт аудио: lossless
Продолжительность: 00:59:07
Источник (релизер): what.cd
Наличие сканов в содержимом раздачи: нет
Треклист:
1 Great Litany
Written By – A. Stroumski
2 Rejoice, Mother Of God
Written-By [16. Jhd] – Anonymous
3 Unto Thee We Sing
Written-By – Dobri Hristov
4 Kyrie Elison
Written-By [13. Jhd] – Anonymous
5 Great Song Of Praise
Written By – A. Stroumski
6 It Is Honourable
Written-By – Joan Kukuzel
7 Praise The Name Of The Lord
Written-By – Anonymous
8 Lord, Have Mercy
Written-By [13. Jhd] – Anonymous
9 Blessed Be The Lord
Written-By – Piotr I. Tschaikowsky
10 Small Litany
Written-By – Peter Dinev
11 The Mystical Sacrifice
Written By – P. Tschesnokov
12 Holy God
Written-By – Ivan Spasov
13 Our Father
Written-By – Nikolai Rimskij-Korssakoff

Лог создания рипа

Exact Audio Copy V1.0 beta 3 from 29. August 2011
EAC extraction logfile from 10. October 2011, 22:55
The Bulgarian Voices Angelite / Mercy for the Living
Used drive : HL-DT-STRW/DVD GCC-M10N Adapter: 2 ID: 0
Read mode : SecureUtilize accurate stream : YesDefeat audio cache : YesMake use of C2 pointers : No
Read offset correction : 102Overread into Lead-In and Lead-Out : NoFill up missing offset samples with silence : YesDelete leading and trailing silent blocks : NoNull samples used in CRC calculations : YesUsed interface : Native Win32 interface for Win NT & 2000Gap handling : Appended to previous track
Used output format : Internal WAV RoutinesSample format : 44.100 Hz; 16 Bit; Stereo
TOC of the extracted CD
Track | Start | Length | Start sector | End sector --------------------------------------------------------- 1 | 0:00.00 | 7:10.01 | 0 | 32250 2 | 7:10.01 | 1:48.22 | 32251 | 40372 3 | 8:58.23 | 2:38.55 | 40373 | 52277 4 | 11:37.03 | 1:36.63 | 52278 | 59540 5 | 13:13.66 | 13:02.70 | 59541 | 118260 6 | 26:16.61 | 3:37.42 | 118261 | 134577 7 | 29:54.28 | 5:26.67 | 134578 | 159094 8 | 35:21.20 | 1:55.45 | 159095 | 167764 9 | 37:16.65 | 5:16.11 | 167765 | 191475 10 | 42:33.01 | 2:03.21 | 191476 | 200721 11 | 44:36.22 | 4:42.13 | 200722 | 221884 12 | 49:18.35 | 7:00.16 | 221885 | 253400 13 | 56:18.51 | 2:49.09 | 253401 | 266084
Track 1
Filename Z:\media\rips\Angelite - Mercy for the Living (1999) [FLAC]\01_-_Great_Litany.wav
Pre-gap length 0:00:02.00
Peak level 67.8 % Extraction speed 2.2 X Track quality 100.0 % Test CRC 682D3F9F Copy CRC 682D3F9F Accurately ripped (confidence 1) [80EF3E40] (AR v1) Copy OK
Track 2
Filename Z:\media\rips\Angelite - Mercy for the Living (1999) [FLAC]\02_-_Rejoice,_Mother_of_God.wav
Peak level 25.5 % Extraction speed 2.0 X Track quality 100.0 % Test CRC BA99FAFF Copy CRC BA99FAFF Accurately ripped (confidence 1) [420F9A90] (AR v1) Copy OK
Track 3
Filename Z:\media\rips\Angelite - Mercy for the Living (1999) [FLAC]\03_-_Unto_Thee_We_Sing.wav
Peak level 43.5 % Extraction speed 2.3 X Track quality 100.0 % Test CRC 60415521 Copy CRC 60415521 Accurately ripped (confidence 1) [D88FA427] (AR v1) Copy OK
Track 4
Filename Z:\media\rips\Angelite - Mercy for the Living (1999) [FLAC]\04_-_Kyrie_Eleison.wav
Peak level 14.4 % Extraction speed 2.1 X Track quality 100.0 % Test CRC 0AE3991A Copy CRC 0AE3991A Accurately ripped (confidence 1) [0B1992AB] (AR v1) Copy OK
Track 5
Filename Z:\media\rips\Angelite - Mercy for the Living (1999) [FLAC]\05_-_Great_Song_of_Praise.wav
Peak level 52.5 % Extraction speed 3.2 X Track quality 100.0 % Test CRC 220289B6 Copy CRC 220289B6 Accurately ripped (confidence 1) [0C407444] (AR v1) Copy OK
Track 6
Filename Z:\media\rips\Angelite - Mercy for the Living (1999) [FLAC]\06_-_It_Is_Honorable.wav
Peak level 49.5 % Extraction speed 3.2 X Track quality 100.0 % Test CRC D7B9ABC4 Copy CRC D7B9ABC4 Accurately ripped (confidence 1) [774E6969] (AR v1) Copy OK
Track 7
Filename Z:\media\rips\Angelite - Mercy for the Living (1999) [FLAC]\07_-_Praise_the_Name_of_the_Lord.wav
Peak level 40.8 % Extraction speed 3.5 X Track quality 100.0 % Test CRC 66FD6C57 Copy CRC 66FD6C57 Accurately ripped (confidence 1) [380EB765] (AR v1) Copy OK
Track 8
Filename Z:\media\rips\Angelite - Mercy for the Living (1999) [FLAC]\08_-_Lord_Have_Mercy.wav
Peak level 18.9 % Extraction speed 3.0 X Track quality 100.0 % Test CRC EE9F1901 Copy CRC EE9F1901 Accurately ripped (confidence 1) [D2E34B84] (AR v1) Copy OK
Track 9
Filename Z:\media\rips\Angelite - Mercy for the Living (1999) [FLAC]\09_-_Blessed_Be_the_Lord.wav
Peak level 32.1 % Extraction speed 3.7 X Track quality 100.0 % Test CRC 92CF8A6D Copy CRC 92CF8A6D Accurately ripped (confidence 1) [98B9B3C2] (AR v1) Copy OK
Track 10
Filename Z:\media\rips\Angelite - Mercy for the Living (1999) [FLAC]\10_-_Small_Litany.wav
Peak level 40.8 % Extraction speed 3.3 X Track quality 100.0 % Test CRC CCC44D13 Copy CRC CCC44D13 Accurately ripped (confidence 1) [EB97897C] (AR v1) Copy OK
Track 11
Filename Z:\media\rips\Angelite - Mercy for the Living (1999) [FLAC]\11_-_The_Mystical_Sacrifice.wav
Peak level 53.8 % Extraction speed 3.5 X Track quality 99.9 % Test CRC 7B8379D8 Copy CRC 7B8379D8 Accurately ripped (confidence 1) [209E8B6F] (AR v1) Copy OK
Track 12
Filename Z:\media\rips\Angelite - Mercy for the Living (1999) [FLAC]\12_-_Holy_God.wav
Peak level 92.8 % Extraction speed 4.2 X Track quality 100.0 % Test CRC F0B03C25 Copy CRC F0B03C25 Accurately ripped (confidence 1) [F98B1478] (AR v1) Copy OK
Track 13
Filename Z:\media\rips\Angelite - Mercy for the Living (1999) [FLAC]\13_-_Our_Father.wav
Peak level 32.9 % Extraction speed 3.9 X Track quality 100.0 % Test CRC 486295AA Copy CRC 486295AA Accurately ripped (confidence 1) [FA21AA3A] (AR v1) Copy OK
All tracks accurately ripped
No errors occurred
End of status report
==== Log checksum 13CA54B3BF022DA13C2950CEE952AACA5E6FB2B25135A4DAFFC9F1AA6BBD1A56 ====
------------------------------------------------------------
Exact Audio Copy V1.0 beta 3 from 29. August 2011
EAC extraction logfile from 10. October 2011, 22:55
The Bulgarian Voices Angelite / Mercy for the Living
Used drive : HL-DT-STRW/DVD GCC-M10N Adapter: 2 ID: 0
Read mode : SecureUtilize accurate stream : YesDefeat audio cache : YesMake use of C2 pointers : No
Read offset correction : 102Overread into Lead-In and Lead-Out : NoFill up missing offset samples with silence : YesDelete leading and trailing silent blocks : NoNull samples used in CRC calculations : YesUsed interface : Native Win32 interface for Win NT & 2000Gap handling : Appended to previous track
Used output format : Internal WAV RoutinesSample format : 44.100 Hz; 16 Bit; Stereo
TOC of the extracted CD
Track | Start | Length | Start sector | End sector --------------------------------------------------------- 1 | 0:00.00 | 7:10.01 | 0 | 32250 2 | 7:10.01 | 1:48.22 | 32251 | 40372 3 | 8:58.23 | 2:38.55 | 40373 | 52277 4 | 11:37.03 | 1:36.63 | 52278 | 59540 5 | 13:13.66 | 13:02.70 | 59541 | 118260 6 | 26:16.61 | 3:37.42 | 118261 | 134577 7 | 29:54.28 | 5:26.67 | 134578 | 159094 8 | 35:21.20 | 1:55.45 | 159095 | 167764 9 | 37:16.65 | 5:16.11 | 167765 | 191475 10 | 42:33.01 | 2:03.21 | 191476 | 200721 11 | 44:36.22 | 4:42.13 | 200722 | 221884 12 | 49:18.35 | 7:00.16 | 221885 | 253400 13 | 56:18.51 | 2:49.09 | 253401 | 266084
Track 1
Filename Z:\media\rips\Angelite - Mercy for the Living (1999) [FLAC]\01_-_Great_Litany.wav
Pre-gap length 0:00:02.00
Peak level 67.8 % Extraction speed 2.2 X Track quality 100.0 % Test CRC 682D3F9F Copy CRC 682D3F9F Accurately ripped (confidence 1) [80EF3E40] (AR v1) Copy OK
Track 2
Filename Z:\media\rips\Angelite - Mercy for the Living (1999) [FLAC]\02_-_Rejoice,_Mother_of_God.wav
Peak level 25.5 % Extraction speed 2.0 X Track quality 100.0 % Test CRC BA99FAFF Copy CRC BA99FAFF Accurately ripped (confidence 1) [420F9A90] (AR v1) Copy OK
Track 3
Filename Z:\media\rips\Angelite - Mercy for the Living (1999) [FLAC]\03_-_Unto_Thee_We_Sing.wav
Peak level 43.5 % Extraction speed 2.3 X Track quality 100.0 % Test CRC 60415521 Copy CRC 60415521 Accurately ripped (confidence 1) [D88FA427] (AR v1) Copy OK
Track 4
Filename Z:\media\rips\Angelite - Mercy for the Living (1999) [FLAC]\04_-_Kyrie_Eleison.wav
Peak level 14.4 % Extraction speed 2.1 X Track quality 100.0 % Test CRC 0AE3991A Copy CRC 0AE3991A Accurately ripped (confidence 1) [0B1992AB] (AR v1) Copy OK
Track 5
Filename Z:\media\rips\Angelite - Mercy for the Living (1999) [FLAC]\05_-_Great_Song_of_Praise.wav
Peak level 52.5 % Extraction speed 3.2 X Track quality 100.0 % Test CRC 220289B6 Copy CRC 220289B6 Accurately ripped (confidence 1) [0C407444] (AR v1) Copy OK
Track 6
Filename Z:\media\rips\Angelite - Mercy for the Living (1999) [FLAC]\06_-_It_Is_Honorable.wav
Peak level 49.5 % Extraction speed 3.2 X Track quality 100.0 % Test CRC D7B9ABC4 Copy CRC D7B9ABC4 Accurately ripped (confidence 1) [774E6969] (AR v1) Copy OK
Track 7
Filename Z:\media\rips\Angelite - Mercy for the Living (1999) [FLAC]\07_-_Praise_the_Name_of_the_Lord.wav
Peak level 40.8 % Extraction speed 3.5 X Track quality 100.0 % Test CRC 66FD6C57 Copy CRC 66FD6C57 Accurately ripped (confidence 1) [380EB765] (AR v1) Copy OK
Track 8
Filename Z:\media\rips\Angelite - Mercy for the Living (1999) [FLAC]\08_-_Lord_Have_Mercy.wav
Peak level 18.9 % Extraction speed 3.0 X Track quality 100.0 % Test CRC EE9F1901 Copy CRC EE9F1901 Accurately ripped (confidence 1) [D2E34B84] (AR v1) Copy OK
Track 9
Filename Z:\media\rips\Angelite - Mercy for the Living (1999) [FLAC]\09_-_Blessed_Be_the_Lord.wav
Peak level 32.1 % Extraction speed 3.7 X Track quality 100.0 % Test CRC 92CF8A6D Copy CRC 92CF8A6D Accurately ripped (confidence 1) [98B9B3C2] (AR v1) Copy OK
Track 10
Filename Z:\media\rips\Angelite - Mercy for the Living (1999) [FLAC]\10_-_Small_Litany.wav
Peak level 40.8 % Extraction speed 3.3 X Track quality 100.0 % Test CRC CCC44D13 Copy CRC CCC44D13 Accurately ripped (confidence 1) [EB97897C] (AR v1) Copy OK
Track 11
Filename Z:\media\rips\Angelite - Mercy for the Living (1999) [FLAC]\11_-_The_Mystical_Sacrifice.wav
Peak level 53.8 % Extraction speed 3.5 X Track quality 99.9 % Test CRC 7B8379D8 Copy CRC 7B8379D8 Accurately ripped (confidence 1) [209E8B6F] (AR v1) Copy OK
Track 12
Filename Z:\media\rips\Angelite - Mercy for the Living (1999) [FLAC]\12_-_Holy_God.wav
Peak level 92.8 % Extraction speed 4.2 X Track quality 100.0 % Test CRC F0B03C25 Copy CRC F0B03C25 Accurately ripped (confidence 1) [F98B1478] (AR v1) Copy OK
Track 13
Filename Z:\media\rips\Angelite - Mercy for the Living (1999) [FLAC]\13_-_Our_Father.wav
Peak level 32.9 % Extraction speed 3.9 X Track quality 100.0 % Test CRC 486295AA Copy CRC 486295AA Accurately ripped (confidence 1) [FA21AA3A] (AR v1) Copy OK
All tracks accurately ripped
No errors occurred
End of status report
==== Log checksum 13CA54B3BF022DA13C2950CEE952AACA5E6FB2B25135A4DAFFC9F1AA6BBD1A56 ====

Содержание индексной карты (.CUE)

REM GENRE VocalREM DATE 1999REM DISCID CB0DDB0DREM COMMENT "ExactAudioCopy v1.0b3"PERFORMER "The Bulgarian Voices Angelite"TITLE "Mercy for the Living"FILE "01_-_Great_Litany.wav" WAVE  TRACK 01 AUDIO    TITLE "Great Litany"    PERFORMER "The Bulgarian Voices Angelite"    FLAGS DCP    INDEX 01 00:00:00FILE "02_-_Rejoice,_Mother_of_God.wav" WAVE  TRACK 02 AUDIO    TITLE "Rejoice, Mother of God"    PERFORMER "The Bulgarian Voices Angelite"    FLAGS DCP    INDEX 01 00:00:00FILE "03_-_Unto_Thee_We_Sing.wav" WAVE  TRACK 03 AUDIO    TITLE "Unto Thee We Sing"    PERFORMER "The Bulgarian Voices Angelite"    FLAGS DCP    INDEX 01 00:00:00FILE "04_-_Kyrie_Eleison.wav" WAVE  TRACK 04 AUDIO    TITLE "Kyrie Eleison"    PERFORMER "The Bulgarian Voices Angelite"    FLAGS DCP    INDEX 01 00:00:00FILE "05_-_Great_Song_of_Praise.wav" WAVE  TRACK 05 AUDIO    TITLE "Great Song of Praise"    PERFORMER "The Bulgarian Voices Angelite"    FLAGS DCP    INDEX 01 00:00:00FILE "06_-_It_Is_Honorable.wav" WAVE  TRACK 06 AUDIO    TITLE "It Is Honorable"    PERFORMER "The Bulgarian Voices Angelite"    FLAGS DCP    INDEX 01 00:00:00FILE "07_-_Praise_the_Name_of_the_Lord.wav" WAVE  TRACK 07 AUDIO    TITLE "Praise the Name of the Lord"    PERFORMER "The Bulgarian Voices Angelite"    FLAGS DCP    INDEX 01 00:00:00FILE "08_-_Lord_Have_Mercy.wav" WAVE  TRACK 08 AUDIO    TITLE "Lord Have Mercy"    PERFORMER "The Bulgarian Voices Angelite"    FLAGS DCP    INDEX 01 00:00:00FILE "09_-_Blessed_Be_the_Lord.wav" WAVE  TRACK 09 AUDIO    TITLE "Blessed Be the Lord"    PERFORMER "The Bulgarian Voices Angelite"    FLAGS DCP    INDEX 01 00:00:00FILE "10_-_Small_Litany.wav" WAVE  TRACK 10 AUDIO    TITLE "Small Litany"    PERFORMER "The Bulgarian Voices Angelite"    FLAGS DCP    INDEX 01 00:00:00FILE "11_-_The_Mystical_Sacrifice.wav" WAVE  TRACK 11 AUDIO    TITLE "The Mystical Sacrifice"    PERFORMER "The Bulgarian Voices Angelite"    FLAGS DCP    INDEX 01 00:00:00FILE "12_-_Holy_God.wav" WAVE  TRACK 12 AUDIO    TITLE "Holy God"    PERFORMER "The Bulgarian Voices Angelite"    FLAGS DCP    INDEX 01 00:00:00FILE "13_-_Our_Father.wav" WAVE  TRACK 13 AUDIO    TITLE "Our Father"    PERFORMER "The Bulgarian Voices Angelite"    FLAGS DCP    INDEX 01 00:00:00

Лог проверки качества

AUDIOCHECKER v2.0 beta (build 457) - by Dester - [email protected]~~~~~~~~~~~~~~~~~~~~~~~~~~~~~~~~~~-=== DO NOT EDIT THIS FILE! ===-
Path: ...\Angelite - Mercy for the Living (1999) [FLAC]
01 -=- 01_-_Great_Litany.flac -=- MPEG (90%)02 -=- 02_-_Rejoice,_Mother_of_God.flac -=- CDDA (86%)03 -=- 03_-_Unto_Thee_We_Sing.flac -=- MPEG (89%)04 -=- 04_-_Kyrie_Eleison.flac -=- CDDA (100%)05 -=- 05_-_Great_Song_of_Praise.flac -=- MPEG (80%)06 -=- 06_-_It_Is_Honorable.flac -=- CDDA (54%)07 -=- 07_-_Praise_the_Name_of_the_Lord.flac -=- CDDA (49%)08 -=- 08_-_Lord_Have_Mercy.flac -=- CDDA (99%)09 -=- 09_-_Blessed_Be_the_Lord.flac -=- CDDA (86%)10 -=- 10_-_Small_Litany.flac -=- CDDA (85%)11 -=- 11_-_The_Mystical_Sacrifice.flac -=- CDDA (87%)12 -=- 12_-_Holy_God.flac -=- CDDA (58%)13 -=- 13_-_Our_Father.flac -=- CDDA (92%)
Summary 64,38% CDDA
189951396

[doutdess.info].t282790.torrent
Торрент: Зарегистрирован [ 2018-08-07 12:30 ] · 18072AEC094D544F8C282628F42E73D8F4B5FE0F

17 KB

Статус: проверено
Скачан: 0 раз
Размер: 197 MB
(Religious, Medieval, Romantic) [CD] The Bulgarian Voices Angelite - Mercy For The Living - 1999, FLAC (tracks+.cue), lossless скачать торрент бесплатно и без регистрации

[Профиль] [ЛС]
Форум Тема Автор Размер
Country, Bluegrass lossy (Religious, Folk, Country) VA - Sacred Harp And Shape Note Singing (1922 - 1950) (4 CD Set) (JSP) - 2014, MP3, 128-320 kbps Vi$itReal 374 MB
Показать сообщения:    

Текущее время: 18-Мар 21:37

Часовой пояс: UTC + 3



Вы не можете начинать темы
Вы не можете отвечать на сообщения
Вы не можете редактировать свои сообщения
Вы не можете удалять свои сообщения
Вы не можете голосовать в опросах
Вы не можете прикреплять файлы к сообщениям
Вы можете скачивать файлы