Reply to topic
DL-List and Torrent activity [Update пиров]
Size:  256 MB   |    Registered:  3 years 8 months   |    Completed:  0 times
Seeders:  191  [  0 KB/s  ]   Leechers:  12  [  0 KB/s  ]  
 
     
 
 
Author Message

RelizMAN ®

11

Post 05-Oct-2015 00:31

[Quote]

Fan Zong-pei - Looking Back On Life
Жанр: New Age, Instrumental
Носитель: CD
Год издания: 2000
Издатель (лейбл): Wind
Номер по каталогу: TCD-5239
Аудиокодек: FLAC (*.flac)
Тип рипа: image+.cue
Битрейт аудио: lossless
Продолжительность: 50:47
Источник (релизер): internet
Наличие сканов в содержимом раздачи: нет
Треклист:
01.送別(長版)
02.三寶歌
03.夢
04.月
05.悲秋
06.憶兒時
07.隨堤柳
08.西湖
09.送別(演唱版)
10.送別(短版)
11.末了

Содержание индексной карты (.CUE)

PERFORMER "风潮音乐"TITLE "WTC-001 夕阳山外山"FILE "CDImage.flac" WAVE TRACK 01 AUDIO TITLE "送别" PERFORMER "范宗沛" INDEX 01 00:00:00 TRACK 02 AUDIO TITLE "三宝歌" PERFORMER "范宗沛" INDEX 00 03:17:63 INDEX 01 06:32:57 TRACK 03 AUDIO TITLE "梦" PERFORMER "范宗沛" INDEX 00 08:34:65 INDEX 01 10:34:07 TRACK 04 AUDIO TITLE "月" PERFORMER "范宗沛" INDEX 00 13:02:14 INDEX 01 15:27:30 TRACK 05 AUDIO TITLE "悲秋" PERFORMER "范宗沛" INDEX 00 17:29:28 INDEX 01 19:28:42 TRACK 06 AUDIO TITLE "忆儿时" PERFORMER "范宗沛" INDEX 00 21:37:58 INDEX 01 23:44:20 TRACK 07 AUDIO TITLE "随堤柳" PERFORMER "范宗沛" INDEX 00 26:15:34 INDEX 01 28:42:52 TRACK 08 AUDIO TITLE "西湖" PERFORMER "范宗沛" INDEX 00 31:06:16 INDEX 01 33:26:42 TRACK 09 AUDIO TITLE "送别(演唱版)" PERFORMER "范宗沛" INDEX 00 35:57:33 INDEX 01 38:25:32 TRACK 10 AUDIO TITLE "送别(短版)" PERFORMER "范宗沛" INDEX 00 39:50:04 INDEX 01 41:10:60 TRACK 11 AUDIO TITLE "末了" PERFORMER "范宗沛" INDEX 00 42:42:51 INDEX 01 44:11:57

Лог проверки качества

-----------------------
DON'T MODIFY THIS FILE
-----------------------
PERFORMER: auCDtect Task Manager, ver. 1.6.0 RC1 build 1.6.0.1Copyright (c) 2008-2010 y-soft. All rights reservedhttp://y-soft.org
ANALYZER: auCDtect: CD records authenticity detector, version 0.8.2Copyright (c) 2004 Oleg Berngardt. All rights reserved.Copyright (c) 2004 Alexander Djourik. All rights reserved.
FILE: CDImage.flac Size: 268275920 Hash: 592E84C8BB9032D8164F3046CAB9DB86 Accuracy: -m0 Conclusion: CDDA 100% Signature: 21BF0EF8F8A2338F2DA1163D2A3AF461429BE97B

[doutdess.info].t81091.torrent
Torrent: Registered [ 2015-10-05 00:30 ] · 3812A36AA8001CB9D28702F5A923F728C993FCD7

11 KB

Status: checked
Completed: 0 times
Size: 256 MB
(New Age, Instrumental) [CD] Fan Zong-pei - Looking Back On Life - 2000, FLAC (image+.cue), lossless скачать торрент бесплатно и без регистрации

[Profile] [PM]
Forum Topic Author Size
Фламенко и акустическая гитара lossy (New age, Acoustic guitar) Moreza - Crimson Moon - 2011, MP3, 320 kbps Vi$itReal 107 MB
Фламенко и акустическая гитара lossy (New Age, Acoustic guitar) William Ackerman Discography (1976-2010, 14CD) MP3-tracks CBR 320 kbps Vi$itReal 1.41 GB
Фламенко и акустическая гитара lossy (New Age, Acoustic Guitar, Flamenco) Daveed - World of Illusions (2016), MP3, 320 kbps Vi$itReal 75 MB
NewAge & Meditative lossy (New Age, Acoustic) Antonio Morina Gallerio - Old Fashioned Acoustic Music - 2015, MP3, 320 kbps Vi$itReal 135 MB
NewAge & Meditative lossy (New Age, Acoustic, Ambient) Mishroom & The Galactic Family - Along The Same Path - 2016, MP3, 320 kbps Vi$itReal 134 MB
NewAge & Meditative lossless (New Age, Acoustic, Meditative) Ron Korb - \'Flute Traveller\' - 1994, APE (image+.cue), lossless RelizMAN 159 MB
Фольклор, Народная и Этническая музыка собственные оцифровки (New Age, Acoustic, Neofolk) [24/48] Michael Hedges - Aerial Boundaries - 1984, FLAC (image+.cue) RelizMAN 416 MB
Фламенко и акустическая гитара lossless (New Age, Acoustic, Neofolk) [CD] Michael Hedges - Aerial Boundaries - 1984 (2015 Audio Fidelity), FLAC (tracks+.cue), lossless RelizMAN 173 MB
Display posts:    

Current time is: 27-Jun 15:19

All times are UTC + 3



You cannot post new topics in this forum
You cannot reply to topics in this forum
You cannot edit your posts in this forum
You cannot delete your posts in this forum
You cannot vote in polls in this forum
You cannot attach files in this forum
You can download files in this forum