Reply to topic
DL-List and Torrent activity [Update пиров]
Size:  325 MB   |    Registered:  3 years 8 months   |    Completed:  1 time
Seeders:  695  [  0 KB/s  ]   Leechers:  53  [  0 KB/s  ]  
 
     
 
 
Author Message

RelizMAN ®

11

Post 05-Oct-2015 00:31

[Quote]

Anugama - Celestial Classics

-
-Жанр: New Age | Neo-Classical
Носитель: CD
Год издания: 2000
Издатель (лейбл): Open Sky Music
Номер по каталогу: OSM 111-2
Страна исполнителя (группы): Germany
Аудиокодек: FLAC (*.flac)
Тип рипа: tracks
Битрейт аудио: lossless
Продолжительность: 01:04:01
Источник (релизер): internet
Наличие сканов: да
Треклист:
01. Trois Gymnopedies [00:07:40]
02. Mondscheinsonate, cis-moll, Op. 27/2 [00:07:00]
03. Konzert fur Flote und Orchester, D-Dur, 2 Satz-solo cantabile [00:05:00]
04. Konzert for Violine, Oboe und Orchester d-moll, 2 Satz-adagio [00:07:27]
05. Italienisches Konzert, 2 Satz-andante [00:05:05]
06. Largo aus Konzert in D-Dur fur Flote und Streichorchester [00:04:25]
07. Klavierkonzert in F-Moll [00:02:29]
08. Konnzert fur Falutino und Orchester in C-Dur, 2 Satz Largo in E-Moll [00:04:09]
09. Siciliano, 2 Satz aus Sonate fur Flote und Cembalo in Es-Dur [00:02:32]
10. Trinklied [00:02:29]
11. Canon in D-Dur fur Streicher und Basso Contunoue [00:07:49]
12. Air-Suite Nr. 2 in D-Dur [00:04:44]
13. Quartett fur Violine, Bratsche, Cello und Flote in D-Dur [00:03:07]
-
-

Лог создания рипа

Exact Audio Copy V1.0 beta 3 from 29. August 2011
EAC extraction logfile from 11. November 2013, 6:27
Anugama / Celestial Classics
Used drive : Optiarc DVD RW AD-7241S Adapter: 2 ID: 1
Read mode : SecureUtilize accurate stream : YesDefeat audio cache : NoMake use of C2 pointers : Yes
Read offset correction : 48Overread into Lead-In and Lead-Out : NoFill up missing offset samples with silence : YesDelete leading and trailing silent blocks : NoNull samples used in CRC calculations : YesUsed interface : Native Win32 interface for Win NT & 2000Gap handling : Not detected, thus appended to previous track
Used output format : User Defined EncoderSelected bitrate : 768 kBit/sQuality : HighAdd ID3 tag : NoCommand line compressor : D:\Program Files 2\Exact Audio Copy\FLAC\FLAC.EXEAdditional command line options : -6 -V -T "ARTIST=%artist%" -T "TITLE=%title%" -T "ALBUM=%albumtitle%" -T "DATE=%year%" -T "TRACKNUMBER=%tracknr%" -T "GENRE=%genre%" -T "COMMENT=%comment%" -T "BAND=%albuminterpret%" -T "ALBUMARTIST=%albuminterpret%" -T "COMPOSER=%composer%" %haslyrics%--tag-from-file=LYRICS="%lyricsfile%"%haslyrics% -T "DISCNUMBER=%cdnumber%" -T "TOTALDISCS=%totalcds%" -T "TOTALTRACKS=%numtracks%" %hascover%--picture="%coverfile%"%hascover% %source% -o %dest%
TOC of the extracted CD
Track | Start | Length | Start sector | End sector --------------------------------------------------------- 1 | 0:00.00 | 7:40.00 | 0 | 34499 2 | 7:40.00 | 7:00.58 | 34500 | 66057 3 | 14:40.58 | 5:00.58 | 66058 | 88615 4 | 19:41.41 | 7:27.72 | 88616 | 122212 5 | 27:09.38 | 5:05.09 | 122213 | 145096 6 | 32:14.47 | 4:25.10 | 145097 | 164981 7 | 36:39.57 | 2:29.47 | 164982 | 176203 8 | 39:09.29 | 4:09.10 | 176204 | 194888 9 | 43:18.39 | 2:32.59 | 194889 | 206347 10 | 45:51.23 | 2:29.63 | 206348 | 217585 11 | 48:21.11 | 7:49.21 | 217586 | 252781 12 | 56:10.32 | 4:44.34 | 252782 | 274115 13 | 60:54.66 | 3:07.03 | 274116 | 288143
Track 1
Filename E:\# new rips\Anugama - Celestial Classics - 01 - Trois Gymnopedies.wav
Peak level 96.5 % Extraction speed 17.7 X Track quality 100.0 % Test CRC E566D3F0 Copy CRC E566D3F0 Track not present in AccurateRip database Copy OK
Track 2
Filename E:\# new rips\Anugama - Celestial Classics - 02 - Mondscheinsonate.wav
Peak level 72.2 % Extraction speed 21.3 X Track quality 100.0 % Test CRC 6F157C23 Copy CRC 6F157C23 Track not present in AccurateRip database Copy OK
Track 3
Filename E:\# new rips\Anugama - Celestial Classics - 03 - Konzert für Flöte.wav
Peak level 86.0 % Extraction speed 22.9 X Track quality 100.0 % Test CRC B076EE55 Copy CRC B076EE55 Track not present in AccurateRip database Copy OK
Track 4
Filename E:\# new rips\Anugama - Celestial Classics - 04 - Konzert für Violine.wav
Peak level 67.2 % Extraction speed 25.3 X Track quality 100.0 % Test CRC 21C7D461 Copy CRC 21C7D461 Track not present in AccurateRip database Copy OK
Track 5
Filename E:\# new rips\Anugama - Celestial Classics - 05 - Italienisches Konzert.wav
Peak level 70.9 % Extraction speed 27.9 X Track quality 100.0 % Test CRC 6197F9C4 Copy CRC 6197F9C4 Track not present in AccurateRip database Copy OK
Track 6
Filename E:\# new rips\Anugama - Celestial Classics - 06 - Largo.wav
Peak level 60.9 % Extraction speed 21.5 X Track quality 99.9 % Test CRC 8216C583 Copy CRC 8216C583 Track not present in AccurateRip database Copy OK
Track 7
Filename E:\# new rips\Anugama - Celestial Classics - 07 - Klavierkonzert.wav
Peak level 60.9 % Extraction speed 28.3 X Track quality 100.0 % Test CRC 57F58052 Copy CRC 57F58052 Track not present in AccurateRip database Copy OK
Track 8
Filename E:\# new rips\Anugama - Celestial Classics - 08 - Konzert für Flautino.wav
Peak level 74.5 % Extraction speed 29.9 X Track quality 100.0 % Test CRC 9C8A19C8 Copy CRC 9C8A19C8 Track not present in AccurateRip database Copy OK
Track 9
Filename E:\# new rips\Anugama - Celestial Classics - 09 - Siciliano.wav
Peak level 44.3 % Extraction speed 31.8 X Track quality 100.0 % Test CRC F5BF697C Copy CRC F5BF697C Track not present in AccurateRip database Copy OK
Track 10
Filename E:\# new rips\Anugama - Celestial Classics - 10 - Trinklied.wav
Peak level 68.3 % Extraction speed 32.5 X Track quality 100.0 % Test CRC F4F9A398 Copy CRC F4F9A398 Track not present in AccurateRip database Copy OK
Track 11
Filename E:\# new rips\Anugama - Celestial Classics - 11 - Canon D-Dur.wav
Peak level 77.8 % Extraction speed 33.6 X Track quality 100.0 % Test CRC 19DC0C8A Copy CRC 19DC0C8A Track not present in AccurateRip database Copy OK
Track 12
Filename E:\# new rips\Anugama - Celestial Classics - 12 - Air-Suite nr.3.wav
Peak level 54.3 % Extraction speed 34.4 X Track quality 100.0 % Test CRC 8142EECC Copy CRC 8142EECC Track not present in AccurateRip database Copy OK
Track 13
Filename E:\# new rips\Anugama - Celestial Classics - 13 - Quartett für Violine.wav
Peak level 68.3 % Extraction speed 22.2 X Track quality 99.8 % Test CRC C1211449 Copy CRC C1211449 Track not present in AccurateRip database Copy OK
None of the tracks are present in the AccurateRip database
No errors occurred
End of status report
---- CUETools DB Plugin V2.1.3
[CTDB TOCID: 8WpIpWh75skb76XWxijGNIF4Icg-] disk not present in database, Submit result: 8WpIpWh75skb76XWxijGNIF4Icg- has been uploaded
==== Log checksum 63BB9D30EF5FE42FC2E629AABC53243430323DF8906E33B8B5848820840A869A ====

Содержание индексной карты (.CUE)

REM GENRE New AgeREM DATE 2000PERFORMER "Anugama"TITLE "Celestial Classics"FILE "Anugama - Celestial Classics - 01 - Trois Gymnopedies.flac" WAVE TRACK 01 AUDIO TITLE "Trois Gymnopedies" PERFORMER "Anugama" INDEX 01 00:00:00FILE "Anugama - Celestial Classics - 02 - Mondscheinsonate.flac" WAVE TRACK 02 AUDIO TITLE "Mondscheinsonate, cis-moll, Op. 27/2" PERFORMER "Anugama" INDEX 01 00:00:00FILE "Anugama - Celestial Classics - 03 - Konzert für Flöte.flac" WAVE TRACK 03 AUDIO TITLE "Konzert fur Flote und Orchester, D-Dur, 2 Satz-solo cantabile" PERFORMER "Anugama" INDEX 01 00:00:00FILE "Anugama - Celestial Classics - 04 - Konzert für Violine.flac" WAVE TRACK 04 AUDIO TITLE "Konzert for Violine, Oboe und Orchester d-moll, 2 Satz-adagio" PERFORMER "Anugama" INDEX 01 00:00:00FILE "Anugama - Celestial Classics - 05 - Italienisches Konzert.flac" WAVE TRACK 05 AUDIO TITLE "Italienisches Konzert, 2 Satz-andante" PERFORMER "Anugama" INDEX 01 00:00:00FILE "Anugama - Celestial Classics - 06 - Largo.flac" WAVE TRACK 06 AUDIO TITLE "Largo aus Konzert in D-Dur fur Flote und Streichorchester" PERFORMER "Anugama" INDEX 01 00:00:00FILE "Anugama - Celestial Classics - 07 - Klavierkonzert.flac" WAVE TRACK 07 AUDIO TITLE "Klavierkonzert in F-Moll" PERFORMER "Anugama" INDEX 01 00:00:00FILE "Anugama - Celestial Classics - 08 - Konzert für Flautino.flac" WAVE TRACK 08 AUDIO TITLE "Konnzert fur Falutino und Orchester in C-Dur, 2 Satz Largo in E-Moll" PERFORMER "Anugama" INDEX 01 00:00:00FILE "Anugama - Celestial Classics - 09 - Siciliano.flac" WAVE TRACK 09 AUDIO TITLE "Siciliano, 2 Satz aus Sonate fur Flote und Cembalo in Es-Dur" PERFORMER "Anugama" INDEX 01 00:00:00FILE "Anugama - Celestial Classics - 10 - Trinklied.flac" WAVE TRACK 10 AUDIO TITLE "Trinklied" PERFORMER "Anugama" INDEX 01 00:00:00FILE "Anugama - Celestial Classics - 11 - Canon D-Dur.flac" WAVE TRACK 11 AUDIO TITLE "Canon in D-Dur fur Streicher und Basso Contunoue" PERFORMER "Anugama" INDEX 01 00:00:00FILE "Anugama - Celestial Classics - 12 - Air-Suite nr.3.flac" WAVE TRACK 12 AUDIO TITLE "Air-Suite Nr. 2 in D-Dur" PERFORMER "Anugama" INDEX 01 00:00:00FILE "Anugama - Celestial Classics - 13 - Quartett für Violine.flac" WAVE TRACK 13 AUDIO TITLE "Quartett fur Violine, Bratsche, Cello und Flote in D-Dur" PERFORMER "Anugama" INDEX 01 00:00:00

Лог проверки качества

-----------------------
DON'T MODIFY THIS FILE
-----------------------
PERFORMER: auCDtect Task Manager, ver. 1.6.0 RC1 build 1.6.0.1Copyright (c) 2008-2010 y-soft. All rights reservedhttp://y-soft.org
ANALYZER: auCDtect: CD records authenticity detector, version 0.8.2Copyright (c) 2004 Oleg Berngardt. All rights reserved.Copyright (c) 2004 Alexander Djourik. All rights reserved.
FILE: Anugama - Celestial Classics - 13 - Quartett für Violine.flac Size: 16948249 Hash: 95D018B3285367C71056B6427E6F87A0 Accuracy: -m0 Conclusion: CDDA 100% Signature: F05C1FEA8556911D0AC77A2C1FE34EB9D61F0319FILE: Anugama - Celestial Classics - 12 - Air-Suite nr.3.flac Size: 25488651 Hash: 5B8B8C8B063EF02086DB277083BE5D00 Accuracy: -m0 Conclusion: CDDA 99% Signature: FE714B15C283A45930B2B7C54C75BD65421AEDA1FILE: Anugama - Celestial Classics - 11 - Canon D-Dur.flac Size: 41843313 Hash: CB0004AFDC506C631D565F0E6F27A470 Accuracy: -m0 Conclusion: CDDA 100% Signature: 3517C10709EBB0C1CFE1DA36850C1DFB4CF74A74FILE: Anugama - Celestial Classics - 10 - Trinklied.flac Size: 14471639 Hash: 422F04F866BF587346FC183EFBA84E67 Accuracy: -m0 Conclusion: CDDA 94% Signature: 9736CEFDFD71E90CFF29419DA0D688A677DECB1FFILE: Anugama - Celestial Classics - 09 - Siciliano.flac Size: 13921598 Hash: E1839ED3017AB564FCED0EA4EACB0D17 Accuracy: -m0 Conclusion: CDDA 99% Signature: 3DEC50643F87280A65D6D579EBD99D96A2186751FILE: Anugama - Celestial Classics - 08 - Konzert für Flautino.flac Size: 23063403 Hash: 4E571D53BEC68AE957F5AF5DE09BF2E5 Accuracy: -m0 Conclusion: CDDA 99% Signature: 43B701E17320631573EE2FC47B9F09C4F8F5FBB3FILE: Anugama - Celestial Classics - 07 - Klavierkonzert.flac Size: 14428906 Hash: 9202CB68C0BC1D9658A7AE0BEFD72A5C Accuracy: -m0 Conclusion: CDDA 100% Signature: E5528ECF6E9A81DD64713742E399C437BEBAE573FILE: Anugama - Celestial Classics - 06 - Largo.flac Size: 23984818 Hash: 7F20FB03168FC0D569AE57CBCAB33CCD Accuracy: -m0 Conclusion: CDDA 100% Signature: A13B07B05160C3F09E21DEB057C1CB64C6DFC013FILE: Anugama - Celestial Classics - 05 - Italienisches Konzert.flac Size: 21913114 Hash: C501D851D54E302A44172F91A76E9406 Accuracy: -m0 Conclusion: CDDA 100% Signature: EB9DBC47F87165884252B8A627FFFA5BAB17859AFILE: Anugama - Celestial Classics - 04 - Konzert für Violine.flac Size: 38987064 Hash: EDDD639F6F55C1BC89665E8FBAE855D6 Accuracy: -m0 Conclusion: CDDA 100% Signature: 22FB17487F7ED66EFFDC4558EFFECF8309AD3117FILE: Anugama - Celestial Classics - 03 - Konzert für Flöte.flac Size: 26963986 Hash: 4B92F6890EDB39016D18F07D3CE76AC6 Accuracy: -m0 Conclusion: CDDA 100% Signature: 63765BAAD4B40A1D138ACC7C85F9B984621B7873FILE: Anugama - Celestial Classics - 02 - Mondscheinsonate.flac Size: 35102187 Hash: 77F51B824B914E2F46F04A7768967EA1 Accuracy: -m0 Conclusion: CDDA 99% Signature: 9FF414A0A6FAD3837B298A4DBC3B534730F2CBEFFILE: Anugama - Celestial Classics - 01 - Trois Gymnopedies.flac Size: 38868668 Hash: 266B61BE8D470DEE42EBC5C049264A47 Accuracy: -m0 Conclusion: CDDA 100% Signature: 1C1377FF3E4875E0D2FF52B8AAD451B642C8BD9A

Скриншот спектра частот


[doutdess.info].t81103.torrent
Torrent: Registered [ 2015-10-05 00:30 ] · 0D7743EC2EE8C89F79AF41C41FEC17899FDCFE77

15 KB

Status: checked
Completed: 1 times
Size: 325 MB
(New Age | Neo-Classical) [CD] Anugama - Celestial Classics - 2000, FLAC (tracks), lossless скачать торрент бесплатно и без регистрации

[Profile] [PM]
Forum Topic Author Size
NewAge & Meditative lossless (New Age | Alternative Pop | Contemporary Classical) [WEB] Eurielle - Arcadia - 2015, FLAC (tracks), lossless RelizMAN 456 MB
NewAge & Meditative lossless (New Age | Downtempo) [CD] Sleepthief - Mortal Longing - 2018 FLAC (tracks+.cue), lossless RelizMAN 499 MB
NewAge & Meditative lossless (New Age | Downtempo) [WEB] 2illusions - Juvenility - 2019, FLAC (tracks), lossless RelizMAN 228 MB
NewAge & Meditative lossy (New Age | Electronic | New Romantic | Instrumental | Classical Crossover | Ambient) Yanni [Yanni Hrisomallis] - Discography [64 Releases] - 1984 - 2016, MP3, 320 kbps Vi$itReal 8.25 GB
NewAge & Meditative lossy (New Age | Enigmatic) Amure (Алексей Хацко) - Discography - 8 albums - 2010-2015, MP3, 320 kbps Vi$itReal 1.33 GB
NewAge & Meditative lossless (New Age | Enigmatic) [WEB] 2illusions - Childhood - 2015, FLAC (tracks), lossless RelizMAN 271 MB
NewAge & Meditative lossless (New Age | Enigmatic) [WEB] Amure (Алексей Хацко) - Discography - 8 albums - 2010-2015, FLAC (tracks), lossless RelizMAN 3.98 GB
NewAge & Meditative lossy (New Age | Flute) Rajendra Teredesai & Bluemonk - Samsara - 2018, MP3, 320 kbps Vi$itReal 147 MB
Display posts:    

Current time is: 27-Jun 16:12

All times are UTC + 3



You cannot post new topics in this forum
You cannot reply to topics in this forum
You cannot edit your posts in this forum
You cannot delete your posts in this forum
You cannot vote in polls in this forum
You cannot attach files in this forum
You can download files in this forum