Ответить на тему
Статистика раздачи [Обновить пиров]
Размер:  368 MB   |    Зарегистрирован:  7 месяцев 18 дней   |    Скачан:  0 раз
Сидов:  513  [  0 KB/s  ]   Личеров:  54  [  0 KB/s  ]  
 
     
 
 
Автор Сообщение

RelizMAN ®

11

Создавать темы 07-Авг-2018 13:35

[Цитировать]

Che-Shizu / Yakusoku wa Dekinai
Жанр: Avant-Folk, Freak Folk
Носитель: CD
Страна-производитель диска (релиза): Japan
Год издания: 1984 (2001)
Издатель (лейбл): Alchemy Records
Номер по каталогу: ARCD-135
Страна исполнителя (группы): Japan
Аудиокодек: FLAC (*.flac)
Тип рипа: tracks+.cue
Битрейт аудио: lossless
Продолжительность: 00:55:02
Источник (релизер): what.cd
Наличие сканов в содержимом раздачи: нет
Треклист:
01 - 祭歌 I'm Dancing In My Heart
02 - 連舞
03 - 君が目
04 - 火の海
05 - 月と明り窓
06 - 約束はできない
07 - 黒い瞳の
08 - カチューシャ
09 - プレパダ
10 - 輪舞
11 - 三度目は武装して美しく無関心
12 - 英雄
13 - 星

Лог создания рипа

Exact Audio Copy V1.0 beta 3 from 29. August 2011
EAC extraction logfile from 17. March 2014, 18:44
Ché-SHIZU / Yakusoku Wa Dekinai
Used drive : ASUS DRW-24B1ST i Adapter: 2 ID: 0
Read mode : SecureUtilize accurate stream : YesDefeat audio cache : YesMake use of C2 pointers : No
Read offset correction : 6Overread into Lead-In and Lead-Out : NoFill up missing offset samples with silence : YesDelete leading and trailing silent blocks : NoNull samples used in CRC calculations : YesUsed interface : Native Win32 interface for Win NT & 2000Gap handling : Appended to previous track
Used output format : User Defined EncoderSelected bitrate : 1024 kBit/sQuality : HighAdd ID3 tag : NoCommand line compressor : C:\Program Files (x86)\Exact Audio Copy\Flac\flac.exeAdditional command line options : -8 -V -T "ARTIST=%artist%" -T "TITLE=%title%" -T "ALBUM=%albumtitle%" -T "DATE=%year%" -T "TRACKNUMBER=%tracknr%" -T "GENRE=%genre%" -T "PERFORMER=%albuminterpret%" -T "COMPOSER=%composer%" %haslyrics%--tag-from-file=LYRICS="%lyricsfile%"%haslyrics% -T "ALBUMARTIST=%albumartist%" -T "DISCNUMBER=%cdnumber%" -T "TOTALDISCS=%totalcds%" -T "TOTALTRACKS=%numtracks%" -T "COMMENT=%comment%" %source% -o %dest%
TOC of the extracted CD
Track | Start | Length | Start sector | End sector --------------------------------------------------------- 1 | 0:00.00 | 6:26.03 | 0 | 28952 2 | 6:26.03 | 3:10.37 | 28953 | 43239 3 | 9:36.40 | 5:22.49 | 43240 | 67438 4 | 14:59.14 | 4:55.60 | 67439 | 89623 5 | 19:54.74 | 4:41.53 | 89624 | 110751 6 | 24:36.52 | 4:53.44 | 110752 | 132770 7 | 29:30.21 | 3:16.62 | 132771 | 147532 8 | 32:47.08 | 2:46.46 | 147533 | 160028 9 | 35:33.54 | 3:39.03 | 160029 | 176456 10 | 39:12.57 | 5:32.40 | 176457 | 201396 11 | 44:45.22 | 1:26.08 | 201397 | 207854 12 | 46:11.30 | 3:37.16 | 207855 | 224145 13 | 49:48.46 | 5:13.35 | 224146 | 247655
Track 1
Filename L:\FLAC What\Che-Shizu - Yakusoku Wa Dekinai (1984) [FLAC] {ARCD-135}\01 - I'm Dancing In My Heart~祭歌.wav
Pre-gap length 0:00:02.00
Peak level 100.0 % Extraction speed 5.6 X Track quality 100.0 % Test CRC C661B1D6 Copy CRC C661B1D6 Accurately ripped (confidence 1) [155FD946] (AR v2) Copy OK
Track 2
Filename L:\FLAC What\Che-Shizu - Yakusoku Wa Dekinai (1984) [FLAC] {ARCD-135}\02 - 連舞.wav
Peak level 100.0 % Extraction speed 5.9 X Track quality 100.0 % Test CRC 3B156212 Copy CRC 3B156212 Accurately ripped (confidence 1) [DFDE0D21] (AR v2) Copy OK
Track 3
Filename L:\FLAC What\Che-Shizu - Yakusoku Wa Dekinai (1984) [FLAC] {ARCD-135}\03 - 君が目.wav
Peak level 100.0 % Extraction speed 6.8 X Track quality 100.0 % Test CRC 9550557F Copy CRC 9550557F Accurately ripped (confidence 1) [719B064D] (AR v2) Copy OK
Track 4
Filename L:\FLAC What\Che-Shizu - Yakusoku Wa Dekinai (1984) [FLAC] {ARCD-135}\04 - 火の海.wav
Pre-gap length 0:00:05.14
Peak level 100.0 % Extraction speed 6.3 X Track quality 99.9 % Test CRC 4339D870 Copy CRC 4339D870 Accurately ripped (confidence 1) [F1F24A6D] (AR v2) Copy OK
Track 5
Filename L:\FLAC What\Che-Shizu - Yakusoku Wa Dekinai (1984) [FLAC] {ARCD-135}\05 - 月と明り窓.wav
Pre-gap length 0:00:02.64
Peak level 100.0 % Extraction speed 7.8 X Track quality 100.0 % Test CRC F66AF4B1 Copy CRC F66AF4B1 Accurately ripped (confidence 1) [A6BC358A] (AR v2) Copy OK
Track 6
Filename L:\FLAC What\Che-Shizu - Yakusoku Wa Dekinai (1984) [FLAC] {ARCD-135}\06 - 約束はできない.wav
Peak level 100.0 % Extraction speed 8.3 X Track quality 100.0 % Test CRC 645FA7EC Copy CRC 645FA7EC Accurately ripped (confidence 1) [DA2EB484] (AR v2) Copy OK
Track 7
Filename L:\FLAC What\Che-Shizu - Yakusoku Wa Dekinai (1984) [FLAC] {ARCD-135}\07 - 黒い瞳の.wav
Pre-gap length 0:00:03.18
Peak level 100.0 % Extraction speed 8.2 X Track quality 100.0 % Test CRC 1DE5EA5B Copy CRC 1DE5EA5B Accurately ripped (confidence 1) [12944EBC] (AR v2) Copy OK
Track 8
Filename L:\FLAC What\Che-Shizu - Yakusoku Wa Dekinai (1984) [FLAC] {ARCD-135}\08 - カチューシャ.wav
Pre-gap length 0:00:05.65
Peak level 100.0 % Extraction speed 6.3 X Track quality 99.9 % Test CRC 5C83553B Copy CRC 5C83553B Accurately ripped (confidence 1) [3A8640D2] (AR v2) Copy OK
Track 9
Filename L:\FLAC What\Che-Shizu - Yakusoku Wa Dekinai (1984) [FLAC] {ARCD-135}\09 - プレパダ.wav
Peak level 100.0 % Extraction speed 8.9 X Track quality 100.0 % Test CRC B897A02A Copy CRC B897A02A Accurately ripped (confidence 1) [6E74ED64] (AR v2) Copy OK
Track 10
Filename L:\FLAC What\Che-Shizu - Yakusoku Wa Dekinai (1984) [FLAC] {ARCD-135}\10 - 輪舞.wav
Peak level 100.0 % Extraction speed 9.7 X Track quality 100.0 % Test CRC 25E659F8 Copy CRC 25E659F8 Accurately ripped (confidence 1) [38D0C5B8] (AR v2) Copy OK
Track 11
Filename L:\FLAC What\Che-Shizu - Yakusoku Wa Dekinai (1984) [FLAC] {ARCD-135}\11 - 三度目は武装して美しく無関心.wav
Pre-gap length 0:00:06.28
Peak level 100.0 % Extraction speed 7.8 X Track quality 100.0 % Test CRC 84F2A6EE Copy CRC 84F2A6EE Accurately ripped (confidence 1) [92065C5C] (AR v2) Copy OK
Track 12
Filename L:\FLAC What\Che-Shizu - Yakusoku Wa Dekinai (1984) [FLAC] {ARCD-135}\12 - 英雄.wav
Pre-gap length 0:00:04.97
Peak level 100.0 % Extraction speed 9.7 X Track quality 100.0 % Test CRC E26C7712 Copy CRC E26C7712 Accurately ripped (confidence 1) [E12F8428] (AR v2) Copy OK
Track 13
Filename L:\FLAC What\Che-Shizu - Yakusoku Wa Dekinai (1984) [FLAC] {ARCD-135}\13 - 星.wav
Pre-gap length 0:00:02.80
Peak level 100.0 % Extraction speed 10.4 X Track quality 100.0 % Test CRC 90933626 Copy CRC 90933626 Accurately ripped (confidence 1) [B1FB9C05] (AR v2) Copy OK
All tracks accurately ripped
No errors occurred
End of status report
---- CUETools DB Plugin V2.1.3
[CTDB TOCID: YUghrV4VzOHL6IqmmEeyXb1w5vM-] found, Submit result: YUghrV4VzOHL6IqmmEeyXb1w5vM- has been confirmed[3fece11b] (1/1) Accurately ripped
==== Log checksum 203706E34ECB900A191853158BD6E027C4709811FDA6BAC325A327D1927E3092 ====

Содержание индексной карты (.CUE)

REM GENRE FolkREM DATE 1984REM DISCID D90CE60DREM COMMENT "ExactAudioCopy v1.0b3"PERFORMER "Chй-SHIZU"TITLE "Yakusoku Wa Dekinai"FILE "01 - I'm Dancing In My Heart~...wav" WAVE  TRACK 01 AUDIO    TITLE "I'm Dancing In My Heart~.."    PERFORMER "Chй-SHIZU"    INDEX 01 00:00:00FILE "02 - ...wav" WAVE  TRACK 02 AUDIO    TITLE ".."    PERFORMER "Chй-SHIZU"    INDEX 01 00:00:00FILE "03 - ....wav" WAVE  TRACK 03 AUDIO    TITLE "..."    PERFORMER "Chй-SHIZU"    INDEX 01 00:00:00  TRACK 04 AUDIO    TITLE "..."    PERFORMER "Chй-SHIZU"    INDEX 00 05:17:38FILE "04 - ....wav" WAVE    INDEX 01 00:00:00  TRACK 05 AUDIO    TITLE "....."    PERFORMER "Chй-SHIZU"    INDEX 00 04:53:12FILE "05 - ......wav" WAVE    INDEX 01 00:00:00FILE "06 - ........wav" WAVE  TRACK 06 AUDIO    TITLE "......."    PERFORMER "Chй-SHIZU"    INDEX 01 00:00:00  TRACK 07 AUDIO    TITLE "...."    PERFORMER "Chй-SHIZU"    INDEX 00 04:50:30FILE "07 - .....wav" WAVE    INDEX 01 00:00:00  TRACK 08 AUDIO    TITLE "......"    PERFORMER "Chй-SHIZU"    INDEX 00 03:11:13FILE "08 - .......wav" WAVE    INDEX 01 00:00:00FILE "09 - .....wav" WAVE  TRACK 09 AUDIO    TITLE "...."    PERFORMER "Chй-SHIZU"    INDEX 01 00:00:00FILE "10 - ...wav" WAVE  TRACK 10 AUDIO    TITLE ".."    PERFORMER "Chй-SHIZU"    INDEX 01 00:00:00  TRACK 11 AUDIO    TITLE ".............."    PERFORMER "Chй-SHIZU"    INDEX 00 05:26:19FILE "11 - ...............wav" WAVE    INDEX 01 00:00:00  TRACK 12 AUDIO    TITLE ".."    PERFORMER "Chй-SHIZU"    INDEX 00 01:21:10FILE "12 - ...wav" WAVE    INDEX 01 00:00:00  TRACK 13 AUDIO    TITLE "."    PERFORMER "Chй-SHIZU"    INDEX 00 03:34:31FILE "13 - ..wav" WAVE    INDEX 01 00:00:00

Состав

Chie Mukai
kokyu, vocals, lyrics
Tori Kudo
guitar, piano, vocals, lyrics
Takuya Nishimura
bass, vocals
Tsukasa Takahashi
percussion, vocals

[doutdess.info].t282811.torrent
Торрент: Зарегистрирован [ 2018-08-07 13:35 ] · DD3143A1E32043866A39183FBB21E62A6EE5639A

16 KB

Статус: проверено
Скачан: 0 раз
Размер: 368 MB
(Avant-Folk, Freak Folk) [CD] Che-Shizu - Yakusoku wa Dekinai - 1984 (2001), FLAC (tracks+.cue), lossless скачать торрент бесплатно и без регистрации

[Профиль] [ЛС]
Форум Тема Автор Размер
Западноевропейский фолк lossy (Avant-Folk / Finnish Folk Music) Tsuumi Sound System - Floating Letters - 2013, MP3, 320 kbps RelizMAN 113 MB
Этническая музыка Африки и Ближнего Востока lossless (Avant-Folk, Arabic Music) [WEB] Maryam Saleh, Tamer Abu Ghazaleh & Maurice Louca — Lekhfa — 2017, FLAC (tracks), lossless RelizMAN 294 MB
Этническая музыка Африки и Ближнего Востока lossless (Avant-Folk, Arabic Music, Avant-Garde Jazz) [WEB] Nadah el Shazly - Ahwar - 2017, FLAC (tracks), lossless RelizMAN 223 MB
Этническая музыка Сибири, Средней и Восточной Азии lossless (Avant-Folk, Experimental) [CD] Geinoh Yamashirogumi (芸能山城組) - "Africa Genjoh (The African Vision Singing)" - 1994 (1982), FLAC (tracks+.cue), lossless RelizMAN 202 MB
Этническая музыка Австралии, Тихого и Индийского океанов lossy и lossless (Avant-Folk, Psychedelic Folk) [WEB] Senyawa — Menjadi — 2015, FLAC (tracks), lossless RelizMAN 266 MB
Восточноевропейский фолк в lossless (Avant-Folk, Slovenian Folk Music) [WEB] Sirom (Širom) - I Can Be a Clay Snapper - 2017, FLAC (tracks), lossless Vi$itReal 218 MB
Показать сообщения:    

Текущее время: 25-Мар 21:39

Часовой пояс: UTC + 3



Вы не можете начинать темы
Вы не можете отвечать на сообщения
Вы не можете редактировать свои сообщения
Вы не можете удалять свои сообщения
Вы не можете голосовать в опросах
Вы не можете прикреплять файлы к сообщениям
Вы можете скачивать файлы