Reply to topic
DL-List and Torrent activity [Update пиров]
Size:  1.12 GB   |    Registered:  3 years 8 months   |    Completed:  0 times
Seeders:  116  [  0 KB/s  ]   Leechers:  24  [  0 KB/s  ]  
 
     
 
 
Author Message

RelizMAN ®

11

Post 05-Oct-2015 00:31

[Quote]

All Music Of The World, A Collection Of Ambiant Music Remixed With Native Sound
Жанр: World Music, Native
Носитель: CD
Страна-производитель диска (релиза): EU
Год издания: 2001
Издатель (лейбл): Rainbowcd.com
Номер по каталогу: 6233
Страна исполнителя (группы): World
Аудиокодек: APE (*.ape)
Тип рипа: image+.cue
Битрейт аудио: lossless
Продолжительность: 74'54+72'26+74'18
Источник (релизер): Own rip
Наличие сканов в содержимом раздачи: да

Треклист:

CD1
1. Ikebana's Sacrifice
2. Bamiléké Rhythm
3. Lama Lyric
4. Dancing Shiva
5. Lotus Ode
6. Trees Of Moisture
7. Birth Of The Falcon
8. Coral Garden
9. Palace of Eternal Spring
10. Snowy Landscape
11. Nightfall over Lebombo
12. At the Tigre's Pace
CD2
1. Blue Lobelia
2. Pearlriver Sunset
3. Fujitemper
4. Mare Nui Theatre
5. Monsoon Approaches
6. Eire
7. Pichola
8. Hunting Grounds
9. Inca Trial
10. A Tantric Titual
11. Dazzling Savannah
12. Green Tara
CD3
1. Hitching Place of the Sun
2. Sichuan Mix
3. Jokhang Soul
4. Rwenzori Labyrinth
5. Tiare Tahiti
6. Tokyo Bay
7. Sita's Lullaby
8. Return to Moose Jaw
9. Footsteps in Red Soil
10. Temple of Brahma
11. Overwhelming Morn
13. Dynastie of Mercy

Лог создания рипа

CD1

Exact Audio Copy V1.0 beta 6 from 9. April 2015
EAC extraction logfile from 19. August 2015, 19:14
Various / All Music of the World CD1
Used drive : TSSTcorpCDDVDW SE-208AB Adapter: 1 ID: 2
Read mode : Secure
Utilize accurate stream : Yes
Defeat audio cache : Yes
Make use of C2 pointers : No
Read offset correction : 6
Overread into Lead-In and Lead-Out : No
Fill up missing offset samples with silence : Yes
Delete leading and trailing silent blocks : No
Null samples used in CRC calculations : Yes
Used interface : Native Win32 interface for Win NT & 2000
Used output format : Monkey's Audio Lossless Encoder
Selected bitrate : High Lossless Compression
Quality : High
Add ID3 tag : Yes
Command line compressor : C:\Program Files (x86)\Exact Audio Copy\MAC\MAC.exe
TOC of the extracted CD
Track | Start | Length | Start sector | End sector
---------------------------------------------------------
1 | 0:00.00 | 6:15.32 | 0 | 28156
2 | 6:15.32 | 7:02.26 | 28157 | 59832
3 | 13:17.58 | 5:50.48 | 59833 | 86130
4 | 19:08.31 | 6:25.67 | 86131 | 115072
5 | 25:34.23 | 5:40.03 | 115073 | 140575
6 | 31:14.26 | 5:09.49 | 140576 | 163799
7 | 36:24.00 | 5:48.21 | 163800 | 189920
8 | 42:12.21 | 6:50.73 | 189921 | 220743
9 | 49:03.19 | 6:21.32 | 220744 | 249350
10 | 55:24.51 | 7:46.20 | 249351 | 284320
11 | 63:10.71 | 5:55.59 | 284321 | 311004
12 | 69:06.55 | 5:47.36 | 311005 | 337065
Range status and errors
Selected range
Filename D:\EAC\All Music of the World CD1.wav
Peak level 100.0 %
Extraction speed 2.1 X
Range quality 100.0 %
Test CRC 3F507F07
Copy CRC 3F507F07
Copy OK
No errors occurred
AccurateRip summary
Track 1 accurately ripped (confidence 2) [E9ABD7D0] (AR v1)
Track 2 accurately ripped (confidence 2) [9FB380EC] (AR v1)
Track 3 accurately ripped (confidence 2) [04E1E105] (AR v1)
Track 4 accurately ripped (confidence 2) [9C56E503] (AR v1)
Track 5 accurately ripped (confidence 2) [B89DB8FA] (AR v1)
Track 6 accurately ripped (confidence 2) [658DCD4F] (AR v1)
Track 7 accurately ripped (confidence 2) [498C2A24] (AR v1)
Track 8 accurately ripped (confidence 2) [B00A5729] (AR v1)
Track 9 accurately ripped (confidence 2) [69AF603A] (AR v1)
Track 10 accurately ripped (confidence 1) [4C97BA9E] (AR v2)
Track 11 accurately ripped (confidence 1) [7046D9ED] (AR v2)
Track 12 accurately ripped (confidence 1) [BDC7331F] (AR v2)
All tracks accurately ripped
End of status report
---- CUETools DB Plugin V2.1.6
[CTDB TOCID: 1x4CAXUAiYPNkuOYPFjrj5EQODY-] found
Submit result: 1x4CAXUAiYPNkuOYPFjrj5EQODY- has been confirmed
Track | CTDB Status
1 | (1/1) Accurately ripped
2 | (1/1) Accurately ripped
3 | (1/1) Accurately ripped
4 | (1/1) Accurately ripped
5 | (1/1) Accurately ripped
6 | (1/1) Accurately ripped
7 | (1/1) Accurately ripped
8 | (1/1) Accurately ripped
9 | (1/1) Accurately ripped
10 | (1/1) Accurately ripped
11 | (1/1) Accurately ripped
12 | (1/1) Accurately ripped
==== Log checksum D316AB8785ACE72A8451DA30991DFBC4A8D46A56CE952DFE7BBEEC6788E1CD1A ====

CD2

Exact Audio Copy V1.0 beta 6 from 9. April 2015
EAC extraction logfile from 19. August 2015, 18:34
Various / All Music of the World CD2
Used drive : TS8XDVDSTRANSCEND Adapter: 1 ID: 1
Read mode : Secure
Utilize accurate stream : Yes
Defeat audio cache : Yes
Make use of C2 pointers : No
Read offset correction : 6
Overread into Lead-In and Lead-Out : No
Fill up missing offset samples with silence : Yes
Delete leading and trailing silent blocks : No
Null samples used in CRC calculations : Yes
Used interface : Native Win32 interface for Win NT & 2000
Used output format : Monkey's Audio Lossless Encoder
Selected bitrate : High Lossless Compression
Quality : High
Add ID3 tag : Yes
Command line compressor : C:\Program Files (x86)\Exact Audio Copy\MAC\MAC.exe
TOC of the extracted CD
Track | Start | Length | Start sector | End sector
---------------------------------------------------------
1 | 0:00.00 | 7:07.39 | 0 | 32063
2 | 7:07.39 | 6:08.21 | 32064 | 59684
3 | 13:15.60 | 7:28.34 | 59685 | 93318
4 | 20:44.19 | 5:28.45 | 93319 | 117963
5 | 26:12.64 | 5:49.03 | 117964 | 144141
6 | 32:01.67 | 3:53.20 | 144142 | 161636
7 | 35:55.12 | 6:30.74 | 161637 | 190960
8 | 42:26.11 | 6:01.56 | 190961 | 218091
9 | 48:27.67 | 7:59.74 | 218092 | 254090
10 | 56:27.66 | 5:18.36 | 254091 | 277976
11 | 61:46.27 | 4:48.68 | 277977 | 299644
12 | 66:35.20 | 5:50.18 | 299645 | 325912
Range status and errors
Selected range
Filename D:\EAC\All Music of the World CD2.wav
Peak level 99.8 %
Extraction speed 4.8 X
Range quality 100.0 %
Test CRC D7A4B862
Copy CRC D7A4B862
Copy OK
No errors occurred
AccurateRip summary
Track 1 accurately ripped (confidence 1) [229ACFE8] (AR v2)
Track 2 accurately ripped (confidence 1) [D568A344] (AR v2)
Track 3 accurately ripped (confidence 1) [4BB7F722] (AR v2)
Track 4 accurately ripped (confidence 1) [22DEB143] (AR v2)
Track 5 accurately ripped (confidence 1) [D2690631] (AR v2)
Track 6 accurately ripped (confidence 1) [96BA5720] (AR v2)
Track 7 accurately ripped (confidence 1) [38BE5690] (AR v2)
Track 8 accurately ripped (confidence 1) [9746F44C] (AR v2)
Track 9 accurately ripped (confidence 1) [F5F4240E] (AR v2)
Track 10 accurately ripped (confidence 1) [9B5F2A1E] (AR v2)
Track 11 accurately ripped (confidence 1) [F1857098] (AR v2)
Track 12 accurately ripped (confidence 1) [B0C772A9] (AR v2)
All tracks accurately ripped
End of status report
---- CUETools DB Plugin V2.1.6
[CTDB TOCID: yjGxcgJwxooXVEKNx_q7coqr2do-] found
Submit result: unrecognized or virtual drive
Track | CTDB Status
1 | (2/2) Accurately ripped
2 | (2/2) Accurately ripped
3 | (2/2) Accurately ripped
4 | (2/2) Accurately ripped
5 | (2/2) Accurately ripped
6 | (2/2) Accurately ripped
7 | (2/2) Accurately ripped
8 | (2/2) Accurately ripped
9 | (2/2) Accurately ripped
10 | (2/2) Accurately ripped
11 | (2/2) Accurately ripped
12 | (2/2) Accurately ripped
==== Log checksum 474E7C35FB0001B27D53322E449CC68779DFA0BC202557FD0164BF817F7E00CE ====

CD3

Exact Audio Copy V1.0 beta 6 from 9. April 2015
EAC extraction logfile from 19. August 2015, 19:14
Various / All Music of the World CD3
Used drive : HL-DT-STDVDRAM GH22NS50 Adapter: 1 ID: 0
Read mode : Secure
Utilize accurate stream : Yes
Defeat audio cache : Yes
Make use of C2 pointers : No
Read offset correction : 667
Overread into Lead-In and Lead-Out : No
Fill up missing offset samples with silence : Yes
Delete leading and trailing silent blocks : No
Null samples used in CRC calculations : Yes
Used interface : Native Win32 interface for Win NT & 2000
Used output format : Monkey's Audio Lossless Encoder
Selected bitrate : High Lossless Compression
Quality : High
Add ID3 tag : Yes
Command line compressor : C:\Program Files (x86)\Exact Audio Copy\MAC\MAC.exe
TOC of the extracted CD
Track | Start | Length | Start sector | End sector
---------------------------------------------------------
1 | 0:00.00 | 4:53.18 | 0 | 21992
2 | 4:53.18 | 6:47.48 | 21993 | 52565
3 | 11:40.66 | 6:29.28 | 52566 | 81768
4 | 18:10.19 | 5:26.27 | 81769 | 106245
5 | 23:36.46 | 6:13.08 | 106246 | 134228
6 | 29:49.54 | 6:34.06 | 134229 | 163784
7 | 36:23.60 | 5:13.20 | 163785 | 187279
8 | 41:37.05 | 5:59.00 | 187280 | 214204
9 | 47:36.05 | 4:36.22 | 214205 | 234926
10 | 52:12.27 | 4:32.22 | 234927 | 255348
11 | 56:44.49 | 5:25.55 | 255349 | 279778
12 | 62:10.29 | 5:35.26 | 279779 | 304929
13 | 67:45.55 | 6:32.08 | 304930 | 334337
Range status and errors
Selected range
Filename D:\EAC\All Music of the World CD3.wav
Peak level 99.7 %
Extraction speed 2.1 X
Range quality 99.9 %
Test CRC BFEF5857
Copy CRC BFEF5857
Copy OK
No errors occurred
AccurateRip summary
Track 1 accurately ripped (confidence 1) [7B242828] (AR v2)
Track 2 accurately ripped (confidence 1) [9F5433CF] (AR v2)
Track 3 accurately ripped (confidence 1) [DD4887B2] (AR v2)
Track 4 accurately ripped (confidence 1) [057B5527] (AR v2)
Track 5 accurately ripped (confidence 1) [91A06842] (AR v2)
Track 6 accurately ripped (confidence 1) [3C1BE9DF] (AR v2)
Track 7 accurately ripped (confidence 1) [9C12B729] (AR v2)
Track 8 accurately ripped (confidence 1) [7C88F4DD] (AR v2)
Track 9 accurately ripped (confidence 1) [3C6EC1AE] (AR v2)
Track 10 accurately ripped (confidence 1) [A7A492B8] (AR v2)
Track 11 accurately ripped (confidence 1) [0F6DA8B0] (AR v2)
Track 12 accurately ripped (confidence 1) [0AE12384] (AR v2)
Track 13 accurately ripped (confidence 1) [D4046FFF] (AR v2)
All tracks accurately ripped
End of status report
---- CUETools DB Plugin V2.1.6
[CTDB TOCID: X9P9oGlLO3rSbG833VV_RMVRsOM-] found
Submit result: X9P9oGlLO3rSbG833VV_RMVRsOM- has been confirmed
Track | CTDB Status
1 | (1/1) Accurately ripped
2 | (1/1) Accurately ripped
3 | (1/1) Accurately ripped
4 | (1/1) Accurately ripped
5 | (1/1) Accurately ripped
6 | (1/1) Accurately ripped
7 | (1/1) Accurately ripped
8 | (1/1) Accurately ripped
9 | (1/1) Accurately ripped
10 | (1/1) Accurately ripped
11 | (1/1) Accurately ripped
12 | (1/1) Accurately ripped
13 | (1/1) Accurately ripped
==== Log checksum EFB0F6B1D4EE673BFD570A96EE2839723BB6E86003D5FB472E3DBEC589AE94CF ====

Содержание индексной карты (.CUE)

CD1

REM GENRE Fusion
REM DATE 2001
REM DISCID BF118E0C
REM COMMENT "ExactAudioCopy v1.0b6"
PERFORMER "Various"
TITLE "All Music of the World CD1"
FILE "All Music of the World CD1.ape" WAVE
TRACK 01 AUDIO
TITLE "Ikebana's Sacrifice"
PERFORMER "Various"
INDEX 01 00:00:00
TRACK 02 AUDIO
TITLE "Bamiléké Rhythm"
PERFORMER "Various"
INDEX 00 06:13:32
INDEX 01 06:15:32
TRACK 03 AUDIO
TITLE "Lama Lyric"
PERFORMER "Various"
INDEX 00 13:15:58
INDEX 01 13:17:58
TRACK 04 AUDIO
TITLE "Dancing Shiva"
PERFORMER "Various"
INDEX 00 19:06:31
INDEX 01 19:08:31
TRACK 05 AUDIO
TITLE "Lotus Ode"
PERFORMER "Various"
INDEX 00 25:32:23
INDEX 01 25:34:23
TRACK 06 AUDIO
TITLE "Trees Of Moisture"
PERFORMER "Various"
INDEX 00 31:12:26
INDEX 01 31:14:26
TRACK 07 AUDIO
TITLE "Birth Of The Falcon"
PERFORMER "Various"
INDEX 00 36:22:00
INDEX 01 36:24:00
TRACK 08 AUDIO
TITLE "Coral Garden"
PERFORMER "Various"
INDEX 00 42:10:21
INDEX 01 42:12:21
TRACK 09 AUDIO
TITLE "Palace of Eternal Spring"
PERFORMER "Various"
INDEX 00 49:01:19
INDEX 01 49:03:19
TRACK 10 AUDIO
TITLE "Snowy Landscape"
PERFORMER "Various"
INDEX 00 55:22:51
INDEX 01 55:24:51
TRACK 11 AUDIO
TITLE "Nightfall over Lebombo"
PERFORMER "Various"
INDEX 00 63:08:71
INDEX 01 63:10:71
TRACK 12 AUDIO
TITLE "At the Tigre's Pace"
PERFORMER "Various"
INDEX 00 69:04:55
INDEX 01 69:06:55

CD2

REM GENRE Fusion
REM DATE 2001
REM DISCID D010F90C
REM COMMENT "ExactAudioCopy v1.0b6"
PERFORMER "Various"
TITLE "All Music of the World CD2"
FILE "All Music of the World CD2.ape" WAVE
TRACK 01 AUDIO
TITLE "Blue Lobelia"
PERFORMER "Various"
INDEX 01 00:00:00
TRACK 02 AUDIO
TITLE "Pearlriver Sunset"
PERFORMER "Various"
INDEX 01 07:07:39
TRACK 03 AUDIO
TITLE "Fujitemper"
PERFORMER "Various"
INDEX 01 13:15:60
TRACK 04 AUDIO
TITLE "Mare Nui Theatre"
PERFORMER "Various"
INDEX 01 20:44:19
TRACK 05 AUDIO
TITLE "Monsoon Approaches"
PERFORMER "Various"
INDEX 01 26:12:64
TRACK 06 AUDIO
TITLE "Eire"
PERFORMER "Various"
INDEX 01 32:01:67
TRACK 07 AUDIO
TITLE "Pichola"
PERFORMER "Various"
INDEX 01 35:55:12
TRACK 08 AUDIO
TITLE "Hunting Grounds"
PERFORMER "Various"
INDEX 01 42:26:11
TRACK 09 AUDIO
TITLE "Inca Trial"
PERFORMER "Various"
INDEX 01 48:27:67
TRACK 10 AUDIO
TITLE "A Tantric Titual"
PERFORMER "Various"
INDEX 01 56:27:66
TRACK 11 AUDIO
TITLE "Dazzling Savannah"
PERFORMER "Various"
INDEX 01 61:46:27
TRACK 12 AUDIO
TITLE "Green Tara"
PERFORMER "Various"
INDEX 01 66:35:20

CD3

REM GENRE Fusion
REM DATE 2001
REM DISCID BE11690D
REM COMMENT "ExactAudioCopy v1.0b6"
PERFORMER "Various"
TITLE "All Music of the World CD3"
FILE "All Music of the World CD3.ape" WAVE
TRACK 01 AUDIO
TITLE "Hitching Place of the Sun"
PERFORMER "Various"
INDEX 01 00:00:00
TRACK 02 AUDIO
TITLE "Sichuan Mix"
PERFORMER "Various"
INDEX 01 04:53:18
TRACK 03 AUDIO
TITLE "Jokhang Soul"
PERFORMER "Various"
INDEX 01 11:40:66
TRACK 04 AUDIO
TITLE "Rwenzori Labyrinth"
PERFORMER "Various"
INDEX 01 18:10:19
TRACK 05 AUDIO
TITLE "Tiare Tahiti"
PERFORMER "Various"
INDEX 01 23:36:46
TRACK 06 AUDIO
TITLE "Tokyo Bay"
PERFORMER "Various"
INDEX 01 29:49:54
TRACK 07 AUDIO
TITLE "Sita's Lullaby"
PERFORMER "Various"
INDEX 01 36:23:60
TRACK 08 AUDIO
TITLE "Return to Moose Jaw"
PERFORMER "Various"
INDEX 01 41:37:05
TRACK 09 AUDIO
TITLE "Footsteps in Red Soil"
PERFORMER "Various"
INDEX 01 47:36:05
TRACK 10 AUDIO
TITLE "Temple of Brahma"
PERFORMER "Various"
INDEX 01 52:12:27
TRACK 11 AUDIO
TITLE "Overwhelming Morning Glory"
PERFORMER "Various"
INDEX 01 56:44:49
TRACK 12 AUDIO
TITLE "Himalays Wind Ode"
PERFORMER "Various"
INDEX 01 62:10:29
TRACK 13 AUDIO
TITLE "Dynastie of Mercy"
PERFORMER "Various"
INDEX 01 67:45:55

[doutdess.info].t81072.torrent
Torrent: Registered [ 2015-10-05 00:30 ] · F474CA8C7255927F67A28FB10832F9D98324CCD1

13 KB

Status: checked
Completed: 0 times
Size: 1.12 GB
(World Music, Native) [CD] VA - All Music Of The World, A Collection Of Ambiant Music Remixed With Native Sound - 2001, APE (image+.cue), lossless скачать торрент бесплатно и без регистрации

[Profile] [PM]
Forum Topic Author Size
Этническая музыка Северной и Южной Америки lossy ((World music / Panflute/ Folk)) Chakira - Il Flauto Di Pan, El Siku / La Puerta Del Sol (2 альбома) - 2000, 2002, MP3, 320 kbps RelizMAN 279 MB
Саундтреки к играм lossy (Soundtrack) Assassin\'s Creed Odyssey (World Music & Sea Shanties Edition) (by Various Artists) - 2018, MP3, 320 kbps Vi$itReal 103 MB
Этническая музыка Австралии, Тихого и Индийского океанов lossy и lossless (World music ) [CD] Bob Brozman & Ledward Kaapana - Kika Kila Meets Ki Ho\'alu - 1997, FLAC (image+.cue), lossless RelizMAN 426 MB
Этническая музыка Африки и Ближнего Востока lossless (World music / Ethnic / Middle Eastern) [CD] Ofra Haza - Tzipori - 2014, FLAC (tracks+.cue), lossless RelizMAN 444 MB
Фламенко и акустическая гитара lossy (World Music / Meditative) Estas Tonne - Дискография (27 релизов) - 2002-2018, MP3, 320 kbps Vi$itReal 2.3 GB
Этническая музыка Африки и Ближнего Востока lossy (World music | Afro-beat) Geoffrey Oryema - Beat The Border - 2018 (1993), MP3, 320 kbps Vi$itReal 124 MB
Этническая музыка Кавказа и Закавказья lossy и lossless (World music) Alim Qâsimov: Anthologie du Muğam d’Azerbaïdjan / Alim Qasimov: Anthology Of The Mugam. Azerbaijan (vol. 1–2, Inedit, 1989...2005), FLAC (tracks+.cue) lossless Vi$itReal 550 MB
Этническая музыка Северной и Южной Америки lossless (World Music) Andy Palacio & The Garifuna Collective - Watina - 2007, FLAC (tracks+.cue), lossless Vi$itReal 282 MB
Display posts:    

Current time is: 27-Jun 15:02

All times are UTC + 3



You cannot post new topics in this forum
You cannot reply to topics in this forum
You cannot edit your posts in this forum
You cannot delete your posts in this forum
You cannot vote in polls in this forum
You cannot attach files in this forum
You can download files in this forum