Reply to topic
DL-List and Torrent activity [Update пиров]
Size:  159 MB   |    Registered:  3 years 8 months   |    Completed:  2 times
Seeders:  258  [  0 KB/s  ]   Leechers:  22  [  0 KB/s  ]  
 
     
 
 
Author Message

RelizMAN ®

11

Post 05-Oct-2015 14:30

[Quote]

Gustavo Montesano & Royal Philharmonic Orchestra - Tango Adagio

-
-Жанр: Latin | Classical | Flamenco
Носитель: CD
Год издания: 2001
Издатель (лейбл): Trident B.V. / EMI
Номер по каталогу: 200 1366
Страна исполнителя (группы): Mexico
Аудиокодек: FLAC (*.flac)
Тип рипа: tracks+.cue
Битрейт аудио: lossless
Продолжительность: 00:11:35
Источник (релизер): inet
Наличие сканов : да
Треклист:
01. Tango Adagio (Miami Beach Remix) [00:03:48]
02. Tango Adagio (Cool Dance Remix) [00:04:11]
03. Tango Adagio (Album Version) [00:03:35]
-
-
-

Лог создания рипа

Exact Audio Copy V1.0 beta 3 from 29. August 2011
EAC extraction logfile from 13. June 2015, 21:13
Gustavo Montesano & Royal Philharmonic Orchestra / Tango Adagio
Used drive : SONY DVD RW DRU-720A Adapter: 0 ID: 0
Read mode : SecureUtilize accurate stream : YesDefeat audio cache : YesMake use of C2 pointers : No
Read offset correction : 12Overread into Lead-In and Lead-Out : NoFill up missing offset samples with silence : YesDelete leading and trailing silent blocks : NoNull samples used in CRC calculations : YesUsed interface : Native Win32 interface for Win NT & 2000Gap handling : Appended to previous track
Used output format : User Defined EncoderSelected bitrate : 1024 kBit/sQuality : HighAdd ID3 tag : NoCommand line compressor : C:\Program Files (x86)\Exact Audio Copy\Flac\flac.exeAdditional command line options : -8 -V -T "COMMENT=ripped by DrStandBy special for new-team.org" -T "ARTIST=%artist%" -T "TITLE=%title%" -T "ALBUM=%albumtitle%" -T "DATE=%year%" -T "TRACKNUMBER=%tracknr%" -T "GENRE=%genre%" %source%
TOC of the extracted CD
Track | Start | Length | Start sector | End sector --------------------------------------------------------- 1 | 0:00.00 | 3:48.55 | 0 | 17154 2 | 3:48.55 | 4:11.27 | 17155 | 36006 3 | 8:00.07 | 3:35.25 | 36007 | 52156 4 | 14:07.32 | 19:49.50 | 63557 | 152781
Track 1
Filename G:\Gustavo Montesano & Royal Philarmonic Orchestra\2001 - Gustavo Montesano & Royal Philarmonic Orchestra - Tango Adagio (200 1366)\01. Gustavo Montesano & Royal Philharmonic Orchestra - Tango Adagio (Miami Beach Remix).wav
Pre-gap length 0:00:02.00
Peak level 94.4 % Extraction speed 5.8 X Track quality 99.9 % Test CRC 2F311A2D Copy CRC 2F311A2D Track not present in AccurateRip database Copy OK
Track 2
Filename G:\Gustavo Montesano & Royal Philarmonic Orchestra\2001 - Gustavo Montesano & Royal Philarmonic Orchestra - Tango Adagio (200 1366)\02. Gustavo Montesano & Royal Philharmonic Orchestra - Tango Adagio (Cool Dance Remix).wav
Pre-gap length 0:00:02.03
Peak level 94.4 % Extraction speed 6.3 X Track quality 100.0 % Test CRC 220A3435 Copy CRC 220A3435 Track not present in AccurateRip database Copy OK
Track 3
Filename G:\Gustavo Montesano & Royal Philarmonic Orchestra\2001 - Gustavo Montesano & Royal Philarmonic Orchestra - Tango Adagio (200 1366)\03. Gustavo Montesano & Royal Philharmonic Orchestra - Tango Adagio (Album Version).wav
Pre-gap length 0:00:02.40
Peak level 100.0 % Extraction speed 4.5 X Track quality 100.0 % Test CRC D56E1D20 Copy CRC D56E1D20 Track not present in AccurateRip database Copy OK
None of the tracks are present in the AccurateRip database
No errors occurred
End of status report
---- CUETools DB Plugin V2.1.6
[CTDB TOCID: M58PXds8gvev2uTtZx8JWMSr1iY-] foundSubmit result: M58PXds8gvev2uTtZx8JWMSr1iY- has been confirmedTrack | CTDB Status 1 | (1/1) Accurately ripped 2 | (1/1) Accurately ripped 3 | (1/1) Accurately ripped
==== Log checksum 325B0DA621B2C9AE8E2D67810DB1F516A450C49620701ECD09FAA1B0EAF12E6C ====

Содержание индексной карты (.CUE)

REM GENRE FlamencoREM DATE 2001REM DISCID 2A07F504REM COMMENT "ExactAudioCopy v1.0b3"CATALOG 0401003171501PERFORMER "Gustavo Montesano & Royal Philharmonic Orchestra"TITLE "Tango Adagio"FILE "01. Gustavo Montesano & Royal Philharmonic Orchestra - Tango Adagio (Miami Beach Remix).wav" WAVE TRACK 01 AUDIO TITLE "Tango Adagio (Miami Beach Remix)" PERFORMER "Gustavo Montesano & Royal Philharmonic Orchestra" INDEX 01 00:00:00 TRACK 02 AUDIO TITLE "Tango Adagio (Cool Dance Remix)" PERFORMER "Gustavo Montesano & Royal Philharmonic Orchestra" INDEX 00 03:46:52FILE "02. Gustavo Montesano & Royal Philharmonic Orchestra - Tango Adagio (Cool Dance Remix).wav" WAVE INDEX 01 00:00:00 TRACK 03 AUDIO TITLE "Tango Adagio (Album Version)" PERFORMER "Gustavo Montesano & Royal Philharmonic Orchestra" INDEX 00 04:08:62FILE "03. Gustavo Montesano & Royal Philharmonic Orchestra - Tango Adagio (Album Version).wav" WAVE INDEX 01 00:00:00 TRACK 04 MODEx/2xxx TITLE "Tango Adagio (Video)" PERFORMER "Gustavo Montesano & Royal Philharmonic Orchestra" INDEX 00 03:35:25

Лог проверки качества

-----------------------
DON'T MODIFY THIS FILE
-----------------------
PERFORMER: auCDtect Task Manager, ver. 1.6.0 RC1 build 1.6.0.1Copyright (c) 2008-2010 y-soft. All rights reservedhttp://y-soft.org
ANALYZER: auCDtect: CD records authenticity detector, version 0.8.2Copyright (c) 2004 Oleg Berngardt. All rights reserved.Copyright (c) 2004 Alexander Djourik. All rights reserved.
FILE: 03. Gustavo Montesano & Royal Philharmonic Orchestra - Tango Adagio (Album Version).flac Size: 22039869 Hash: D7E056C081ED971967BDBC40D612E605 Accuracy: -m0 Conclusion: CDDA 100% Signature: 05385E592208E575FCB4C0CAC10673A816415094FILE: 02. Gustavo Montesano & Royal Philharmonic Orchestra - Tango Adagio (Cool Dance Remix).flac Size: 28532408 Hash: 0BB7C581B1A0974C1DF7AE543A4D672E Accuracy: -m0 Conclusion: CDDA 100% Signature: 6CC4C405EDB05487844F129DD5DE4922C5809551FILE: 01. Gustavo Montesano & Royal Philharmonic Orchestra - Tango Adagio (Miami Beach Remix).flac Size: 26575904 Hash: 2C93EA4B5B91622B256C5FCF753DF771 Accuracy: -m0 Conclusion: CDDA 100% Signature: F6769595B9C10122A161092EB5B48E80031CE2F6

Скриншот спектра частот


[doutdess.info].t81187.torrent
Torrent: Registered [ 2015-10-05 14:30 ] · 994B8D1A137F0D86F266A92F5F63A28D6EE42861

14 KB

Status: checked
Completed: 2 times
Size: 159 MB
(Latin | Classical | Flamenco) [CD] Gustavo Montesano & Royal Philharmonic Orchestra - Tango Adagio - 2001, FLAC (tracks+.cue), lossless скачать торрент бесплатно и без регистрации

[Profile] [PM]
Display posts:    

Current time is: 24-Jun 18:26

All times are UTC + 3



You cannot post new topics in this forum
You cannot reply to topics in this forum
You cannot edit your posts in this forum
You cannot delete your posts in this forum
You cannot vote in polls in this forum
You cannot attach files in this forum
You can download files in this forum