Reply to topic
DL-List and Torrent activity [Update пиров]
Size:  304 MB   |    Registered:  3 years 8 months   |    Completed:  1 time
Seeders:  704  [  0 KB/s  ]   Leechers:  12  [  0 KB/s  ]  
 
     
 
 
Author Message

RelizMAN ®

11

Post 05-Oct-2015 00:31

[Quote]

Fan Zong-pei - Colors of Water
Жанр: New Age, Instrumental
Носитель: CD
Год издания: 2004
Издатель (лейбл): Wind
Номер по каталогу: TCD-5279
Аудиокодек: FLAC (*.flac)
Тип рипа: image+.cue
Битрейт аудио: lossless
Продолжительность: 55:57
Источник (релизер): internet
Наличие сканов в содержимом раздачи: нет
Треклист:
1. 奇遇
2. 水色(廣播主打曲)
3. 十三月
4. 擺渡人之歌
5. 煙波弄
6. 錯過
7. 青石的街道向晚
8. 靜水深流
9. 告別

Содержание индексной карты (.CUE)

PERFORMER "风潮音乐"TITLE "TCD-5279 水色"FILE "CDImage.flac" WAVE TRACK 01 AUDIO TITLE "奇遇" PERFORMER "范宗沛" INDEX 01 00:00:00 TRACK 02 AUDIO TITLE "水色" PERFORMER "范宗沛" INDEX 00 07:01:03 INDEX 01 07:03:00 TRACK 03 AUDIO TITLE "十三月" PERFORMER "范宗沛" INDEX 00 12:35:44 INDEX 01 12:37:25 TRACK 04 AUDIO TITLE "摆渡人之歌" PERFORMER "范宗沛" INDEX 00 16:23:13 INDEX 01 16:25:07 TRACK 05 AUDIO TITLE "烟波弄" PERFORMER "范宗沛" INDEX 01 22:12:30 TRACK 06 AUDIO TITLE "错过" PERFORMER "范宗沛" INDEX 00 28:48:17 INDEX 01 28:50:40 TRACK 07 AUDIO TITLE "青石的街道向晚" PERFORMER "范宗沛" INDEX 00 37:50:31 INDEX 01 37:52:45 TRACK 08 AUDIO TITLE "静水深流" PERFORMER "范宗沛" INDEX 00 46:06:66 INDEX 01 46:08:45 TRACK 09 AUDIO TITLE "告别" PERFORMER "范宗沛" INDEX 00 51:36:38 INDEX 01 51:38:57

Лог проверки качества

-----------------------
DON'T MODIFY THIS FILE
-----------------------
PERFORMER: auCDtect Task Manager, ver. 1.6.0 RC1 build 1.6.0.1Copyright (c) 2008-2010 y-soft. All rights reservedhttp://y-soft.org
ANALYZER: auCDtect: CD records authenticity detector, version 0.8.2Copyright (c) 2004 Oleg Berngardt. All rights reserved.Copyright (c) 2004 Alexander Djourik. All rights reserved.
FILE: CDImage.flac Size: 318062920 Hash: 89D21F2C7ED0C8A5FABA9F84915829BE Accuracy: -m0 Conclusion: CDDA 100% Signature: F09BC514E3F327864C3C0315B22F522008D830EA

[doutdess.info].t81090.torrent
Torrent: Registered [ 2015-10-05 00:30 ] · 58375D76321C71357B7C6857F6520C845DB50477

13 KB

Status: checked
Completed: 1 times
Size: 304 MB
(New Age, Instrumental) [CD] Fan Zong-pei - Colors of Water - 2004, FLAC (image+.cue), lossless скачать торрент бесплатно и без регистрации

[Profile] [PM]
Forum Topic Author Size
Фламенко и акустическая гитара lossy (New age, Acoustic guitar) Moreza - Crimson Moon - 2011, MP3, 320 kbps Vi$itReal 107 MB
Фламенко и акустическая гитара lossy (New Age, Acoustic guitar) William Ackerman Discography (1976-2010, 14CD) MP3-tracks CBR 320 kbps Vi$itReal 1.41 GB
Фламенко и акустическая гитара lossy (New Age, Acoustic Guitar, Flamenco) Daveed - World of Illusions (2016), MP3, 320 kbps Vi$itReal 75 MB
NewAge & Meditative lossy (New Age, Acoustic) Antonio Morina Gallerio - Old Fashioned Acoustic Music - 2015, MP3, 320 kbps Vi$itReal 135 MB
NewAge & Meditative lossy (New Age, Acoustic, Ambient) Mishroom & The Galactic Family - Along The Same Path - 2016, MP3, 320 kbps Vi$itReal 134 MB
NewAge & Meditative lossless (New Age, Acoustic, Meditative) Ron Korb - \'Flute Traveller\' - 1994, APE (image+.cue), lossless RelizMAN 159 MB
Фольклор, Народная и Этническая музыка собственные оцифровки (New Age, Acoustic, Neofolk) [24/48] Michael Hedges - Aerial Boundaries - 1984, FLAC (image+.cue) RelizMAN 416 MB
Фламенко и акустическая гитара lossless (New Age, Acoustic, Neofolk) [CD] Michael Hedges - Aerial Boundaries - 1984 (2015 Audio Fidelity), FLAC (tracks+.cue), lossless RelizMAN 173 MB
Display posts:    

Current time is: 24-Jun 19:19

All times are UTC + 3



You cannot post new topics in this forum
You cannot reply to topics in this forum
You cannot edit your posts in this forum
You cannot delete your posts in this forum
You cannot vote in polls in this forum
You cannot attach files in this forum
You can download files in this forum