Reply to topic
DL-List and Torrent activity [Update пиров]
Size:  245 MB   |    Registered:  3 years 8 months   |    Completed:  1 time
Seeders:  832  [  0 KB/s  ]   Leechers:  36  [  0 KB/s  ]  
 
     
 
 
Author Message

RelizMAN ®

11

Post 05-Oct-2015 00:31

[Quote]

Sun-Dial (Евгений Гузеев) / Music for relax
Жанр: New Age, Meditative
Носитель: CD
Страна-производитель диска (релиза): Россия
Год издания: 2006
Издатель (лейбл): Капкан
Номер по каталогу: JG-004
Аудиокодек: FLAC (*.flac)
Тип рипа: tracks+.cue
Битрейт аудио: lossless
Продолжительность: 34:50
Источник (релизер): собственный рип
Наличие сканов в содержимом раздачи: да
Треклист:
01. Ave Maria [04:17]
02. Sun-Dial [02:26]
03. Solitude [02:26]
04. Watercolour Painting [02:21]
05. The Milky Way [03:42]
06. Brief Meeting [02:20]
07. Medieval Plot [03:31]
08. Porcelain Dools [02:39]
09. Winter Landscape [03:16]
10. Romantic Journey [03:01]
11. Amphora [02:13]
12. Light [02:43]

Лог создания рипа

Exact Audio Copy V1.1 from 23. June 2015
EAC extraction logfile from 28. July 2015, 19:49
Sun-Dial / Music for relax
Used drive : ASUS SDRW-08D2S-U Adapter: 1 ID: 0
Read mode : SecureUtilize accurate stream : YesDefeat audio cache : YesMake use of C2 pointers : No
Read offset correction : 6Overread into Lead-In and Lead-Out : NoFill up missing offset samples with silence : YesDelete leading and trailing silent blocks : NoNull samples used in CRC calculations : YesUsed interface : Native Win32 interface for Win NT & 2000Gap handling : Appended to previous track
Used output format : User Defined EncoderSelected bitrate : 32 kBit/sQuality : HighAdd ID3 tag : NoCommand line compressor : C:\Exact Audio Copy [installed]\Flac\flac.exeAdditional command line options : -8 -V -T "ARTIST=%artist%" -T "TITLE=%title%" -T "ALBUM=%albumtitle%" -T "DATE=%year%" -T "TRACKNUMBER=%tracknr%" -T "GENRE=%genre%" -T "COMMENT=ripped by Andy aka yetiisyou" %source%
TOC of the extracted CD
Track | Start | Length | Start sector | End sector --------------------------------------------------------- 1 | 0:00.00 | 4:16.32 | 0 | 19231 2 | 4:16.32 | 2:25.24 | 19232 | 30130 3 | 6:41.56 | 2:25.26 | 30131 | 41031 4 | 9:07.07 | 2:20.02 | 41032 | 51533 5 | 11:27.09 | 3:41.44 | 51534 | 68152 6 | 15:08.53 | 2:19.29 | 68153 | 78606 7 | 17:28.07 | 3:30.42 | 78607 | 94398 8 | 20:58.49 | 2:38.20 | 94399 | 106268 9 | 23:36.69 | 3:15.69 | 106269 | 120962 10 | 26:52.63 | 3:00.67 | 120963 | 134529 11 | 29:53.55 | 2:12.53 | 134530 | 144482 12 | 32:06.33 | 2:42.73 | 144483 | 156705
Track 1
Filename E:\!Ripped by Andy aka yetiisyou\Sun-Dial - Music for relax [JG-004] [2006]\01. Ave Maria.wav
Pre-gap length 0:00:02.00
Peak level 78.9 % Extraction speed 2.7 X Track quality 100.0 % Test CRC F4FDCD20 Copy CRC F4FDCD20 Track not present in AccurateRip database Copy OK
Track 2
Filename E:\!Ripped by Andy aka yetiisyou\Sun-Dial - Music for relax [JG-004] [2006]\02. Sun-Dial.wav
Peak level 99.4 % Extraction speed 2.7 X Track quality 100.0 % Test CRC 06AA680A Copy CRC 06AA680A Track not present in AccurateRip database Copy OK
Track 3
Filename E:\!Ripped by Andy aka yetiisyou\Sun-Dial - Music for relax [JG-004] [2006]\03. Solitude.wav
Peak level 71.0 % Extraction speed 2.8 X Track quality 100.0 % Test CRC CDD9197F Copy CRC CDD9197F Track not present in AccurateRip database Copy OK
Track 4
Filename E:\!Ripped by Andy aka yetiisyou\Sun-Dial - Music for relax [JG-004] [2006]\04. Watercolour Painting.wav
Peak level 72.0 % Extraction speed 2.9 X Track quality 100.0 % Test CRC 37CD8D18 Copy CRC 37CD8D18 Track not present in AccurateRip database Copy OK
Track 5
Filename E:\!Ripped by Andy aka yetiisyou\Sun-Dial - Music for relax [JG-004] [2006]\05. The Milky Way.wav
Peak level 75.9 % Extraction speed 3.4 X Track quality 100.0 % Test CRC 322B401F Copy CRC 322B401F Track not present in AccurateRip database Copy OK
Track 6
Filename E:\!Ripped by Andy aka yetiisyou\Sun-Dial - Music for relax [JG-004] [2006]\06. Brief Meeting.wav
Peak level 71.4 % Extraction speed 3.3 X Track quality 100.0 % Test CRC CCC8B2F0 Copy CRC CCC8B2F0 Track not present in AccurateRip database Copy OK
Track 7
Filename E:\!Ripped by Andy aka yetiisyou\Sun-Dial - Music for relax [JG-004] [2006]\07. Medieval Plot.wav
Peak level 83.4 % Extraction speed 3.7 X Track quality 100.0 % Test CRC 8873732F Copy CRC 8873732F Track not present in AccurateRip database Copy OK
Track 8
Filename E:\!Ripped by Andy aka yetiisyou\Sun-Dial - Music for relax [JG-004] [2006]\08. Porcelain Dools.wav
Peak level 74.5 % Extraction speed 3.6 X Track quality 100.0 % Test CRC 5D388CE3 Copy CRC 5D388CE3 Track not present in AccurateRip database Copy OK
Track 9
Filename E:\!Ripped by Andy aka yetiisyou\Sun-Dial - Music for relax [JG-004] [2006]\09. Winter Landscape.wav
Peak level 86.7 % Extraction speed 4.0 X Track quality 100.0 % Test CRC 1498B94A Copy CRC 1498B94A Track not present in AccurateRip database Copy OK
Track 10
Filename E:\!Ripped by Andy aka yetiisyou\Sun-Dial - Music for relax [JG-004] [2006]\10. Romantic Journey.wav
Peak level 75.7 % Extraction speed 3.5 X Track quality 99.9 % Test CRC A83C2060 Copy CRC A83C2060 Track not present in AccurateRip database Copy OK
Track 11
Filename E:\!Ripped by Andy aka yetiisyou\Sun-Dial - Music for relax [JG-004] [2006]\11. Amphora.wav
Peak level 65.6 % Extraction speed 3.9 X Track quality 100.0 % Test CRC 8C508DD9 Copy CRC 8C508DD9 Track not present in AccurateRip database Copy OK
Track 12
Filename E:\!Ripped by Andy aka yetiisyou\Sun-Dial - Music for relax [JG-004] [2006]\12. Light.wav
Peak level 81.8 % Extraction speed 4.2 X Track quality 100.0 % Test CRC CFA6ABA0 Copy CRC CFA6ABA0 Track not present in AccurateRip database Copy OK
None of the tracks are present in the AccurateRip database
No errors occurred
End of status report
---- CUETools DB Plugin V2.1.6
[CTDB TOCID: j8u0QHBvWjO3vsJgpnAw9OlJty0-] disk not present in databaseSubmit result: j8u0QHBvWjO3vsJgpnAw9OlJty0- has been uploaded
==== Log checksum DB2267919E41057600BEECE10767215E7E57D478EC5B40B90FAF11F6BA33A627 ====

Содержание индексной карты (.CUE)

REM DISCID 9E08290CREM COMMENT "ExactAudioCopy v1.1"PERFORMER "Sun-Dial"TITLE "Music for relax"FILE "01. Ave Maria.wav" WAVE TRACK 01 AUDIO TITLE "Ave Maria" PERFORMER "Sun-Dial" INDEX 01 00:00:00FILE "02. Sun-Dial.wav" WAVE TRACK 02 AUDIO TITLE "Sun-Dial" PERFORMER "Sun-Dial" INDEX 01 00:00:00FILE "03. Solitude.wav" WAVE TRACK 03 AUDIO TITLE "Solitude" PERFORMER "Sun-Dial" INDEX 01 00:00:00FILE "04. Watercolour Painting.wav" WAVE TRACK 04 AUDIO TITLE "Watercolour Painting" PERFORMER "Sun-Dial" INDEX 01 00:00:00FILE "05. The Milky Way.wav" WAVE TRACK 05 AUDIO TITLE "The Milky Way" PERFORMER "Sun-Dial" INDEX 01 00:00:00FILE "06. Brief Meeting.wav" WAVE TRACK 06 AUDIO TITLE "Brief Meeting" PERFORMER "Sun-Dial" INDEX 01 00:00:00FILE "07. Medieval Plot.wav" WAVE TRACK 07 AUDIO TITLE "Medieval Plot" PERFORMER "Sun-Dial" INDEX 01 00:00:00FILE "08. Porcelain Dools.wav" WAVE TRACK 08 AUDIO TITLE "Porcelain Dools" PERFORMER "Sun-Dial" INDEX 01 00:00:00FILE "09. Winter Landscape.wav" WAVE TRACK 09 AUDIO TITLE "Winter Landscape" PERFORMER "Sun-Dial" INDEX 01 00:00:00FILE "10. Romantic Journey.wav" WAVE TRACK 10 AUDIO TITLE "Romantic Journey" PERFORMER "Sun-Dial" INDEX 01 00:00:00FILE "11. Amphora.wav" WAVE TRACK 11 AUDIO TITLE "Amphora" PERFORMER "Sun-Dial" INDEX 01 00:00:00FILE "12. Light.wav" WAVE TRACK 12 AUDIO TITLE "Light" PERFORMER "Sun-Dial" INDEX 01 00:00:00

[doutdess.info].t81079.torrent
Torrent: Registered [ 2015-10-05 00:30 ] · A9BD922F6997E7765CA9450C517BBB5445B9D38E

21 KB

Status: checked
Completed: 1 times
Size: 245 MB
(New Age, Meditative) [CD] Sun-Dial (Евгений Гузеев) - Music for relax - 2006, FLAC (tracks+.cue), lossless скачать торрент бесплатно и без регистрации

[Profile] [PM]
Forum Topic Author Size
Фламенко и акустическая гитара lossy (New age, Acoustic guitar) Moreza - Crimson Moon - 2011, MP3, 320 kbps Vi$itReal 107 MB
Фламенко и акустическая гитара lossy (New Age, Acoustic guitar) William Ackerman Discography (1976-2010, 14CD) MP3-tracks CBR 320 kbps Vi$itReal 1.41 GB
Фламенко и акустическая гитара lossy (New Age, Acoustic Guitar, Flamenco) Daveed - World of Illusions (2016), MP3, 320 kbps Vi$itReal 75 MB
NewAge & Meditative lossy (New Age, Acoustic) Antonio Morina Gallerio - Old Fashioned Acoustic Music - 2015, MP3, 320 kbps Vi$itReal 135 MB
NewAge & Meditative lossy (New Age, Acoustic, Ambient) Mishroom & The Galactic Family - Along The Same Path - 2016, MP3, 320 kbps Vi$itReal 134 MB
NewAge & Meditative lossless (New Age, Acoustic, Meditative) Ron Korb - \'Flute Traveller\' - 1994, APE (image+.cue), lossless RelizMAN 159 MB
Фольклор, Народная и Этническая музыка собственные оцифровки (New Age, Acoustic, Neofolk) [24/48] Michael Hedges - Aerial Boundaries - 1984, FLAC (image+.cue) RelizMAN 416 MB
Фламенко и акустическая гитара lossless (New Age, Acoustic, Neofolk) [CD] Michael Hedges - Aerial Boundaries - 1984 (2015 Audio Fidelity), FLAC (tracks+.cue), lossless RelizMAN 173 MB
Display posts:    

Current time is: 27-Jun 15:20

All times are UTC + 3



You cannot post new topics in this forum
You cannot reply to topics in this forum
You cannot edit your posts in this forum
You cannot delete your posts in this forum
You cannot vote in polls in this forum
You cannot attach files in this forum
You can download files in this forum