Reply to topic
DL-List and Torrent activity [Update пиров]
Size:  354 MB   |    Registered:  3 years 8 months   |    Completed:  0 times
Seeders:  509  [  0 KB/s  ]   Leechers:  14  [  0 KB/s  ]  
 
     
 
 
Author Message

RelizMAN ®

11

Post 05-Oct-2015 00:31

[Quote]

Joga Dass - Die Erzengel
Жанр: Meditative, Chakraphon-Musik
Страна-производитель диска: Germany
Год издания диска: 2007
Издатель (лейбл): In Tune Music
Номер по каталогу: JD5
Страна: Germany
Аудио кодек: WAVPack (*.wv)
Тип рипа: image+.cue
Битрейт аудио: lossless
Продолжительность:01:11:33
Источник (релизер): Гордый
Наличие сканов в содержимом раздачи:
Треклист:
01. Michael/B94 05:50
02. Gabriel/B95 05:23
03. Raphael/B96 05:03
04. Uriel/B97 05:23
05. Sandalphon/B98 05:15
06. Zadkiel/B99 05:36
07. Metatron/B100 05:28
08. Jophiel/B101 05:45
09. Samael/B102 05:26
10. Haniel/B103 05:09
11. Chamael/B104 05:13
12. Azreal/B105 05:23
13. Bonus Track 06:40

Лог создания рипа

Exact Audio Copy V1.0 beta 6 from 9. April 2015
EAC extraction logfile from 19. April 2015, 1:37
Joga Dass / Die Erzengel
Used drive : HL-DT-STDVD-ROM DH16NS10 Adapter: 1 ID: 0
Read mode : SecureUtilize accurate stream : YesDefeat audio cache : YesMake use of C2 pointers : No
Read offset correction : 102Overread into Lead-In and Lead-Out : NoFill up missing offset samples with silence : YesDelete leading and trailing silent blocks : NoNull samples used in CRC calculations : YesUsed interface : Native Win32 interface for Win NT & 2000
Used output format : User Defined EncoderSelected bitrate : 896 kBit/sQuality : HighAdd ID3 tag : NoCommand line compressor : C:\Program Files (x86)\Wavpack\wavpack.exeAdditional command line options : -hlmx4 %source% %dest%
TOC of the extracted CD
Track | Start | Length | Start sector | End sector --------------------------------------------------------- 1 | 0:00.00 | 5:49.54 | 0 | 26228 2 | 5:49.54 | 5:22.41 | 26229 | 50419 3 | 11:12.20 | 5:03.10 | 50420 | 73154 4 | 16:15.30 | 5:23.08 | 73155 | 97387 5 | 21:38.38 | 5:15.09 | 97388 | 121021 6 | 26:53.47 | 5:35.38 | 121022 | 146184 7 | 32:29.10 | 5:28.12 | 146185 | 170796 8 | 37:57.22 | 5:44.63 | 170797 | 196659 9 | 43:42.10 | 5:26.30 | 196660 | 221139 10 | 49:08.40 | 5:08.70 | 221140 | 244309 11 | 54:17.35 | 5:12.53 | 244310 | 267762 12 | 59:30.13 | 5:23.08 | 267763 | 291995 13 | 64:53.21 | 6:39.69 | 291996 | 321989
Range status and errors
Selected range
Filename F:\Releases_RAW\Joga Dass - Die Erzengel\Joga Dass - Die Erzengel.wav
Peak level 98.8 % Extraction speed 10.6 X Range quality 99.9 % Test CRC 1086827B Copy CRC 1086827B Copy OK
No errors occurred
AccurateRip summary
Track 1 not present in databaseTrack 2 not present in databaseTrack 3 not present in databaseTrack 4 not present in databaseTrack 5 not present in databaseTrack 6 not present in databaseTrack 7 not present in databaseTrack 8 not present in databaseTrack 9 not present in databaseTrack 10 not present in databaseTrack 11 not present in databaseTrack 12 not present in databaseTrack 13 not present in database
None of the tracks are present in the AccurateRip database
End of status report
---- CUETools DB Plugin V2.1.6
[CTDB TOCID: ivyIYMqTUFVsXSqTIZTInJuFQtE-] disk not present in databaseSubmit result: ivyIYMqTUFVsXSqTIZTInJuFQtE- has been uploaded
==== Log checksum 1D06012115B3FBFA996A8F9BA15A52A59B9ACE44572D0046B17A0DD30CE2D710 ====

Содержание индексной карты (.CUE)

REM GENRE "Meditative"REM DATE 2007REM DISCID C310C50DREM COMMENT "ExactAudioCopy v1.0b6"PERFORMER "Joga Dass"TITLE "Die Erzengel"FILE "Joga Dass - Die Erzengel.wv" WAVE TRACK 01 AUDIO TITLE "Michael" PERFORMER "Joga Dass" FLAGS DCP INDEX 01 00:00:00 TRACK 02 AUDIO TITLE "Gabriel" PERFORMER "Joga Dass" FLAGS DCP INDEX 00 05:46:54 INDEX 01 05:49:54 TRACK 03 AUDIO TITLE "Raphael" PERFORMER "Joga Dass" FLAGS DCP INDEX 00 11:09:20 INDEX 01 11:12:20 TRACK 04 AUDIO TITLE "Uriel" PERFORMER "Joga Dass" FLAGS DCP INDEX 00 16:12:30 INDEX 01 16:15:30 TRACK 05 AUDIO TITLE "Sandalphon" PERFORMER "Joga Dass" FLAGS DCP INDEX 00 21:35:38 INDEX 01 21:38:38 TRACK 06 AUDIO TITLE "Zadkiel" PERFORMER "Joga Dass" FLAGS DCP INDEX 00 26:50:47 INDEX 01 26:53:47 TRACK 07 AUDIO TITLE "Metatron" PERFORMER "Joga Dass" FLAGS DCP INDEX 00 32:26:10 INDEX 01 32:29:10 TRACK 08 AUDIO TITLE "Jophiel" PERFORMER "Joga Dass" FLAGS DCP INDEX 00 37:54:22 INDEX 01 37:57:22 TRACK 09 AUDIO TITLE "Samael" PERFORMER "Joga Dass" FLAGS DCP INDEX 00 43:39:10 INDEX 01 43:42:10 TRACK 10 AUDIO TITLE "Haniel" PERFORMER "Joga Dass" FLAGS DCP INDEX 00 49:05:40 INDEX 01 49:08:40 TRACK 11 AUDIO TITLE "Chamael" PERFORMER "Joga Dass" FLAGS DCP INDEX 00 54:14:35 INDEX 01 54:17:35 TRACK 12 AUDIO TITLE "Azreal" PERFORMER "Joga Dass" FLAGS DCP INDEX 00 59:27:13 INDEX 01 59:30:13 TRACK 13 AUDIO TITLE "Bonus Track" PERFORMER "Joga Dass" FLAGS DCP INDEX 00 64:50:21 INDEX 01 64:53:21

Лог проверки качества

-----------------------
DON'T MODIFY THIS FILE
-----------------------
PERFORMER: auCDtect Task Manager, ver. 1.5.1RC4 build 1.5.1.5Copyright (c) 2008-2010 y-soft. All rights reservedhttp://y-soft.org
ANALYZER: auCDtect: CD records authenticity detector, version 0.8.2Copyright (c) 2004 Oleg Berngardt. All rights reserved.Copyright (c) 2004 Alexander Djourik. All rights reserved.
FILE: Joga Dass - Die Erzengel.wv Size: 332125604 Hash: F25153FF476C75F50F0949D3BCE31C00 Accuracy: -m0 Conclusion: CDDA 43% Signature: C4BC5A6D1C00C1A7C6619EFFF60367291A8A75DF
Доп. информация:

Об исполнителе

Йога Дасс (Joga Dass) – создатель и исполнитель, а лучше сказать - проводник музыки Высших Сфер, приглашающий энергии Архангелов в наше пространство. Вы ощутите волшебное воздействие этих удивительных по красоте и гармонии вибраций каждой клеточкой своего тела. Эта музыка уведет вас в глубины вашего Духа для встречи с самим собой. Исцеляющая на разных уровнях нашего существа, эта музыка зовет к новым открытиям, новым уровням осознания себя для того, чтобы мы могли познать Вселенную.
http://www.intunemusic.de/cds/erzengel.html
http://www.intunemusic.de/CMS/

Back, Disc, Matrix, Spectrogram


[doutdess.info].t81077.torrent
Torrent: Registered [ 2015-10-05 00:30 ] · 7FFDA39ABCD35886E2C2CCD1472CE2E3A875211E

15 KB

Status: checked
Completed: 0 times
Size: 354 MB
(Meditative, Chakraphon-Musik) [CD] Joga Dass - Die Erzengel - 2007 (In Tune Music Germany), WAVPack (image+.cue), lossless скачать торрент бесплатно и без регистрации

[Profile] [PM]
Forum Topic Author Size
NewAge & Meditative lossless (Meditative / Ambient) Ludvig Cimbrelius - Illuviation (Dreamsketches) - 2018, MP3 (tracks), 320 kbps RelizMAN 142 MB
Этническая музыка Индии lossless (Meditative) Ananda Giri - Dhyana Mantra - 2001, FLAC (tracks), lossless RelizMAN 211 MB
NewAge & Meditative lossless (Meditative) Bali meets Asia. Oceans of Tranquility - 2007, APE (image+.cue), lossless RelizMAN 417 MB
NewAge & Meditative lossless (Meditative) Deuter - Atmospheres - 2008, FLAC (tracks+.cue), lossless RelizMAN 270 MB
NewAge & Meditative lossless (Meditative) Enigma & Michael Cretu 2CD [Bootleg] - 2003, FLAC (image+.cue), lossless RelizMAN 744 MB
NewAge & Meditative lossy (Meditative) Japji Sahib - 40 DAY SADHANA - 2016-2017, MP3, 128 kbps Vi$itReal 1.58 GB
NewAge & Meditative lossy (Meditative) Prapannam Das - Collection 1992-2001 - 1992-2001, MP3, 256 kbps Vi$itReal 806 MB
NewAge & Meditative lossless (Meditative) VA - 100% Enigmatic Hits Vol.4 - 2001, APE (image+.cue), lossless RelizMAN 456 MB
Display posts:    

Current time is: 27-Jun 15:40

All times are UTC + 3



You cannot post new topics in this forum
You cannot reply to topics in this forum
You cannot edit your posts in this forum
You cannot delete your posts in this forum
You cannot vote in polls in this forum
You cannot attach files in this forum
You can download files in this forum