Reply to topic
DL-List and Torrent activity [Update пиров]
Size:  1 GB   |    Registered:  3 years 8 months   |    Completed:  2 times
Seeders:  136  [  0 KB/s  ]   Leechers:  20  [  0 KB/s  ]  
 
     
 
 
Author Message

RelizMAN ®

11

Post 05-Oct-2015 00:31

[Quote]

Relax Music Vol.1
Жанр: New Age, Smooth Jazz
Носитель: CD
Год издания: 2008
Издатель (лейбл): Star Mark
Номер по каталогу: 21033
Аудиокодек: FLAC (*.flac)
Тип рипа: tracks+.cue
Битрейт аудио: lossless
Продолжительность: 02:39:17
Источник (релизер): собственный рип
Наличие сканов в содержимом раздачи: да
Треклист:
CD 1:
01. Chris Spheeris - Allura [05:59]
02. Karunesh - Moon Temple [05:50]
03. Monica Ramos - Silencio Profundo (Deep Silence) [05:01]
04. Soul Ballet - Am I Close Enough [03:52]
05. Mike Oldfield - Angelique [04:43]
06. Kirk Whalum - Now' Til Forever [04:39]
07. Marc Antoine - Madrid [04:44]
08. 3rd. Force - City Of Desire [05:39]
09. Zeus Faber - The Island [05:21]
10. Keiko Matsui - Crescent Night Dreams [04:45]
11. Chris Botti - Steps Of Pasitano [03:43]
12. Hevia - Si La Nieve [04:56]
13. Shahin & Sepehr - Through Your Eyes [04:54]
14. Orbis Mundi - Talking Violin [03:30]
15. Govinda - Like I Do [04:48]
16. Brian Wayy - Waterfalls (X Culture) [04:24]
17. Mikael Tariverdiev - Return Nadezhda [02:53]
CD 2:
01. Govi - Lovers Moon [03:41]
02. Martin Tillman - Odessa [04:38]
03. Amethystium - Silken Twine [04:41]
04. Acoustic Alchemy - Rive Gauche [03:12]
05. Mars Lasar - Diabolique [03:55]
06. Waterbone - Song For The Mountain [05:56]
07. Pandana - Skallgang [04:14]
08. Nicholas Gunn - Bamboo [05:29]
09. Yulara - Bridges To Shambala [04:36]
10. Kitaro - Theme From Silk Road [05:20]
11. Zazen - Arches [04:44]
12. Marion Meadows - Just For Kicks [05:11]
13. Fauxliage - Magic [03:41]
14. Euge Groove - Cafe Del Soul [04:24]
15. Luis Villegas - Daydream [06:23]
16. Classical Spirit - Sonata # XIV [05:20]
17. Igor Crutoy - Epic Of A Friends [04:27]

logs and sheetsLog EAC CD 1

Exact Audio Copy V1.0 beta 5 from 2. April 2015
EAC extraction logfile from 2. May 2015, 15:29
Various / Relax Music Vol.1 (Disc 1)
Used drive : ASUS SDRW-08D2S-U Adapter: 1 ID: 0
Read mode : SecureUtilize accurate stream : YesDefeat audio cache : YesMake use of C2 pointers : No
Read offset correction : 6Overread into Lead-In and Lead-Out : NoFill up missing offset samples with silence : YesDelete leading and trailing silent blocks : NoNull samples used in CRC calculations : YesUsed interface : Native Win32 interface for Win NT & 2000Gap handling : Appended to previous track
Used output format : User Defined EncoderSelected bitrate : 32 kBit/sQuality : HighAdd ID3 tag : NoCommand line compressor : C:\flac-1.3.1-win\win64\flac.exeAdditional command line options : -8 -V -T "ARTIST=%artist%" -T "TITLE=%title%" -T "ALBUM=%albumtitle%" -T "DATE=%year%" -T "TRACKNUMBER=%tracknr%" -T "GENRE=%genre%" -T "COMMENT=ripped by Andy aka yetiisyou" %source%
TOC of the extracted CD
Track | Start | Length | Start sector | End sector --------------------------------------------------------- 1 | 0:00.00 | 5:58.54 | 0 | 26903 2 | 5:58.54 | 5:49.22 | 26904 | 53100 3 | 11:48.01 | 5:00.43 | 53101 | 75643 4 | 16:48.44 | 3:51.20 | 75644 | 92988 5 | 20:39.64 | 4:42.72 | 92989 | 114210 6 | 25:22.61 | 4:38.31 | 114211 | 135091 7 | 30:01.17 | 4:43.68 | 135092 | 156384 8 | 34:45.10 | 5:38.29 | 156385 | 181763 9 | 40:23.39 | 5:20.60 | 181764 | 205823 10 | 45:44.24 | 4:44.69 | 205824 | 227192 11 | 50:29.18 | 3:42.02 | 227193 | 243844 12 | 54:11.20 | 4:55.47 | 243845 | 266016 13 | 59:06.67 | 4:53.52 | 266017 | 288043 14 | 64:00.44 | 3:29.04 | 288044 | 303722 15 | 67:29.48 | 4:47.29 | 303723 | 325276 16 | 72:17.02 | 4:23.66 | 325277 | 345067 17 | 76:40.68 | 2:52.34 | 345068 | 358001
Track 1
Filename E:\!Ripped by Andy aka yetiisyou\VA - Relax Music Vol.1 [Star Mark - 21033] [2008]\Disc 1\01. Chris Spheeris - Allura.wav
Pre-gap length 0:00:02.00
Peak level 100.0 % Extraction speed 3.2 X Track quality 100.0 % Test CRC 5F3CC2D6 Copy CRC 5F3CC2D6 Accurately ripped (confidence 3) [EE990E66] (AR v2) Copy OK
Track 2
Filename E:\!Ripped by Andy aka yetiisyou\VA - Relax Music Vol.1 [Star Mark - 21033] [2008]\Disc 1\02. Karunesh - Moon Temple.wav
Pre-gap length 0:00:02.00
Peak level 100.0 % Extraction speed 3.6 X Track quality 100.0 % Test CRC 355976C9 Copy CRC 355976C9 Accurately ripped (confidence 3) [05DA0C58] (AR v2) Copy OK
Track 3
Filename E:\!Ripped by Andy aka yetiisyou\VA - Relax Music Vol.1 [Star Mark - 21033] [2008]\Disc 1\03. Monica Ramos - Silencio Profundo (Deep Silence).wav
Pre-gap length 0:00:02.00
Peak level 100.0 % Extraction speed 3.9 X Track quality 100.0 % Test CRC 8AE77187 Copy CRC 8AE77187 Accurately ripped (confidence 3) [4D350331] (AR v2) Copy OK
Track 4
Filename E:\!Ripped by Andy aka yetiisyou\VA - Relax Music Vol.1 [Star Mark - 21033] [2008]\Disc 1\04. Soul Ballet - Am I Close Enough.wav
Pre-gap length 0:00:02.00
Peak level 100.0 % Extraction speed 4.0 X Track quality 100.0 % Test CRC 5036AE6C Copy CRC 5036AE6C Accurately ripped (confidence 3) [D48FC1FE] (AR v2) Copy OK
Track 5
Filename E:\!Ripped by Andy aka yetiisyou\VA - Relax Music Vol.1 [Star Mark - 21033] [2008]\Disc 1\05. Mike Oldfield - Angelique.wav
Pre-gap length 0:00:02.00
Peak level 100.0 % Extraction speed 4.4 X Track quality 100.0 % Test CRC 5F89A04D Copy CRC 5F89A04D Accurately ripped (confidence 3) [75890088] (AR v2) Copy OK
Track 6
Filename E:\!Ripped by Andy aka yetiisyou\VA - Relax Music Vol.1 [Star Mark - 21033] [2008]\Disc 1\06. Kirk Whalum - Now' Til Forever.wav
Pre-gap length 0:00:02.00
Peak level 77.1 % Extraction speed 4.6 X Track quality 100.0 % Test CRC AE27934A Copy CRC AE27934A Accurately ripped (confidence 3) [D311F670] (AR v2) Copy OK
Track 7
Filename E:\!Ripped by Andy aka yetiisyou\VA - Relax Music Vol.1 [Star Mark - 21033] [2008]\Disc 1\07. Marc Antoine - Madrid.wav
Pre-gap length 0:00:02.00
Peak level 100.0 % Extraction speed 4.8 X Track quality 100.0 % Test CRC 3AC95432 Copy CRC 3AC95432 Accurately ripped (confidence 3) [AEC62660] (AR v2) Copy OK
Track 8
Filename E:\!Ripped by Andy aka yetiisyou\VA - Relax Music Vol.1 [Star Mark - 21033] [2008]\Disc 1\08. 3rd. Force - City Of Desire.wav
Pre-gap length 0:00:02.00
Peak level 100.0 % Extraction speed 5.1 X Track quality 100.0 % Test CRC 27943B41 Copy CRC 27943B41 Accurately ripped (confidence 3) [319CB64D] (AR v2) Copy OK
Track 9
Filename E:\!Ripped by Andy aka yetiisyou\VA - Relax Music Vol.1 [Star Mark - 21033] [2008]\Disc 1\09. Zeus Faber - The Island.wav
Pre-gap length 0:00:02.00
Peak level 100.0 % Extraction speed 5.3 X Track quality 100.0 % Test CRC 76CDB6BF Copy CRC 76CDB6BF Accurately ripped (confidence 3) [ACC2C66D] (AR v2) Copy OK
Track 10
Filename E:\!Ripped by Andy aka yetiisyou\VA - Relax Music Vol.1 [Star Mark - 21033] [2008]\Disc 1\10. Keiko Matsui - Crescent Night Dreams.wav
Pre-gap length 0:00:02.00
Peak level 100.0 % Extraction speed 5.5 X Track quality 100.0 % Test CRC 8C582400 Copy CRC 8C582400 Accurately ripped (confidence 3) [EDC89688] (AR v2) Copy OK
Track 11
Filename E:\!Ripped by Andy aka yetiisyou\VA - Relax Music Vol.1 [Star Mark - 21033] [2008]\Disc 1\11. Chris Botti - Steps Of Pasitano.wav
Pre-gap length 0:00:02.00
Peak level 100.0 % Extraction speed 5.3 X Track quality 100.0 % Test CRC 4EA0A023 Copy CRC 4EA0A023 Accurately ripped (confidence 3) [C2321FAF] (AR v2) Copy OK
Track 12
Filename E:\!Ripped by Andy aka yetiisyou\VA - Relax Music Vol.1 [Star Mark - 21033] [2008]\Disc 1\12. Hevia - Si La Nieve.wav
Pre-gap length 0:00:02.00
Peak level 100.0 % Extraction speed 5.8 X Track quality 100.0 % Test CRC F7A2AD40 Copy CRC F7A2AD40 Accurately ripped (confidence 3) [E31EFC02] (AR v2) Copy OK
Track 13
Filename E:\!Ripped by Andy aka yetiisyou\VA - Relax Music Vol.1 [Star Mark - 21033] [2008]\Disc 1\13. Shahin & Sepehr - Through Your Eyes.wav
Pre-gap length 0:00:02.00
Peak level 100.0 % Extraction speed 5.9 X Track quality 100.0 % Test CRC 56888821 Copy CRC 56888821 Accurately ripped (confidence 3) [58B376F6] (AR v2) Copy OK
Track 14
Filename E:\!Ripped by Andy aka yetiisyou\VA - Relax Music Vol.1 [Star Mark - 21033] [2008]\Disc 1\14. Orbis Mundi - Talking Violin.wav
Pre-gap length 0:00:02.00
Peak level 79.2 % Extraction speed 5.7 X Track quality 100.0 % Test CRC 37F4AC11 Copy CRC 37F4AC11 Accurately ripped (confidence 3) [8A7F69B8] (AR v2) Copy OK
Track 15
Filename E:\!Ripped by Andy aka yetiisyou\VA - Relax Music Vol.1 [Star Mark - 21033] [2008]\Disc 1\15. Govinda - Like I Do.wav
Pre-gap length 0:00:02.00
Peak level 83.1 % Extraction speed 6.1 X Track quality 100.0 % Test CRC 4F80DD1F Copy CRC 4F80DD1F Accurately ripped (confidence 3) [26A4787C] (AR v2) Copy OK
Track 16
Filename E:\!Ripped by Andy aka yetiisyou\VA - Relax Music Vol.1 [Star Mark - 21033] [2008]\Disc 1\16. Brian Wayy - Waterfalls (X Culture).wav
Pre-gap length 0:00:02.00
Peak level 80.5 % Extraction speed 2.7 X Track quality 100.0 % Test CRC 75DDF70F Copy CRC 75DDF70F Accurately ripped (confidence 3) [F93CF131] (AR v2) Copy OK
Track 17
Filename E:\!Ripped by Andy aka yetiisyou\VA - Relax Music Vol.1 [Star Mark - 21033] [2008]\Disc 1\17. Mikael Tariverdiev - Return Nadezhda.wav
Pre-gap length 0:00:02.00
Peak level 100.0 % Extraction speed 2.6 X Track quality 100.0 % Test CRC D30FB83E Copy CRC D30FB83E Accurately ripped (confidence 3) [660D96B4] (AR v2) Copy OK
All tracks accurately ripped
No errors occurred
End of status report
---- CUETools DB Plugin V2.1.6
[CTDB TOCID: .IOVIhLrYzZ8CKlC1yPP1OjWnGA-] foundSubmit result: .IOVIhLrYzZ8CKlC1yPP1OjWnGA- has been confirmedTrack | CTDB Status 1 | (2/2) Accurately ripped 2 | (2/2) Accurately ripped 3 | (2/2) Accurately ripped 4 | (2/2) Accurately ripped 5 | (2/2) Accurately ripped 6 | (2/2) Accurately ripped 7 | (2/2) Accurately ripped 8 | (2/2) Accurately ripped 9 | (2/2) Accurately ripped 10 | (2/2) Accurately ripped 11 | (2/2) Accurately ripped 12 | (2/2) Accurately ripped 13 | (2/2) Accurately ripped 14 | (2/2) Accurately ripped 15 | (2/2) Accurately ripped 16 | (2/2) Accurately ripped 17 | (2/2) Accurately ripped
==== Log checksum A108F29BB346F9D431DA4858B4AA67DCAE054844B99E6CDA4A6BCFEAFBC9D8F9 ====

cue CD 1

REM DATE 2008REM DISCID C812A511REM COMMENT "ExactAudioCopy v1.0b5"PERFORMER "Various"TITLE "Relax Music Vol.1 (Disc 1)"FILE "01. Chris Spheeris - Allura.wav" WAVE TRACK 01 AUDIO TITLE "Allura" PERFORMER "Chris Spheeris" INDEX 01 00:00:00 TRACK 02 AUDIO TITLE "Moon Temple" PERFORMER "Karunesh" INDEX 00 05:56:54FILE "02. Karunesh - Moon Temple.wav" WAVE INDEX 01 00:00:00 TRACK 03 AUDIO TITLE "Silencio Profundo (Deep Silence)" PERFORMER "Monica Ramos" INDEX 00 05:47:22FILE "03. Monica Ramos - Silencio Profundo (Deep Silence).wav" WAVE INDEX 01 00:00:00 TRACK 04 AUDIO TITLE "Am I Close Enough" PERFORMER "Soul Ballet" INDEX 00 04:58:43FILE "04. Soul Ballet - Am I Close Enough.wav" WAVE INDEX 01 00:00:00 TRACK 05 AUDIO TITLE "Angelique" PERFORMER "Mike Oldfield" FLAGS DCP INDEX 00 03:49:20FILE "05. Mike Oldfield - Angelique.wav" WAVE INDEX 01 00:00:00 TRACK 06 AUDIO TITLE "Now' Til Forever" PERFORMER "Kirk Whalum" INDEX 00 04:40:72FILE "06. Kirk Whalum - Now' Til Forever.wav" WAVE INDEX 01 00:00:00 TRACK 07 AUDIO TITLE "Madrid" PERFORMER "Marc Antoine" INDEX 00 04:36:31FILE "07. Marc Antoine - Madrid.wav" WAVE INDEX 01 00:00:00 TRACK 08 AUDIO TITLE "City Of Desire" PERFORMER "3rd. Force" INDEX 00 04:41:68FILE "08. 3rd. Force - City Of Desire.wav" WAVE INDEX 01 00:00:00 TRACK 09 AUDIO TITLE "The Island" PERFORMER "Zeus Faber" INDEX 00 05:36:29FILE "09. Zeus Faber - The Island.wav" WAVE INDEX 01 00:00:00 TRACK 10 AUDIO TITLE "Crescent Night Dreams" PERFORMER "Keiko Matsui" FLAGS DCP INDEX 00 05:18:60FILE "10. Keiko Matsui - Crescent Night Dreams.wav" WAVE INDEX 01 00:00:00 TRACK 11 AUDIO TITLE "Steps Of Pasitano" PERFORMER "Chris Botti" FLAGS DCP INDEX 00 04:42:69FILE "11. Chris Botti - Steps Of Pasitano.wav" WAVE INDEX 01 00:00:00 TRACK 12 AUDIO TITLE "Si La Nieve" PERFORMER "Hevia" INDEX 00 03:40:02FILE "12. Hevia - Si La Nieve.wav" WAVE INDEX 01 00:00:00 TRACK 13 AUDIO TITLE "Through Your Eyes" PERFORMER "Shahin & Sepehr" INDEX 00 04:53:47FILE "13. Shahin & Sepehr - Through Your Eyes.wav" WAVE INDEX 01 00:00:00 TRACK 14 AUDIO TITLE "Talking Violin" PERFORMER "Orbis Mundi" INDEX 00 04:51:52FILE "14. Orbis Mundi - Talking Violin.wav" WAVE INDEX 01 00:00:00 TRACK 15 AUDIO TITLE "Like I Do" PERFORMER "Govinda" INDEX 00 03:27:04FILE "15. Govinda - Like I Do.wav" WAVE INDEX 01 00:00:00 TRACK 16 AUDIO TITLE "Waterfalls (X Culture)" PERFORMER "Brian Wayy" INDEX 00 04:45:29FILE "16. Brian Wayy - Waterfalls (X Culture).wav" WAVE INDEX 01 00:00:00 TRACK 17 AUDIO TITLE "Return Nadezhda" PERFORMER "Mikael Tariverdiev" INDEX 00 04:21:66FILE "17. Mikael Tariverdiev - Return Nadezhda.wav" WAVE INDEX 01 00:00:00

Log EAC CD 2

Exact Audio Copy V1.1 from 23. June 2015
EAC extraction logfile from 1. August 2015, 17:26
Various / Relax Music Vol.1 (Disc 2)
Used drive : ASUS SDRW-08D2S-U Adapter: 1 ID: 0
Read mode : SecureUtilize accurate stream : YesDefeat audio cache : YesMake use of C2 pointers : No
Read offset correction : 6Overread into Lead-In and Lead-Out : NoFill up missing offset samples with silence : YesDelete leading and trailing silent blocks : NoNull samples used in CRC calculations : YesUsed interface : Native Win32 interface for Win NT & 2000Gap handling : Appended to previous track
Used output format : User Defined EncoderSelected bitrate : 32 kBit/sQuality : HighAdd ID3 tag : NoCommand line compressor : C:\Exact Audio Copy [installed]\Flac\flac.exeAdditional command line options : -8 -V -T "ARTIST=%artist%" -T "TITLE=%title%" -T "ALBUM=%albumtitle%" -T "DATE=%year%" -T "TRACKNUMBER=%tracknr%" -T "GENRE=%genre%" -T "COMMENT=ripped by Andy aka yetiisyou" %source%
TOC of the extracted CD
Track | Start | Length | Start sector | End sector --------------------------------------------------------- 1 | 0:00.00 | 3:40.33 | 0 | 16532 2 | 3:40.33 | 4:37.48 | 16533 | 37355 3 | 8:18.06 | 4:40.41 | 37356 | 58396 4 | 12:58.47 | 3:11.28 | 58397 | 72749 5 | 16:10.00 | 3:54.10 | 72750 | 90309 6 | 20:04.10 | 5:55.38 | 90310 | 116972 7 | 25:59.48 | 4:13.16 | 116973 | 135963 8 | 30:12.64 | 5:28.60 | 135964 | 160623 9 | 35:41.49 | 4:35.21 | 160624 | 181269 10 | 40:16.70 | 5:19.69 | 181270 | 205263 11 | 45:36.64 | 4:43.71 | 205264 | 226559 12 | 50:20.60 | 5:10.27 | 226560 | 249836 13 | 55:31.12 | 3:40.57 | 249837 | 266393 14 | 59:11.69 | 4:23.51 | 266394 | 286169 15 | 63:35.45 | 6:22.41 | 286170 | 314860 16 | 69:58.11 | 5:19.11 | 314861 | 338796 17 | 75:17.22 | 4:26.01 | 338797 | 358747
Track 1
Filename E:\!Ripped by Andy aka yetiisyou\VA - Relax Music Vol.1 [Star Mark - 21033] [2008]\Disc 2\01. Govi - Lovers Moon.wav
Pre-gap length 0:00:02.00
Peak level 100.0 % Extraction speed 1.1 X Track quality 99.9 % Test CRC 71282A7C Copy CRC 71282A7C Accurately ripped (confidence 3) [74D2877E] (AR v2) Copy OK
Track 2
Filename E:\!Ripped by Andy aka yetiisyou\VA - Relax Music Vol.1 [Star Mark - 21033] [2008]\Disc 2\02. Martin Tillman - Odessa.wav
Pre-gap length 0:00:02.00
Peak level 69.7 % Extraction speed 1.4 X Track quality 100.0 % Test CRC 63A9F11F Copy CRC 63A9F11F Accurately ripped (confidence 3) [AEAD1975] (AR v2) Copy OK
Track 3
Filename E:\!Ripped by Andy aka yetiisyou\VA - Relax Music Vol.1 [Star Mark - 21033] [2008]\Disc 2\03. Amethystium - Silken Twine.wav
Pre-gap length 0:00:02.00
Peak level 67.2 % Extraction speed 1.4 X Track quality 99.9 % Test CRC 376FB3C6 Copy CRC 376FB3C6 Accurately ripped (confidence 3) [F822ADF3] (AR v2) Copy OK
Track 4
Filename E:\!Ripped by Andy aka yetiisyou\VA - Relax Music Vol.1 [Star Mark - 21033] [2008]\Disc 2\04. Acoustic Alchemy - Rive Gauche.wav
Pre-gap length 0:00:02.00
Peak level 100.0 % Extraction speed 1.6 X Track quality 100.0 % Test CRC 23479758 Copy CRC 23479758 Accurately ripped (confidence 3) [5F177D45] (AR v2) Copy OK
Track 5
Filename E:\!Ripped by Andy aka yetiisyou\VA - Relax Music Vol.1 [Star Mark - 21033] [2008]\Disc 2\05. Mars Lasar - Diabolique.wav
Pre-gap length 0:00:02.00
Peak level 75.0 % Extraction speed 1.7 X Track quality 100.0 % Test CRC C24DB884 Copy CRC C24DB884 Accurately ripped (confidence 3) [71475590] (AR v2) Copy OK
Track 6
Filename E:\!Ripped by Andy aka yetiisyou\VA - Relax Music Vol.1 [Star Mark - 21033] [2008]\Disc 2\06. Waterbone - Song For The Mountain.wav
Pre-gap length 0:00:02.00
Peak level 69.4 % Extraction speed 1.9 X Track quality 100.0 % Test CRC 94062EF6 Copy CRC 94062EF6 Accurately ripped (confidence 3) [671F2716] (AR v2) Copy OK
Track 7
Filename E:\!Ripped by Andy aka yetiisyou\VA - Relax Music Vol.1 [Star Mark - 21033] [2008]\Disc 2\07. Pandana - Skallgang.wav
Pre-gap length 0:00:02.00
Peak level 100.0 % Extraction speed 1.9 X Track quality 100.0 % Test CRC ACAFDD00 Copy CRC ACAFDD00 Accurately ripped (confidence 3) [438C126B] (AR v2) Copy OK
Track 8
Filename E:\!Ripped by Andy aka yetiisyou\VA - Relax Music Vol.1 [Star Mark - 21033] [2008]\Disc 2\08. Nicholas Gunn - Bamboo.wav
Pre-gap length 0:00:02.00
Peak level 100.0 % Extraction speed 2.1 X Track quality 100.0 % Test CRC 75FDA1FE Copy CRC 75FDA1FE Accurately ripped (confidence 3) [0849C4CF] (AR v2) Copy OK
Track 9
Filename E:\!Ripped by Andy aka yetiisyou\VA - Relax Music Vol.1 [Star Mark - 21033] [2008]\Disc 2\09. Yulara - Bridges To Shambala.wav
Pre-gap length 0:00:02.00
Peak level 79.6 % Extraction speed 2.1 X Track quality 100.0 % Test CRC 3EE59219 Copy CRC 3EE59219 Accurately ripped (confidence 3) [3CB235E1] (AR v2) Copy OK
Track 10
Filename E:\!Ripped by Andy aka yetiisyou\VA - Relax Music Vol.1 [Star Mark - 21033] [2008]\Disc 2\10. Kitaro - Theme From Silk Road.wav
Pre-gap length 0:00:02.00
Peak level 100.0 % Extraction speed 2.2 X Track quality 100.0 % Test CRC 90AEE7F4 Copy CRC 90AEE7F4 Accurately ripped (confidence 3) [18FEFBCF] (AR v2) Copy OK
Track 11
Filename E:\!Ripped by Andy aka yetiisyou\VA - Relax Music Vol.1 [Star Mark - 21033] [2008]\Disc 2\11. Zazen - Arches.wav
Pre-gap length 0:00:02.00
Peak level 100.0 % Extraction speed 2.3 X Track quality 100.0 % Test CRC 8CF00BD7 Copy CRC 8CF00BD7 Accurately ripped (confidence 3) [A631597F] (AR v2) Copy OK
Track 12
Filename E:\!Ripped by Andy aka yetiisyou\VA - Relax Music Vol.1 [Star Mark - 21033] [2008]\Disc 2\12. Marion Meadows - Just For Kicks.wav
Pre-gap length 0:00:02.00
Peak level 99.4 % Extraction speed 2.4 X Track quality 100.0 % Test CRC 84DE5BAD Copy CRC 84DE5BAD Accurately ripped (confidence 3) [850438B6] (AR v2) Copy OK
Track 13
Filename E:\!Ripped by Andy aka yetiisyou\VA - Relax Music Vol.1 [Star Mark - 21033] [2008]\Disc 2\13. Fauxliage - Magic.wav
Pre-gap length 0:00:02.00
Peak level 66.6 % Extraction speed 2.0 X Track quality 99.9 % Test CRC C5024946 Copy CRC C5024946 Accurately ripped (confidence 3) [5E4DFB3B] (AR v2) Copy OK
Track 14
Filename E:\!Ripped by Andy aka yetiisyou\VA - Relax Music Vol.1 [Star Mark - 21033] [2008]\Disc 2\14. Euge Groove - Cafe Del Soul.wav
Pre-gap length 0:00:02.00
Peak level 100.0 % Extraction speed 2.5 X Track quality 100.0 % Test CRC EF244A10 Copy CRC EF244A10 Accurately ripped (confidence 3) [BCDE00A4] (AR v2) Copy OK
Track 15
Filename E:\!Ripped by Andy aka yetiisyou\VA - Relax Music Vol.1 [Star Mark - 21033] [2008]\Disc 2\15. Luis Villegas - Daydream.wav
Pre-gap length 0:00:02.00
Peak level 100.0 % Extraction speed 2.7 X Track quality 100.0 % Test CRC FD226B99 Copy CRC FD226B99 Accurately ripped (confidence 3) [C5A2E698] (AR v2) Copy OK
Track 16
Filename E:\!Ripped by Andy aka yetiisyou\VA - Relax Music Vol.1 [Star Mark - 21033] [2008]\Disc 2\16. Classical Spirit - Sonata # XIV.wav
Pre-gap length 0:00:02.00
Peak level 100.0 % Extraction speed 2.7 X Track quality 100.0 % Test CRC DC4BCFCF Copy CRC DC4BCFCF Accurately ripped (confidence 3) [98145430] (AR v2) Copy OK
Track 17
Filename E:\!Ripped by Andy aka yetiisyou\VA - Relax Music Vol.1 [Star Mark - 21033] [2008]\Disc 2\17. Igor Crutoy - Epic Of A Friends.wav
Pre-gap length 0:00:02.00
Peak level 100.0 % Extraction speed 2.7 X Track quality 100.0 % Test CRC 30DBA35E Copy CRC 30DBA35E Accurately ripped (confidence 3) [3210D809] (AR v2) Copy OK
All tracks accurately ripped
No errors occurred
End of status report
---- CUETools DB Plugin V2.1.6
[CTDB TOCID: qixoFauMqcVAPUrXSI1.XpoQD2U-] foundSubmit result: qixoFauMqcVAPUrXSI1.XpoQD2U- has been confirmedTrack | CTDB Status 1 | (5/5) Accurately ripped 2 | (5/5) Accurately ripped 3 | (5/5) Accurately ripped 4 | (5/5) Accurately ripped 5 | (5/5) Accurately ripped 6 | (5/5) Accurately ripped 7 | (5/5) Accurately ripped 8 | (5/5) Accurately ripped 9 | (5/5) Accurately ripped 10 | (5/5) Accurately ripped 11 | (5/5) Accurately ripped 12 | (5/5) Accurately ripped 13 | (5/5) Accurately ripped 14 | (5/5) Accurately ripped 15 | (5/5) Accurately ripped 16 | (5/5) Accurately ripped 17 | (2/5) Accurately ripped
==== Log checksum 2553EA78EF57F485095BDB0553A1CB26745BF8C42141AD0707BEAEF4D72638C0 ====

cue CD 2

REM GENRE PopREM DATE 2008REM DISCID CE12AF11REM COMMENT "ExactAudioCopy v1.0b5"PERFORMER "Various"TITLE "Relax Music Vol.1 (Disc 2)"FILE "01. Govi - Lovers Moon.wav" WAVE TRACK 01 AUDIO TITLE "Lovers Moon" PERFORMER "Govi" INDEX 01 00:00:00 TRACK 02 AUDIO TITLE "Odessa" PERFORMER "Martin Tillman" INDEX 00 03:38:33FILE "02. Martin Tillman - Odessa.wav" WAVE INDEX 01 00:00:00 TRACK 03 AUDIO TITLE "Silken Twine" PERFORMER "Amethystium" INDEX 00 04:35:48FILE "03. Amethystium - Silken Twine.wav" WAVE INDEX 01 00:00:00 TRACK 04 AUDIO TITLE "Rive Gauche" PERFORMER "Acoustic Alchemy" INDEX 00 04:38:41FILE "04. Acoustic Alchemy - Rive Gauche.wav" WAVE INDEX 01 00:00:00 TRACK 05 AUDIO TITLE "Diabolique" PERFORMER "Mars Lasar" INDEX 00 03:09:28FILE "05. Mars Lasar - Diabolique.wav" WAVE INDEX 01 00:00:00 TRACK 06 AUDIO TITLE "Song For The Mountain" PERFORMER "Waterbone" INDEX 00 03:52:10FILE "06. Waterbone - Song For The Mountain.wav" WAVE INDEX 01 00:00:00 TRACK 07 AUDIO TITLE "Skallgang" PERFORMER "Pandana" INDEX 00 05:53:38FILE "07. Pandana - Skallgang.wav" WAVE INDEX 01 00:00:00 TRACK 08 AUDIO TITLE "Bamboo" PERFORMER "Nicholas Gunn" INDEX 00 04:11:16FILE "08. Nicholas Gunn - Bamboo.wav" WAVE INDEX 01 00:00:00 TRACK 09 AUDIO TITLE "Bridges To Shambala" PERFORMER "Yulara" INDEX 00 05:26:60FILE "09. Yulara - Bridges To Shambala.wav" WAVE INDEX 01 00:00:00 TRACK 10 AUDIO TITLE "Theme From Silk Road" PERFORMER "Kitaro" INDEX 00 04:33:21FILE "10. Kitaro - Theme From Silk Road.wav" WAVE INDEX 01 00:00:00 TRACK 11 AUDIO TITLE "Arches" PERFORMER "Zazen" INDEX 00 05:17:69FILE "11. Zazen - Arches.wav" WAVE INDEX 01 00:00:00 TRACK 12 AUDIO TITLE "Just For Kicks" PERFORMER "Marion Meadows" INDEX 00 04:41:71FILE "12. Marion Meadows - Just For Kicks.wav" WAVE INDEX 01 00:00:00 TRACK 13 AUDIO TITLE "Magic" PERFORMER "Fauxliage" FLAGS DCP INDEX 00 05:08:27FILE "13. Fauxliage - Magic.wav" WAVE INDEX 01 00:00:00 TRACK 14 AUDIO TITLE "Cafe Del Soul" PERFORMER "Euge Groove" INDEX 00 03:38:57FILE "14. Euge Groove - Cafe Del Soul.wav" WAVE INDEX 01 00:00:00 TRACK 15 AUDIO TITLE "Daydream" PERFORMER "Luis Villegas" INDEX 00 04:21:51FILE "15. Luis Villegas - Daydream.wav" WAVE INDEX 01 00:00:00 TRACK 16 AUDIO TITLE "Sonata # XIV" PERFORMER "Classical Spirit" INDEX 00 06:20:41FILE "16. Classical Spirit - Sonata # XIV.wav" WAVE INDEX 01 00:00:00 TRACK 17 AUDIO TITLE "Epic Of A Friends" PERFORMER "Igor Crutoy" INDEX 00 05:17:11FILE "17. Igor Crutoy - Epic Of A Friends.wav" WAVE INDEX 01 00:00:00

[doutdess.info].t81078.torrent
Torrent: Registered [ 2015-10-05 00:30 ] · D3E4C746E49287E8CA6A13D841E1DED4E5BC4169

14 KB

Status: checked
Completed: 2 times
Size: 1 GB
(New Age, Smooth Jazz) [2xCD] VA - Relax Music Vol.1 - 2008, FLAC (tracks+.cue), lossless скачать торрент бесплатно и без регистрации

[Profile] [PM]
Forum Topic Author Size
Фламенко и акустическая гитара lossy (New age, Acoustic guitar) Moreza - Crimson Moon - 2011, MP3, 320 kbps Vi$itReal 107 MB
Фламенко и акустическая гитара lossy (New Age, Acoustic guitar) William Ackerman Discography (1976-2010, 14CD) MP3-tracks CBR 320 kbps Vi$itReal 1.41 GB
Фламенко и акустическая гитара lossy (New Age, Acoustic Guitar, Flamenco) Daveed - World of Illusions (2016), MP3, 320 kbps Vi$itReal 75 MB
NewAge & Meditative lossy (New Age, Acoustic) Antonio Morina Gallerio - Old Fashioned Acoustic Music - 2015, MP3, 320 kbps Vi$itReal 135 MB
NewAge & Meditative lossy (New Age, Acoustic, Ambient) Mishroom & The Galactic Family - Along The Same Path - 2016, MP3, 320 kbps Vi$itReal 134 MB
NewAge & Meditative lossless (New Age, Acoustic, Meditative) Ron Korb - \'Flute Traveller\' - 1994, APE (image+.cue), lossless RelizMAN 159 MB
Фольклор, Народная и Этническая музыка собственные оцифровки (New Age, Acoustic, Neofolk) [24/48] Michael Hedges - Aerial Boundaries - 1984, FLAC (image+.cue) RelizMAN 416 MB
Фламенко и акустическая гитара lossless (New Age, Acoustic, Neofolk) [CD] Michael Hedges - Aerial Boundaries - 1984 (2015 Audio Fidelity), FLAC (tracks+.cue), lossless RelizMAN 173 MB
Display posts:    

Current time is: 24-Jun 18:14

All times are UTC + 3



You cannot post new topics in this forum
You cannot reply to topics in this forum
You cannot edit your posts in this forum
You cannot delete your posts in this forum
You cannot vote in polls in this forum
You cannot attach files in this forum
You can download files in this forum