Reply to topic
DL-List and Torrent activity [Update пиров]
Size:  464 MB   |    Registered:  3 years 8 months   |    Completed:  0 times
Seeders:  860  [  0 KB/s  ]   Leechers:  49  [  0 KB/s  ]  
 
     
 
 
Author Message

RelizMAN ®

11

Post 05-Oct-2015 00:31

[Quote]

Era / Classics (full version)
Жанр: New Age
Носитель: CD
Страна-производитель диска (релиза): Russia
Год издания: 2009
Издатель (лейбл): Sound Pro
Номер по каталогу: RCDAB2921
Аудиокодек: FLAC (*.flac)
Тип рипа: tracks+.cue
Битрейт аудио: lossless
Продолжительность: 1:17:08.
Источник (релизер): clustert
Наличие сканов в содержимом раздачи: да
Треклист:
01. Redemtion [0:04:50.17]
02. Sunset Drive [0:03:36.53]
03. Arising Force [0:03:45.32]
04. The Chosen Path [0:04:14.59]
05. Ritus Paciis [0:03:42.17]
06. Adagietto [0:05:17.54]
07. Dark Wonders [0:03:51.59]
08. Wings Of Hope [0:04:00.66]
09. Sombre Day [0:03:50.03]
10. Ameno (Remix) [0:03:44.59]
11. Don't Go Away [0:04:20.37]
12. The Mass [0:03:38.04]
13. Mother (Remix) [0:04:01.46]
14. Enae Volare [0:03:32.57]
15. Misere Mani [0:04:01.12]
16. Hymne [0:04:49.05]
17. Sentence [0:04:48.12]
18. I Beleive [0:04:20.55]
19. Adagio For Strings (ERA Version) [0:02:41.61]

Лог создания рипа

Exact Audio Copy V1.0 beta 3 from 29. August 2011
Отчёт EAC об извлечении, выполненном 23. июля 2015, 17:47
Era / Classics + bonus
Дисковод: ASUS DRW-1814BLT Adapter: 4 ID: 0
Режим чтения : ДостоверностьИспользование точного потока : ДаОтключение кэша аудио : ДаИспользование указателей C2 : Нет
Коррекция смещения при чтении : 6Способность читать области Lead-in и Lead-out : НетЗаполнение пропущенных сэмплов тишиной : ДаУдаление блоков с тишиной в начале и конце : НетПри вычислениях CRC использовались нулевые сэмплы : ДаИнтерфейс : Встроенный Win32-интерфейс для Win NT/2000Обработка зазоров : Добавлено к предыдущему треку
Выходной формат : Пользовательский кодировщикВыбранный битрейт : 128 kBit/sКачество : ВысокийДобавление ID3-тега : НетУтилита сжатия : C:\Program Files\Exact Audio Copy\Flac\flac.exeДополнительные параметры : -V -8 -T "Genre=%genre%" -T "Artist=%artist%" -T "Title=%title%" -T "Album=%albumtitle%" -T "Date=%year%" -T "Tracknumber=%tracknr%" -T "Comment=EAC1.0b2 FLAC -8" %source%
TOC извлечённого CD
Трек | Старт | Длительность | Начальный сектор | Конечный сектор --------------------------------------------------------------------- 1 | 0:00.00 | 4:50.17 | 0 | 21766 2 | 4:50.17 | 3:36.53 | 21767 | 38019 3 | 8:26.70 | 3:45.32 | 38020 | 54926 4 | 12:12.27 | 4:14.59 | 54927 | 74035 5 | 16:27.11 | 3:42.17 | 74036 | 90702 6 | 20:09.28 | 5:17.54 | 90703 | 114531 7 | 25:27.07 | 3:51.59 | 114532 | 131915 8 | 29:18.66 | 4:00.66 | 131916 | 149981 9 | 33:19.57 | 3:50.03 | 149982 | 167234 10 | 37:09.60 | 3:44.59 | 167235 | 184093 11 | 40:54.44 | 4:20.37 | 184094 | 203630 12 | 45:15.06 | 3:38.04 | 203631 | 219984 13 | 48:53.10 | 4:01.46 | 219985 | 238105 14 | 52:54.56 | 3:32.57 | 238106 | 254062 15 | 56:27.38 | 4:01.12 | 254063 | 272149 16 | 60:28.50 | 4:49.05 | 272150 | 293829 17 | 65:17.55 | 4:48.12 | 293830 | 315441 18 | 70:05.67 | 4:20.55 | 315442 | 334996 19 | 74:26.47 | 2:41.61 | 334997 | 347132
Трек 1
Имя файла R:\Раздача 50\Era - 2009 - Classics\01 Redemtion.wav
Длина предзазора 0:00:02.00
Пиковый уровень 99.8 % Скорость извлечения 5.6 X Качество трека 100.0 % CRC теста B12F27A3 CRC копии B12F27A3 Трек не обнаружен в базе AccurateRip Копирование... OK
Трек 2
Имя файла R:\Раздача 50\Era - 2009 - Classics\02 Sunset Drive.wav
Длина предзазора 0:00:01.00
Пиковый уровень 99.8 % Скорость извлечения 5.9 X Качество трека 100.0 % CRC теста C7C471A1 CRC копии C7C471A1 Трек не обнаружен в базе AccurateRip Копирование... OK
Трек 3
Имя файла R:\Раздача 50\Era - 2009 - Classics\03 Arising Force.wav
Длина предзазора 0:00:01.00
Пиковый уровень 89.0 % Скорость извлечения 4.7 X Качество трека 99.9 % CRC теста A5723EEC CRC копии A5723EEC Трек не обнаружен в базе AccurateRip Копирование... OK
Трек 4
Имя файла R:\Раздача 50\Era - 2009 - Classics\04 The Chosen Path.wav
Длина предзазора 0:00:01.00
Пиковый уровень 89.0 % Скорость извлечения 6.8 X Качество трека 100.0 % CRC теста 7CFC907C CRC копии 7CFC907C Трек не обнаружен в базе AccurateRip Копирование... OK
Трек 5
Имя файла R:\Раздача 50\Era - 2009 - Classics\05 Ritus Paciis.wav
Длина предзазора 0:00:01.00
Пиковый уровень 89.0 % Скорость извлечения 7.1 X Качество трека 100.0 % CRC теста 2CD1F27B CRC копии 2CD1F27B Трек не обнаружен в базе AccurateRip Копирование... OK
Трек 6
Имя файла R:\Раздача 50\Era - 2009 - Classics\06 Adagietto.wav
Длина предзазора 0:00:01.00
Пиковый уровень 89.0 % Скорость извлечения 6.0 X Качество трека 99.9 % CRC теста E1FDD8A8 CRC копии E1FDD8A8 Трек не обнаружен в базе AccurateRip Копирование... OK
Трек 7
Имя файла R:\Раздача 50\Era - 2009 - Classics\07 Dark Wonders.wav
Длина предзазора 0:00:01.00
Пиковый уровень 98.9 % Скорость извлечения 6.7 X Качество трека 100.0 % CRC теста FDBE878B CRC копии FDBE878B Трек не обнаружен в базе AccurateRip Копирование... OK
Трек 8
Имя файла R:\Раздача 50\Era - 2009 - Classics\08 Wings Of Hope.wav
Длина предзазора 0:00:01.00
Пиковый уровень 89.0 % Скорость извлечения 6.9 X Качество трека 100.0 % CRC теста C423C81F CRC копии C423C81F Трек не обнаружен в базе AccurateRip Копирование... OK
Трек 9
Имя файла R:\Раздача 50\Era - 2009 - Classics\09 Sombre Day.wav
Длина предзазора 0:00:01.00
Пиковый уровень 89.0 % Скорость извлечения 6.3 X Качество трека 99.9 % CRC теста 83C59630 CRC копии 83C59630 Трек не обнаружен в базе AccurateRip Копирование... OK
Трек 10
Имя файла R:\Раздача 50\Era - 2009 - Classics\10 Ameno (Remix).wav
Длина предзазора 0:00:01.00
Пиковый уровень 88.5 % Скорость извлечения 6.5 X Качество трека 99.9 % CRC теста 49446B26 CRC копии 49446B26 Трек не обнаружен в базе AccurateRip Копирование... OK
Трек 11
Имя файла R:\Раздача 50\Era - 2009 - Classics\11 Don't Go Away.wav
Длина предзазора 0:00:01.00
Пиковый уровень 88.5 % Скорость извлечения 7.7 X Качество трека 100.0 % CRC теста 4CA62939 CRC копии 4CA62939 Трек не обнаружен в базе AccurateRip Копирование... OK
Трек 12
Имя файла R:\Раздача 50\Era - 2009 - Classics\12 The Mass.wav
Длина предзазора 0:00:01.00
Пиковый уровень 78.8 % Скорость извлечения 9.2 X Качество трека 100.0 % CRC теста FD5A8163 CRC копии FD5A8163 Трек не обнаружен в базе AccurateRip Копирование... OK
Трек 13
Имя файла R:\Раздача 50\Era - 2009 - Classics\13 Mother (Remix).wav
Длина предзазора 0:00:01.00
Пиковый уровень 99.3 % Скорость извлечения 9.5 X Качество трека 100.0 % CRC теста B4A108B0 CRC копии B4A108B0 Трек не обнаружен в базе AccurateRip Копирование... OK
Трек 14
Имя файла R:\Раздача 50\Era - 2009 - Classics\14 Enae Volare.wav
Длина предзазора 0:00:01.00
Пиковый уровень 78.9 % Скорость извлечения 9.6 X Качество трека 100.0 % CRC теста 0B452BC0 CRC копии 0B452BC0 Трек не обнаружен в базе AccurateRip Копирование... OK
Трек 15
Имя файла R:\Раздача 50\Era - 2009 - Classics\15 Misere Mani.wav
Длина предзазора 0:00:01.00
Пиковый уровень 88.9 % Скорость извлечения 10.0 X Качество трека 100.0 % CRC теста E93815A8 CRC копии E93815A8 Трек не обнаружен в базе AccurateRip Копирование... OK
Трек 16
Имя файла R:\Раздача 50\Era - 2009 - Classics\16 Hymne.wav
Длина предзазора 0:00:01.00
Пиковый уровень 86.5 % Скорость извлечения 10.5 X Качество трека 100.0 % CRC теста 3224F18E CRC копии 3224F18E Трек не обнаружен в базе AccurateRip Копирование... OK
Трек 17
Имя файла R:\Раздача 50\Era - 2009 - Classics\17 Sentence.wav
Длина предзазора 0:00:01.00
Пиковый уровень 87.8 % Скорость извлечения 8.2 X Качество трека 99.9 % CRC теста 40606F1C CRC копии 40606F1C Трек не обнаружен в базе AccurateRip Копирование... OK
Трек 18
Имя файла R:\Раздача 50\Era - 2009 - Classics\18 I Beleive.wav
Длина предзазора 0:00:01.00
Пиковый уровень 88.5 % Скорость извлечения 10.8 X Качество трека 100.0 % CRC теста 23490C8D CRC копии 23490C8D Трек не обнаружен в базе AccurateRip Копирование... OK
Трек 19
Имя файла R:\Раздача 50\Era - 2009 - Classics\19 Adagio For Strings (ERA Version).wav
Длина предзазора 0:00:01.00
Пиковый уровень 89.0 % Скорость извлечения 10.0 X Качество трека 100.0 % CRC теста 52F7B222 CRC копии 52F7B222 Трек не обнаружен в базе AccurateRip Копирование... OK
Ни одного трека нет в базе AccurateRip
Ошибок не произошло
Конец отчёта
==== Контрольная сумма отчёта 982320A0EE8D5815462E67F01B448CA18502749441D987142BD192F47785E28F ====

Содержание индексной карты (.CUE)

REM GENRE "New Age"REM DATE 2009REM DISCID 16121413REM COMMENT "ExactAudioCopy v1.0b3"PERFORMER "Era"TITLE "Classics + bonus"FILE "01 Redemtion.wav" WAVE TRACK 01 AUDIO TITLE "Redemtion" PERFORMER "Era" FLAGS DCP INDEX 01 00:00:00 TRACK 02 AUDIO TITLE "Sunset Drive" PERFORMER "Era" FLAGS DCP INDEX 00 04:49:17FILE "02 Sunset Drive.wav" WAVE INDEX 01 00:00:00 TRACK 03 AUDIO TITLE "Arising Force" PERFORMER "Era" FLAGS DCP INDEX 00 03:35:53FILE "03 Arising Force.wav" WAVE INDEX 01 00:00:00 TRACK 04 AUDIO TITLE "The Chosen Path" PERFORMER "Era" FLAGS DCP INDEX 00 03:44:32FILE "04 The Chosen Path.wav" WAVE INDEX 01 00:00:00 TRACK 05 AUDIO TITLE "Ritus Paciis" PERFORMER "Era" FLAGS DCP INDEX 00 04:13:59FILE "05 Ritus Paciis.wav" WAVE INDEX 01 00:00:00 TRACK 06 AUDIO TITLE "Adagietto" PERFORMER "Era" FLAGS DCP INDEX 00 03:41:17FILE "06 Adagietto.wav" WAVE INDEX 01 00:00:00 TRACK 07 AUDIO TITLE "Dark Wonders" PERFORMER "Era" FLAGS DCP INDEX 00 05:16:54FILE "07 Dark Wonders.wav" WAVE INDEX 01 00:00:00 TRACK 08 AUDIO TITLE "Wings Of Hope" PERFORMER "Era" FLAGS DCP INDEX 00 03:50:59FILE "08 Wings Of Hope.wav" WAVE INDEX 01 00:00:00 TRACK 09 AUDIO TITLE "Sombre Day" PERFORMER "Era" FLAGS DCP INDEX 00 03:59:66FILE "09 Sombre Day.wav" WAVE INDEX 01 00:00:00 TRACK 10 AUDIO TITLE "Ameno (Remix)" PERFORMER "Era" FLAGS DCP INDEX 00 03:49:03FILE "10 Ameno (Remix).wav" WAVE INDEX 01 00:00:00 TRACK 11 AUDIO TITLE "Don't Go Away" PERFORMER "Era" FLAGS DCP INDEX 00 03:43:59FILE "11 Don't Go Away.wav" WAVE INDEX 01 00:00:00 TRACK 12 AUDIO TITLE "The Mass" PERFORMER "Era" FLAGS DCP INDEX 00 04:19:37FILE "12 The Mass.wav" WAVE INDEX 01 00:00:00 TRACK 13 AUDIO TITLE "Mother (Remix)" PERFORMER "Era" FLAGS DCP INDEX 00 03:37:04FILE "13 Mother (Remix).wav" WAVE INDEX 01 00:00:00 TRACK 14 AUDIO TITLE "Enae Volare" PERFORMER "Era" FLAGS DCP INDEX 00 04:00:46FILE "14 Enae Volare.wav" WAVE INDEX 01 00:00:00 TRACK 15 AUDIO TITLE "Misere Mani" PERFORMER "Era" FLAGS DCP INDEX 00 03:31:57FILE "15 Misere Mani.wav" WAVE INDEX 01 00:00:00 TRACK 16 AUDIO TITLE "Hymne" PERFORMER "Era" FLAGS DCP INDEX 00 04:00:12FILE "16 Hymne.wav" WAVE INDEX 01 00:00:00 TRACK 17 AUDIO TITLE "Sentence" PERFORMER "Era" FLAGS DCP INDEX 00 04:48:05FILE "17 Sentence.wav" WAVE INDEX 01 00:00:00 TRACK 18 AUDIO TITLE "I Beleive" PERFORMER "Era" FLAGS DCP INDEX 00 04:47:12FILE "18 I Beleive.wav" WAVE INDEX 01 00:00:00 TRACK 19 AUDIO TITLE "Adagio For Strings (ERA Version)" PERFORMER "Era" FLAGS DCP INDEX 00 04:19:55FILE "19 Adagio For Strings (ERA Version).wav" WAVE INDEX 01 00:00:00

[doutdess.info].t81081.torrent
Torrent: Registered [ 2015-10-05 00:30 ] · 8D820D71CEF3D6AD5DAE70AFA53BBDBD7DCF93E1

20 KB

Status: checked
Completed: 0 times
Size: 464 MB
(New Age) [CD] Era - Classics (full version) - 2009, FLAC (tracks+.cue), lossless скачать торрент бесплатно и без регистрации

[Profile] [PM]
Forum Topic Author Size
NewAge & Meditative lossless (New Age) Al Gromer Khan & Emin Corrado - Tantra Electronica - 2004, FLAC (tracks+.cue), lossless RelizMAN 284 MB
NewAge & Meditative lossless (New Age) Al Gromer Khan - Negus - The Royal Principle - 2008, FLAC (tracks+.cue), lossless RelizMAN 227 MB
NewAge & Meditative lossless (New Age) Amethystium - 2005 - "Transversa" [APE (image + .cue)], lossless RelizMAN 437 MB
NewAge & Meditative lossless (New Age) Anima - Temple of the Stars - 2010, FLAC (tracks+.cue), lossless RelizMAN 376 MB
NewAge & Meditative lossless (New Age) Anne Linnet - Relax, No. 1 - 2003, FLAC (tracks+.cue), lossless RelizMAN 312 MB
NewAge & Meditative lossless (New Age) Anthony Miles - Music For Children - 1995, APE (image+.cue) lossless RelizMAN 212 MB
NewAge & Meditative lossless (New Age) Anuragi - Highway Back Home (1990), Morning & Evening Meditation (1992), APE (image + .cue), lossless RelizMAN 331 MB
NewAge & Meditative lossless (New Age) Asha - Chosen by You - 2002, FLAC (tracks+.cue), lossless RelizMAN 350 MB
Display posts:    

Current time is: 24-Jun 19:00

All times are UTC + 3



You cannot post new topics in this forum
You cannot reply to topics in this forum
You cannot edit your posts in this forum
You cannot delete your posts in this forum
You cannot vote in polls in this forum
You cannot attach files in this forum
You can download files in this forum