Reply to topic
DL-List and Torrent activity [Update пиров]
Size:  937 MB   |    Registered:  3 years 8 months   |    Completed:  0 times
Seeders:  78  [  0 KB/s  ]   Leechers:  25  [  0 KB/s  ]  
 
     
 
 
Author Message

RelizMAN ®

11

Post 05-Oct-2015 00:31

[Quote]


CinCin Lee - Story Island
Жанр: New Age, Instrumental, Relax
Носитель: CD
Год издания: 2009
Издатель (лейбл): Wind music
Номер по каталогу: 5311-14
Аудиокодек: FLAC (*.flac)
Тип рипа: image+.cue
Битрейт аудио: lossless
Продолжительность: 02:56:43
Источник (релизер): internet
Наличие сканов в содержимом раздачи: нет

TCD-5311 - Hometown at the Foot of Grass Mountain


01. 草山
02. 大稻埕
03. 淡水.餘暉
04. 北投
05. 24小時書店
06. 中山北路
07. 春日在烏來
08. 九份山城
09. 城市夜未眠
10. 那即將被遺忘的
43:10

auCDtect

-----------------------
DON'T MODIFY THIS FILE
-----------------------
PERFORMER: auCDtect Task Manager, ver. 1.6.0 RC1 build 1.6.0.1
Copyright (c) 2008-2010 y-soft. All rights reserved
http://y-soft.org
ANALYZER: auCDtect: CD records authenticity detector, version 0.8.2
Copyright (c) 2004 Oleg Berngardt. All rights reserved.
Copyright (c) 2004 Alexander Djourik. All rights reserved.
FILE: CDImage.flac
Size: 228114254 Hash: 8DB411C335A7932571E4DDB8DD014FCD Accuracy: -m0
Conclusion: CDDA 100%
Signature: FF2086CAC3DC7B96DE126089565AFE132F7D1A30

Cue

PERFORMER "风潮音乐"
TITLE "TCD-5311 故事岛 1"
FILE "CDImage.flac" WAVE
TRACK 01 AUDIO
TITLE "草山"
PERFORMER "李欣芸"
INDEX 01 00:00:00
TRACK 02 AUDIO
TITLE "大稻埕"
PERFORMER "李欣芸"
INDEX 01 04:40:04
TRACK 03 AUDIO
TITLE "淡水•余晖"
PERFORMER "李欣芸"
INDEX 01 08:51:01
TRACK 04 AUDIO
TITLE "北投"
PERFORMER "李欣芸"
INDEX 01 12:44:64
TRACK 05 AUDIO
TITLE "24小时书店"
PERFORMER "李欣芸"
INDEX 01 16:53:34
TRACK 06 AUDIO
TITLE "中山北路"
PERFORMER "李欣芸"
INDEX 01 21:15:50
TRACK 07 AUDIO
TITLE "春日在乌来"
PERFORMER "李欣芸"
INDEX 01 25:53:46
TRACK 08 AUDIO
TITLE "九份山城"
PERFORMER "李欣芸"
INDEX 01 30:36:51
TRACK 09 AUDIO
TITLE "城市夜未眠"
PERFORMER "李欣芸"
INDEX 01 33:49:54
TRACK 10 AUDIO
TITLE "那即将被遗忘的"
PERFORMER "李欣芸"
INDEX 01 38:09:40

TCD-5312 - Tales of Sun Moon Lake


01. 湖岸月光
02. 先生媽說故事
03. 狩獵
04. 白鹿
05. 發現水沙漣
06. Lalu島上的茄苳樹王
07. 杵歌
08. 慶豐年
09. 入侵者
10. 破曉
11. 那些流入記憶的
43:14

auCDtect

-----------------------
DON'T MODIFY THIS FILE
-----------------------
PERFORMER: auCDtect Task Manager, ver. 1.6.0 RC1 build 1.6.0.1
Copyright (c) 2008-2010 y-soft. All rights reserved
http://y-soft.org
ANALYZER: auCDtect: CD records authenticity detector, version 0.8.2
Copyright (c) 2004 Oleg Berngardt. All rights reserved.
Copyright (c) 2004 Alexander Djourik. All rights reserved.
FILE: CDImage.flac
Size: 249771196 Hash: 59A6662B1A1191A18A5A8263A057A1E5 Accuracy: -m0
Conclusion: CDDA 99%
Signature: 364F4B93ADC83BEA32D9C695DFFAA2180A6F23B9

Cue

PERFORMER "风潮音乐"
TITLE "TCD-5312 故事岛 2"
FILE "CDImage.flac" WAVE
TRACK 01 AUDIO
TITLE "湖岸月光"
PERFORMER "李欣芸"
INDEX 01 00:00:00
TRACK 02 AUDIO
TITLE "先生妈说故事"
PERFORMER "李欣芸"
INDEX 01 04:26:67
TRACK 03 AUDIO
TITLE "狩猎"
PERFORMER "李欣芸"
INDEX 01 09:12:39
TRACK 04 AUDIO
TITLE "白鹿"
PERFORMER "李欣芸"
INDEX 01 13:00:67
TRACK 05 AUDIO
TITLE "发现水沙涟"
PERFORMER "李欣芸"
INDEX 01 17:11:02
TRACK 06 AUDIO
TITLE "Lalu岛上的茄苳树王"
PERFORMER "李欣芸"
INDEX 01 21:04:73
TRACK 07 AUDIO
TITLE "杵歌"
PERFORMER "李欣芸"
INDEX 01 24:35:20
TRACK 08 AUDIO
TITLE "庆丰年"
PERFORMER "李欣芸"
INDEX 01 27:57:26
TRACK 09 AUDIO
TITLE "入侵者"
PERFORMER "李欣芸"
INDEX 01 31:59:41
TRACK 10 AUDIO
TITLE "破晓"
PERFORMER "李欣芸"
INDEX 01 34:12:01
TRACK 11 AUDIO
TITLE "那些流入记忆的"
PERFORMER "李欣芸"
INDEX 01 39:02:56

TCD-5313 - Sunshine for Free


01. 鷹之谷
02. 牡丹的白鷺鷥
03. 思想起
04. 渡假大街
05. 日落關山
06. 龍磐星星
07. 海岸咖啡亭
08. 熱天午后的南灣
09. 旭海草原
10. 26號公路
44:49

auCDtect

-----------------------
DON'T MODIFY THIS FILE
-----------------------
PERFORMER: auCDtect Task Manager, ver. 1.6.0 RC1 build 1.6.0.1
Copyright (c) 2008-2010 y-soft. All rights reserved
http://y-soft.org
ANALYZER: auCDtect: CD records authenticity detector, version 0.8.2
Copyright (c) 2004 Oleg Berngardt. All rights reserved.
Copyright (c) 2004 Alexander Djourik. All rights reserved.
FILE: CDImage.flac
Size: 247113466 Hash: C7DB5F261B14FBE684B8F8A93F645659 Accuracy: -m0
Conclusion: CDDA 100%
Signature: 2D4BF4659FD1E99BB1F57BC2B4576C6DCD3B820A

Cue

PERFORMER "风潮音乐"
TITLE "TCD-5313 故事岛 3"
FILE "CDImage.flac" WAVE
TRACK 01 AUDIO
TITLE "鹰之谷"
PERFORMER "李欣芸"
INDEX 01 00:00:00
TRACK 02 AUDIO
TITLE "牡丹的白鹭鸶"
PERFORMER "李欣芸"
INDEX 01 04:35:22
TRACK 03 AUDIO
TITLE "思想起"
PERFORMER "李欣芸"
INDEX 01 08:35:36
TRACK 04 AUDIO
TITLE "渡假大街"
PERFORMER "李欣芸"
INDEX 01 13:03:44
TRACK 05 AUDIO
TITLE "日落关山"
PERFORMER "李欣芸"
INDEX 01 18:23:00
TRACK 06 AUDIO
TITLE "龙磐星星"
PERFORMER "李欣芸"
INDEX 01 22:36:43
TRACK 07 AUDIO
TITLE "海岸咖啡亭"
PERFORMER "李欣芸"
INDEX 01 27:13:74
TRACK 08 AUDIO
TITLE "热天午后的南湾"
PERFORMER "李欣芸"
INDEX 01 31:39:53
TRACK 09 AUDIO
TITLE "旭海草原"
PERFORMER "李欣芸"
INDEX 01 35:32:14
TRACK 10 AUDIO
TITLE "26号公路"
PERFORMER "李欣芸"
INDEX 01 39:45:31

TCD-5314 - The Last Paradise


01. 鐵道
02. 山上的孩子
03. 太麻里
04. 知本溫泉
05. 都蘭老糖廠的咖啡屋
06. 部落之音
07. 雨中琵琶湖
08. 泰源幽谷的猴子
09. 海洋.圍繞著我的.家
10. 電光稻浪
45:30

auCDtect

-----------------------
DON'T MODIFY THIS FILE
-----------------------
PERFORMER: auCDtect Task Manager, ver. 1.6.0 RC1 build 1.6.0.1
Copyright (c) 2008-2010 y-soft. All rights reserved
http://y-soft.org
ANALYZER: auCDtect: CD records authenticity detector, version 0.8.2
Copyright (c) 2004 Oleg Berngardt. All rights reserved.
Copyright (c) 2004 Alexander Djourik. All rights reserved.
FILE: CDImage.flac
Size: 256703978 Hash: C971C982208ABC249A1776CCBCF23F46 Accuracy: -m0
Conclusion: CDDA 100%
Signature: 344FCE63D72A37D37E6E430983CE615F4FB1947D

Cue

PERFORMER "风潮音乐"
TITLE "TCD-5314 故事岛 4"
FILE "CDImage.flac" WAVE
TRACK 01 AUDIO
TITLE "铁道"
PERFORMER "李欣芸"
INDEX 01 00:00:00
TRACK 02 AUDIO
TITLE "山上的孩子"
PERFORMER "李欣芸"
INDEX 01 03:45:35
TRACK 03 AUDIO
TITLE "太麻里"
PERFORMER "李欣芸"
INDEX 01 07:52:42
TRACK 04 AUDIO
TITLE "知本温泉"
PERFORMER "李欣芸"
INDEX 01 13:24:45
TRACK 05 AUDIO
TITLE "都兰老糖厂的咖啡屋"
PERFORMER "李欣芸"
INDEX 01 17:09:50
TRACK 06 AUDIO
TITLE "部落之音"
PERFORMER "李欣芸"
INDEX 01 21:26:65
TRACK 07 AUDIO
TITLE "雨中琵琶湖"
PERFORMER "李欣芸"
INDEX 01 25:44:49
TRACK 08 AUDIO
TITLE "泰源幽谷的猴子"
PERFORMER "李欣芸"
INDEX 01 30:25:64
TRACK 09 AUDIO
TITLE "海洋.围绕着我的•家"
PERFORMER "李欣芸"
INDEX 01 34:04:00
TRACK 10 AUDIO
TITLE "电光稻浪"
PERFORMER "李欣芸"
INDEX 01 40:08:08

Об альбоме (сборнике)

CinCin Lee’s Taiwan Travel Music
An album of music on the theme of travel in Taiwan composed by Golden Melody Award and Golden Horse Award-winning musician CinCin Lee, with an album package design by Xiao Qing-yang, the first Asian album designer to receive three Grammy nominations
Taiwan is an island of stories. Many stories have happened here, giving color to both day and night. Two artists tell their stories of travel in Taiwan through music and art design. The Story Island tells us of the unspoiled beauty of the happy land of Taidong and of the human culture and spiritual nature of Sun Moon Lake. It tells us of the passion of Kending, and of the cosmopolitan, bustling nature of Taipei.
CinCin Lee, winner of multiple Golden Melody Awards and Golden Horse Awards, is a well-known composer of soundtrack music. She has blended the power of film music, the passion of Latin American music, the romantic feel of jazz and the gentle spirit of New Age music with the original sounds and deep feelings of Taiwan to create music that evokes the scenery one sees when travelling in Taiwan.
Xiao Qing-yang is the only Asian art designer to be nominated three times for a Grammy. Having spent a great deal of time studying paper cutting art, he and his team have worked day and night to create images that tell moving stories of Taiwan.

[doutdess.info].t81089.torrent
Torrent: Registered [ 2015-10-05 00:30 ] · 3F70412249B2F349818F0201DDEF321AD3C314CB

20 KB

Status: checked
Completed: 0 times
Size: 937 MB
(New Age, Instrumental, Relax) [CD] CinCin Lee - Story Island (4CD) - 2009, FLAC (image+.cue), lossless скачать торрент бесплатно и без регистрации

[Profile] [PM]
Forum Topic Author Size
Фламенко и акустическая гитара lossy (New age, Acoustic guitar) Moreza - Crimson Moon - 2011, MP3, 320 kbps Vi$itReal 107 MB
Фламенко и акустическая гитара lossy (New Age, Acoustic guitar) William Ackerman Discography (1976-2010, 14CD) MP3-tracks CBR 320 kbps Vi$itReal 1.41 GB
Фламенко и акустическая гитара lossy (New Age, Acoustic Guitar, Flamenco) Daveed - World of Illusions (2016), MP3, 320 kbps Vi$itReal 75 MB
NewAge & Meditative lossy (New Age, Acoustic) Antonio Morina Gallerio - Old Fashioned Acoustic Music - 2015, MP3, 320 kbps Vi$itReal 135 MB
NewAge & Meditative lossy (New Age, Acoustic, Ambient) Mishroom & The Galactic Family - Along The Same Path - 2016, MP3, 320 kbps Vi$itReal 134 MB
NewAge & Meditative lossless (New Age, Acoustic, Meditative) Ron Korb - \'Flute Traveller\' - 1994, APE (image+.cue), lossless RelizMAN 159 MB
Фольклор, Народная и Этническая музыка собственные оцифровки (New Age, Acoustic, Neofolk) [24/48] Michael Hedges - Aerial Boundaries - 1984, FLAC (image+.cue) RelizMAN 416 MB
Фламенко и акустическая гитара lossless (New Age, Acoustic, Neofolk) [CD] Michael Hedges - Aerial Boundaries - 1984 (2015 Audio Fidelity), FLAC (tracks+.cue), lossless RelizMAN 173 MB
Display posts:    

Current time is: 27-Jun 15:55

All times are UTC + 3



You cannot post new topics in this forum
You cannot reply to topics in this forum
You cannot edit your posts in this forum
You cannot delete your posts in this forum
You cannot vote in polls in this forum
You cannot attach files in this forum
You can download files in this forum