Reply to topic
DL-List and Torrent activity [Update пиров]
Size:  1.01 GB   |    Registered:  3 years 8 months   |    Completed:  0 times
Seeders:  758  [  0 KB/s  ]   Leechers:  25  [  0 KB/s  ]  
 
     
 
 
Author Message

RelizMAN ®

11

Post 05-Oct-2015 00:31

[Quote]

Wong Wing Tsan
Жанр: New Age, Instrumental, Piano
Носитель: CD
Год издания: 1996-2010
Издатель (лейбл): Wind music
Аудиокодек: FLAC (*.flac)
Тип рипа: image+.cue
Битрейт аудио: lossless
Продолжительность: 04:33:35
Источник (релизер): internet
Наличие сканов в содержимом раздачи: да

TCD-9189 - 1996 - Wong Wing Tsan - Fragance


01. 香氣
02. 香水海
03. 多維爾海岸
04. 遠方
05. 那些遺落的日子
06. 深深深窗
07. 無盡處
08. 小春日和
09. 雲天
10. 就那麼一點
43:59

auCDtect

-----------------------
DON'T MODIFY THIS FILE
-----------------------
PERFORMER: auCDtect Task Manager, ver. 1.6.0 RC1 build 1.6.0.1
Copyright (c) 2008-2010 y-soft. All rights reserved
http://y-soft.org
ANALYZER: auCDtect: CD records authenticity detector, version 0.8.2
Copyright (c) 2004 Oleg Berngardt. All rights reserved.
Copyright (c) 2004 Alexander Djourik. All rights reserved.
FILE: CDImage.flac
Size: 197205620 Hash: 5109DFCC40A9D2613265F914528D29E1 Accuracy: -m0
Conclusion: CDDA 100%
Signature: 740B461887D9D12C49AFB6F279195D7DA11D87B9

Cue

PERFORMER "风潮唱片"
TITLE "TCD-9189 香气"
FILE "CDImage.flac" WAVE
TRACK 01 AUDIO
TITLE "香气"
PERFORMER "黄永灿"
INDEX 01 00:00:00
TRACK 02 AUDIO
TITLE "香水海"
PERFORMER "黄永灿"
INDEX 00 04:12:31
INDEX 01 04:14:62
TRACK 03 AUDIO
TITLE "多维尔海岸"
PERFORMER "黄永灿"
INDEX 00 08:24:12
INDEX 01 08:26:40
TRACK 04 AUDIO
TITLE "远方"
PERFORMER "黄永灿"
INDEX 00 14:12:11
INDEX 01 14:14:27
TRACK 05 AUDIO
TITLE "那些遗落的日子"
PERFORMER "黄永灿"
INDEX 00 18:25:24
INDEX 01 18:27:45
TRACK 06 AUDIO
TITLE "深深深窗"
PERFORMER "黄永灿"
INDEX 00 23:27:45
INDEX 01 23:29:67
TRACK 07 AUDIO
TITLE "无尽处"
PERFORMER "黄永灿"
INDEX 00 27:45:36
INDEX 01 27:47:62
TRACK 08 AUDIO
TITLE "小春日和"
PERFORMER "黄永灿"
INDEX 00 33:54:43
INDEX 01 33:56:02
TRACK 09 AUDIO
TITLE "云天"
PERFORMER "黄永灿"
INDEX 00 38:46:48
INDEX 01 38:48:15
TRACK 10 AUDIO
TITLE "就那么一点"
PERFORMER "黄永灿"
INDEX 00 43:07:15
INDEX 01 43:09:47

TCD-9185 - 2008 - Wong Wing Tsan - Quiet as Shiban


01 如诗般 宁静 (钢琴短版)
02 孔雀色的湖
03 光影之歌
04 长梦
05 水问
06 如诗般 宁静 (钢琴弦乐版)
07 白色印记
08 云雾中伫立的人
09 偷偷地唱
10 珍珠的幻想
11 如诗般 宁静 (钢琴长版)
51:48

auCDtect

-----------------------
DON'T MODIFY THIS FILE
-----------------------
PERFORMER: auCDtect Task Manager, ver. 1.6.0 RC1 build 1.6.0.1
Copyright (c) 2008-2010 y-soft. All rights reserved
http://y-soft.org
ANALYZER: auCDtect: CD records authenticity detector, version 0.8.2
Copyright (c) 2004 Oleg Berngardt. All rights reserved.
Copyright (c) 2004 Alexander Djourik. All rights reserved.
FILE: CDImage.flac
Size: 187536174 Hash: 1E3077903F427470AA6B4B1A056E89B8 Accuracy: -m0
Conclusion: CDDA 100%
Signature: 2E0822D15043AC4C3A5511E3199F8C79EF18DBBD

Cue

PERFORMER "风潮音乐"
TITLE "TCD-9185 如诗般宁静"
FILE "CDImage.flac" WAVE
TRACK 01 AUDIO
TITLE "如诗般 宁静 (钢琴短版)"
INDEX 01 00:00:00
TRACK 02 AUDIO
TITLE "孔雀色的湖"
INDEX 00 02:52:41
INDEX 01 02:54:41
TRACK 03 AUDIO
TITLE "光影之歌"
INDEX 00 07:44:00
INDEX 01 07:46:00
TRACK 04 AUDIO
TITLE "长梦"
INDEX 00 12:10:17
INDEX 01 12:12:17
TRACK 05 AUDIO
TITLE "水问"
INDEX 00 15:29:00
INDEX 01 15:31:00
TRACK 06 AUDIO
TITLE "如诗般 宁静 (钢琴弦乐版)"
INDEX 00 21:08:39
INDEX 01 21:10:39
TRACK 07 AUDIO
TITLE "白色印记"
INDEX 00 27:05:66
INDEX 01 27:07:66
TRACK 08 AUDIO
TITLE "云雾中伫立的人"
INDEX 00 34:21:32
INDEX 01 34:23:32
TRACK 09 AUDIO
TITLE "偷偷地唱"
INDEX 00 39:28:48
INDEX 01 39:30:48
TRACK 10 AUDIO
TITLE "珍珠的幻想"
INDEX 00 42:47:11
INDEX 01 42:49:11
TRACK 11 AUDIO
TITLE "如诗般 宁静 (钢琴长版)"
INDEX 00 46:25:48
INDEX 01 46:27:48

TCD-9205 - 2009 - Wong Wing Tsan - Blissful City


01 微风 轻吹那城
02 光之回旋舞
03 过往
04 美丽时光
05 浮生
06 微笑的弧度
07 漩流
08 灿星
09 樱花
10 珍爱的家
01:01:17

auCDtect

-----------------------
DON'T MODIFY THIS FILE
-----------------------
PERFORMER: auCDtect Task Manager, ver. 1.6.0 RC1 build 1.6.0.1
Copyright (c) 2008-2010 y-soft. All rights reserved
http://y-soft.org
ANALYZER: auCDtect: CD records authenticity detector, version 0.8.2
Copyright (c) 2004 Oleg Berngardt. All rights reserved.
Copyright (c) 2004 Alexander Djourik. All rights reserved.
FILE: CDImage.flac
Size: 253364447 Hash: C077A9B48A117210F4909B3E45D1B250 Accuracy: -m0
Conclusion: CDDA 99%
Signature: AA55B1ABB2D66BB9BF33470E0B7394813544101E

Cue

PERFORMER "风潮音乐"
TITLE "TCD-9205 微风轻吹那城"
FILE "CDImage.flac" WAVE
TRACK 01 AUDIO
TITLE "微风 轻吹那城"
INDEX 01 00:00:00
TRACK 02 AUDIO
TITLE "光之回旋舞"
INDEX 01 07:02:54
TRACK 03 AUDIO
TITLE "过往"
INDEX 01 13:34:05
TRACK 04 AUDIO
TITLE "美丽时光"
INDEX 01 18:29:70
TRACK 05 AUDIO
TITLE "浮生"
INDEX 01 24:40:21
TRACK 06 AUDIO
TITLE "微笑的弧度"
INDEX 01 29:44:37
TRACK 07 AUDIO
TITLE "漩流"
INDEX 01 34:11:42
TRACK 08 AUDIO
TITLE "灿星"
INDEX 01 38:11:36
TRACK 09 AUDIO
TITLE "樱花"
INDEX 01 44:02:64
TRACK 10 AUDIO
TITLE "珍爱的家"
INDEX 01 51:55:31

TCD-9212 - 2010 - Wong Wing Tsan - Serene Hill - 2CD


Disc 1:钢琴独奏版 piano ver.
01. 水蓝色星球 (钢琴版)
02. 灯明香花 (钢琴版)
03. 光之径 (钢琴版)
04. 心声 (钢琴版)
05. 寂静之丘 (钢琴版)
06. 作梦的风 (钢琴版)
07. 来听铃铛树唱歌 (钢琴版)
08. 岚 (钢琴版)
09. 故事的结局 (钢琴版)
10. 来听铃铛树唱歌 - 慢版 (钢琴版)
58:11
Disc 2:钢琴弦乐版 piano+violin
01. 水蓝色星球 (钢琴弦乐版)
02. 灯明香花 (钢琴弦乐版)
03. 光之径 (钢琴弦乐版)
04. 心声 (钢琴弦乐版)
05. 寂静之丘 (钢琴弦乐版)
06. 作梦的风 (钢琴弦乐版)
07. 来听铃铛树唱歌 (钢琴弦乐版)
08. 岚 (钢琴弦乐版)
09. 故事的结局 (钢琴弦乐版)
10. 来听铃铛树唱歌 - 慢版 (钢琴弦乐版)
58:16

auCDtect

-----------------------
DON'T MODIFY THIS FILE
-----------------------
PERFORMER: auCDtect Task Manager, ver. 1.6.0 RC1 build 1.6.0.1
Copyright (c) 2008-2010 y-soft. All rights reserved
http://y-soft.org
ANALYZER: auCDtect: CD records authenticity detector, version 0.8.2
Copyright (c) 2004 Oleg Berngardt. All rights reserved.
Copyright (c) 2004 Alexander Djourik. All rights reserved.
FILE: CDImage2.flac
Size: 249449627 Hash: F9BD16FF35C75598EBEDC4988C2DBB8A Accuracy: -m0
Conclusion: CDDA 100%
Signature: 8907DADDAB4D37F573FC2E45CA91CD57405CA848
FILE: CDImage1.flac
Size: 189678357 Hash: C643779A38792FCF785E2E376CE487FE Accuracy: -m0
Conclusion: CDDA 100%
Signature: 51988C58786CAD7E433C66B5F4BF526FB08BB57F

Cue

PERFORMER "风潮音乐"
TITLE "TCD-9212 寂静之丘.钢琴独奏版"
FILE "CDImage1.flac" WAVE
TRACK 01 AUDIO
TITLE "水蓝色星球(钢琴独奏版)"
PERFORMER "风潮音乐"
INDEX 01 00:00:00
TRACK 02 AUDIO
TITLE "灯明香花(钢琴独奏版)"
PERFORMER "风潮音乐"
INDEX 01 05:28:49
TRACK 03 AUDIO
TITLE "光之径(钢琴独奏版)"
PERFORMER "风潮音乐"
INDEX 01 11:50:23
TRACK 04 AUDIO
TITLE "心声(钢琴独奏版)"
PERFORMER "风潮音乐"
INDEX 01 17:42:53
TRACK 05 AUDIO
TITLE "寂静之丘(钢琴独奏版)"
PERFORMER "风潮音乐"
INDEX 01 24:17:72
TRACK 06 AUDIO
TITLE "作梦的风(钢琴独奏版)"
PERFORMER "风潮音乐"
INDEX 01 29:43:65
TRACK 07 AUDIO
TITLE "来听铃铛树唱歌(钢琴独奏版)"
PERFORMER "风潮音乐"
INDEX 01 35:46:37
TRACK 08 AUDIO
TITLE "岚(钢琴独奏版)"
PERFORMER "风潮音乐"
INDEX 01 41:23:29
TRACK 09 AUDIO
TITLE "故事的结局(钢琴独奏版)"
PERFORMER "风潮音乐"
INDEX 01 47:08:47
TRACK 10 AUDIO
TITLE "来听铃铛树唱歌(慢板)(钢琴独奏版)"
PERFORMER "风潮音乐"
INDEX 01 51:59:03
PERFORMER "风潮音乐"
TITLE "TCD-9212 寂静之丘.钢琴弦乐版"
FILE "CDImage2.flac" WAVE
TRACK 01 AUDIO
TITLE "水蓝色星球(钢琴弦乐版)"
PERFORMER "风潮音乐"
INDEX 01 00:00:00
TRACK 02 AUDIO
TITLE "灯明香花(钢琴弦乐版)"
PERFORMER "风潮音乐"
INDEX 01 05:29:69
TRACK 03 AUDIO
TITLE "光之径(钢琴弦乐版)"
PERFORMER "风潮音乐"
INDEX 01 11:46:68
TRACK 04 AUDIO
TITLE "心声(钢琴弦乐版)"
PERFORMER "风潮音乐"
INDEX 01 17:39:72
TRACK 05 AUDIO
TITLE "寂静之丘(钢琴弦乐版)"
PERFORMER "风潮音乐"
INDEX 01 24:19:30
TRACK 06 AUDIO
TITLE "作梦的风(钢琴弦乐版)"
PERFORMER "风潮音乐"
INDEX 01 29:48:65
TRACK 07 AUDIO
TITLE "来听铃铛树唱歌(钢琴弦乐版)"
PERFORMER "风潮音乐"
INDEX 01 35:54:43
TRACK 08 AUDIO
TITLE "岚(钢琴弦乐版)"
PERFORMER "风潮音乐"
INDEX 01 41:28:29
TRACK 09 AUDIO
TITLE "故事的结局(钢琴弦乐版)"
PERFORMER "风潮音乐"
INDEX 01 47:11:41
TRACK 10 AUDIO
TITLE "来听铃铛树唱歌(慢板)(钢琴弦乐版)"
PERFORMER "风潮音乐"
INDEX 01 52:00:31

[doutdess.info].t81087.torrent
Torrent: Registered [ 2015-10-05 00:30 ] · 5E262C109253A84E74C84BD3195CEFC622491978

13 KB

Status: checked
Completed: 0 times
Size: 1.01 GB
(New Age, Instrumental, Piano) [CD] Wong Wing Tsan - 1996-2010, FLAC (image+.cue), lossless скачать торрент бесплатно и без регистрации

[Profile] [PM]
Forum Topic Author Size
Фламенко и акустическая гитара lossy (New age, Acoustic guitar) Moreza - Crimson Moon - 2011, MP3, 320 kbps Vi$itReal 107 MB
Фламенко и акустическая гитара lossy (New Age, Acoustic guitar) William Ackerman Discography (1976-2010, 14CD) MP3-tracks CBR 320 kbps Vi$itReal 1.41 GB
Фламенко и акустическая гитара lossy (New Age, Acoustic Guitar, Flamenco) Daveed - World of Illusions (2016), MP3, 320 kbps Vi$itReal 75 MB
NewAge & Meditative lossy (New Age, Acoustic) Antonio Morina Gallerio - Old Fashioned Acoustic Music - 2015, MP3, 320 kbps Vi$itReal 135 MB
NewAge & Meditative lossy (New Age, Acoustic, Ambient) Mishroom & The Galactic Family - Along The Same Path - 2016, MP3, 320 kbps Vi$itReal 134 MB
NewAge & Meditative lossless (New Age, Acoustic, Meditative) Ron Korb - \'Flute Traveller\' - 1994, APE (image+.cue), lossless RelizMAN 159 MB
Фольклор, Народная и Этническая музыка собственные оцифровки (New Age, Acoustic, Neofolk) [24/48] Michael Hedges - Aerial Boundaries - 1984, FLAC (image+.cue) RelizMAN 416 MB
Фламенко и акустическая гитара lossless (New Age, Acoustic, Neofolk) [CD] Michael Hedges - Aerial Boundaries - 1984 (2015 Audio Fidelity), FLAC (tracks+.cue), lossless RelizMAN 173 MB
Display posts:    

Current time is: 24-Jun 18:12

All times are UTC + 3



You cannot post new topics in this forum
You cannot reply to topics in this forum
You cannot edit your posts in this forum
You cannot delete your posts in this forum
You cannot vote in polls in this forum
You cannot attach files in this forum
You can download files in this forum