Reply to topic
DL-List and Torrent activity [Update пиров]
Size:  281 MB   |    Registered:  3 years 8 months   |    Completed:  0 times
Seeders:  495  [  0 KB/s  ]   Leechers:  21  [  0 KB/s  ]  
 
     
 
 
Author Message

RelizMAN ®

11

Post 05-Oct-2015 00:31

[Quote]

Wu Judy Chin-tai - Green Ark
Жанр: New Age, Instrumental
Носитель: CD
Год издания: 2010
Издатель (лейбл): Wind
Номер по каталогу: TCD-5049
Аудиокодек: FLAC (*.flac)
Тип рипа: image+.cue
Битрейт аудио: lossless
Продолжительность: 50:50
Источник (релизер): internet
Наличие сканов в содержимом раздачи: нет
Треклист:
01. 湿地小精灵
02. 水雉之舞
03. 风的颜色
04. 穿越山水的溪
05. 水的季节鸟
06. 金黄色宁静
07. 老时光
08. 河滨铁马乐
09. 一首名叫云雾的诗
10. 绿色方舟

Содержание индексной карты (.CUE)

PERFORMER "风潮音乐"TITLE "TCD-5049 绿色方舟"FILE "CDImage.flac" WAVE TRACK 01 AUDIO TITLE "湿地小精灵" PERFORMER "吴金黛" INDEX 01 00:00:00 TRACK 02 AUDIO TITLE "水雉之舞" PERFORMER "吴金黛" INDEX 01 04:49:59 TRACK 03 AUDIO TITLE "风的颜色" PERFORMER "吴金黛" INDEX 01 09:44:06 TRACK 04 AUDIO TITLE "穿越山水的溪" PERFORMER "吴金黛" INDEX 01 15:18:13 TRACK 05 AUDIO TITLE "水的季节鸟" PERFORMER "吴金黛" INDEX 01 20:54:48 TRACK 06 AUDIO TITLE "金黄色宁静" PERFORMER "吴金黛" INDEX 01 26:17:38 TRACK 07 AUDIO TITLE "老时光" PERFORMER "吴金黛" INDEX 01 31:28:55 TRACK 08 AUDIO TITLE "河滨铁马乐" PERFORMER "吴金黛" INDEX 01 37:21:06 TRACK 09 AUDIO TITLE "一首名叫云雾的诗" PERFORMER "吴金黛" INDEX 01 41:26:62 TRACK 10 AUDIO TITLE "绿色方舟" PERFORMER "吴金黛" INDEX 01 45:30:06

Лог проверки качества

-----------------------
DON'T MODIFY THIS FILE
-----------------------
PERFORMER: auCDtect Task Manager, ver. 1.6.0 RC1 build 1.6.0.1Copyright (c) 2008-2010 y-soft. All rights reservedhttp://y-soft.org
ANALYZER: auCDtect: CD records authenticity detector, version 0.8.2Copyright (c) 2004 Oleg Berngardt. All rights reserved.Copyright (c) 2004 Alexander Djourik. All rights reserved.
FILE: CDImage.flac Size: 294072737 Hash: 4E8E8431E921769B1232C7F0A5290EA8 Accuracy: -m0 Conclusion: CDDA 100% Signature: 9D63F288EA2953DA19D8631E0776826F41A1635D

[doutdess.info].t81092.torrent
Torrent: Registered [ 2015-10-05 00:30 ] · 1170C34CC2F27DA645C0031FB1D7CEEE64D2DD99

12 KB

Status: checked
Completed: 0 times
Size: 281 MB
(New Age, Instrumental) [CD] Wu Judy Chin-tai - Green Ark - 2010, FLAC (image+.cue), lossless скачать торрент бесплатно и без регистрации

[Profile] [PM]
Forum Topic Author Size
Фламенко и акустическая гитара lossy (New age, Acoustic guitar) Moreza - Crimson Moon - 2011, MP3, 320 kbps Vi$itReal 107 MB
Фламенко и акустическая гитара lossy (New Age, Acoustic guitar) William Ackerman Discography (1976-2010, 14CD) MP3-tracks CBR 320 kbps Vi$itReal 1.41 GB
Фламенко и акустическая гитара lossy (New Age, Acoustic Guitar, Flamenco) Daveed - World of Illusions (2016), MP3, 320 kbps Vi$itReal 75 MB
NewAge & Meditative lossy (New Age, Acoustic) Antonio Morina Gallerio - Old Fashioned Acoustic Music - 2015, MP3, 320 kbps Vi$itReal 135 MB
NewAge & Meditative lossy (New Age, Acoustic, Ambient) Mishroom & The Galactic Family - Along The Same Path - 2016, MP3, 320 kbps Vi$itReal 134 MB
NewAge & Meditative lossless (New Age, Acoustic, Meditative) Ron Korb - \'Flute Traveller\' - 1994, APE (image+.cue), lossless RelizMAN 159 MB
Фольклор, Народная и Этническая музыка собственные оцифровки (New Age, Acoustic, Neofolk) [24/48] Michael Hedges - Aerial Boundaries - 1984, FLAC (image+.cue) RelizMAN 416 MB
Фламенко и акустическая гитара lossless (New Age, Acoustic, Neofolk) [CD] Michael Hedges - Aerial Boundaries - 1984 (2015 Audio Fidelity), FLAC (tracks+.cue), lossless RelizMAN 173 MB
Display posts:    

Current time is: 27-Jun 15:48

All times are UTC + 3



You cannot post new topics in this forum
You cannot reply to topics in this forum
You cannot edit your posts in this forum
You cannot delete your posts in this forum
You cannot vote in polls in this forum
You cannot attach files in this forum
You can download files in this forum