Ответить на тему
Статистика раздачи [Обновить пиров]
Размер:  301 MB   |    Зарегистрирован:  7 месяцев 11 дней   |    Скачан:  0 раз
Сидов:  451  [  0 KB/s  ]   Личеров:  55  [  0 KB/s  ]  
 
     
 
 
Автор Сообщение

Vi$itReal ®

12

Создавать темы 08-Авг-2018 21:05

[Цитировать]

Franui / Mahlerlieder
Жанр: Brass & Military, Folk, World, & Country
Носитель: CD
Год издания: 2011
Издатель (лейбл): Col Legno
Номер по каталогу: WWE 1CD 20303
Страна исполнителя (группы): Austria
Аудиокодек: FLAC (*.flac)
Тип рипа: tracks+.cue
Битрейт аудио: lossless
Продолжительность: 01:10:32
Источник (релизер): what.cd
Наличие сканов в содержимом раздачи: да
Треклист:
1 Wenn Mein Schatz Hochzeit Macht 4:14
2 Nicht Wiedersehen! 4:48
3 Das Irdische Leben 2:37
4 Ich Atmet' Einen Linder Duft 4:57
5 Die Zwei Blauen Augen 5:24
6 Wunderhorntanz 4:13
7 Phantasie / Zu Straßburg Auf Der Schanz' 6:45
8 Wenn Dein Mütterlein 5:56
9 Ich Ging Mit Lust 5:09
10 Wo Die Schönen Trompeten Blasen 7:19
11 Urlicht 4:37
12 Um Mitternacht 4:04
13 Revelge (For A Drummerboy) 4:57
14 Ich Bin Der Welt Abhanden Gekommen 5:32

Лог создания рипа

X Lossless Decoder version 20141129a (148.2)
XLD extraction logfile from 2015-10-18 17:32:30 +0200
Franui / Mahlerlieder
Used drive : HL-DT-ST DVDRAM GU10N (revision MX05)Media type : Pressed CD
Ripper mode : XLD Secure RipperDisable audio cache : OK for the drive with a cache less than 1375KiBMake use of C2 pointers : NORead offset correction : 667Max retry count : 20Gap status : Analyzed, Appended (except HTOA)
TOC of the extracted CD Track | Start | Length | Start sector | End sector --------------------------------------------------------- 1 | 00:00:00 | 04:14:27 | 0 | 19076 2 | 04:14:27 | 04:48:32 | 19077 | 40708 3 | 09:02:59 | 02:36:60 | 40709 | 52468 4 | 11:39:44 | 04:57:35 | 52469 | 74778 5 | 16:37:04 | 05:23:58 | 74779 | 99061 6 | 22:00:62 | 04:13:01 | 99062 | 118037 7 | 26:13:63 | 06:45:23 | 118038 | 148435 8 | 32:59:11 | 05:56:27 | 148436 | 175162 9 | 38:55:38 | 05:08:74 | 175163 | 198336 10 | 44:04:37 | 07:18:45 | 198337 | 231231 11 | 51:23:07 | 04:37:19 | 231232 | 252025 12 | 56:00:26 | 04:03:45 | 252026 | 270295 13 | 60:03:71 | 04:56:67 | 270296 | 292562 14 | 65:00:63 | 05:31:73 | 292563 | 317460
AccurateRip Summary (DiscID: 0022eff0-017b3445-c710880e) Track 01 : OK (v2, confidence 9/9) Track 02 : OK (v2, confidence 9/9) Track 03 : OK (v2, confidence 9/9) Track 04 : OK (v2, confidence 9/9) Track 05 : OK (v2, confidence 9/9) Track 06 : OK (v2, confidence 9/9) Track 07 : OK (v2, confidence 9/9) Track 08 : OK (v2, confidence 9/9) Track 09 : OK (v2, confidence 9/9) Track 10 : OK (v2, confidence 9/9) Track 11 : OK (v2, confidence 9/9) Track 12 : OK (v2, confidence 9/9) Track 13 : OK (v2, confidence 9/9) Track 14 : OK (v2, confidence 9/9) ->All tracks accurately ripped.
All Tracks Album gain : -4.62 dB Peak : 1.000000 Statistics Read error : 0 Jitter error (maybe fixed) : 0 Retry sector count : 0 Damaged sector count : 0
Track 01 Filename : /Volumes/BRICKSTICK/Franui - Mahlerlieder (2011) [FLAC]/01 Wenn mein Schatz Hochzeit macht.flac Pre-gap length : 00:02:00
Track gain : -5.46 dB Peak : 1.000000 CRC32 hash (test run) : 09043DAC CRC32 hash : 09043DAC CRC32 hash (skip zero) : 2A4A688D AccurateRip v1 signature : AFC20211 AccurateRip v2 signature : A9FD1648 ->Accurately ripped (v2, confidence 9/9) Statistics Read error : 0 Jitter error (maybe fixed) : 0 Retry sector count : 0 Damaged sector count : 0
Track 02 Filename : /Volumes/BRICKSTICK/Franui - Mahlerlieder (2011) [FLAC]/02 Nicht wiedersehen!.flac
Track gain : -5.23 dB Peak : 1.000000 CRC32 hash (test run) : C47F9261 CRC32 hash : C47F9261 CRC32 hash (skip zero) : 8A722E91 AccurateRip v1 signature : 6F54676F AccurateRip v2 signature : 82899343 ->Accurately ripped (v2, confidence 9/9) Statistics Read error : 0 Jitter error (maybe fixed) : 0 Retry sector count : 0 Damaged sector count : 0
Track 03 Filename : /Volumes/BRICKSTICK/Franui - Mahlerlieder (2011) [FLAC]/03 Das irdische Leben.flac
Track gain : -6.63 dB Peak : 1.000000 CRC32 hash (test run) : 048204C9 CRC32 hash : 048204C9 CRC32 hash (skip zero) : 8855E53C AccurateRip v1 signature : ED0E0FF2 AccurateRip v2 signature : 49C109E2 ->Accurately ripped (v2, confidence 9/9) Statistics Read error : 0 Jitter error (maybe fixed) : 0 Retry sector count : 0 Damaged sector count : 0
Track 04 Filename : /Volumes/BRICKSTICK/Franui - Mahlerlieder (2011) [FLAC]/04 Ich atmet´einen linden Duft.flac
Track gain : -0.64 dB Peak : 0.783630 CRC32 hash (test run) : 30C32D56 CRC32 hash : 30C32D56 CRC32 hash (skip zero) : A496ABB9 AccurateRip v1 signature : 2CDD65E0 AccurateRip v2 signature : E018DA5A ->Accurately ripped (v2, confidence 9/9) Statistics Read error : 0 Jitter error (maybe fixed) : 0 Retry sector count : 0 Damaged sector count : 0
Track 05 Filename : /Volumes/BRICKSTICK/Franui - Mahlerlieder (2011) [FLAC]/05 Die zwei blauen Augen.flac
Track gain : -3.05 dB Peak : 0.985535 CRC32 hash (test run) : CC8302D4 CRC32 hash : CC8302D4 CRC32 hash (skip zero) : 27ECFC3E AccurateRip v1 signature : 17DEB7D4 AccurateRip v2 signature : 7E54999A ->Accurately ripped (v2, confidence 9/9) Statistics Read error : 0 Jitter error (maybe fixed) : 0 Retry sector count : 0 Damaged sector count : 0
Track 06 Filename : /Volumes/BRICKSTICK/Franui - Mahlerlieder (2011) [FLAC]/06 Wunderhorntanz.flac
Track gain : -6.59 dB Peak : 0.999969 CRC32 hash (test run) : 7A574FEC CRC32 hash : 7A574FEC CRC32 hash (skip zero) : 18AD1D49 AccurateRip v1 signature : 06F7B4DA AccurateRip v2 signature : 47DBA489 ->Accurately ripped (v2, confidence 9/9) Statistics Read error : 0 Jitter error (maybe fixed) : 0 Retry sector count : 0 Damaged sector count : 0
Track 07 Filename : /Volumes/BRICKSTICK/Franui - Mahlerlieder (2011) [FLAC]/07 Phantasie / Zu Straßburg auf der Schanz´.flac
Track gain : -5.29 dB Peak : 0.999969 CRC32 hash (test run) : B9864A7C CRC32 hash : B9864A7C CRC32 hash (skip zero) : F87DE208 AccurateRip v1 signature : 99DB16C6 AccurateRip v2 signature : B232CB7C ->Accurately ripped (v2, confidence 9/9) Statistics Read error : 0 Jitter error (maybe fixed) : 0 Retry sector count : 0 Damaged sector count : 0
Track 08 Filename : /Volumes/BRICKSTICK/Franui - Mahlerlieder (2011) [FLAC]/08 Wenn dein Mütterlein.flac
Track gain : 1.46 dB Peak : 0.670715 CRC32 hash (test run) : 2DE9258B CRC32 hash : 2DE9258B CRC32 hash (skip zero) : 99805507 AccurateRip v1 signature : AFF7696D AccurateRip v2 signature : CA15772C ->Accurately ripped (v2, confidence 9/9) Statistics Read error : 0 Jitter error (maybe fixed) : 0 Retry sector count : 0 Damaged sector count : 0
Track 09 Filename : /Volumes/BRICKSTICK/Franui - Mahlerlieder (2011) [FLAC]/09 Ich ging mit Lust.flac
Track gain : -3.67 dB Peak : 0.994781 CRC32 hash (test run) : E3C989C6 CRC32 hash : E3C989C6 CRC32 hash (skip zero) : E328B3DA AccurateRip v1 signature : 909EF325 AccurateRip v2 signature : 5B60BDD4 ->Accurately ripped (v2, confidence 9/9) Statistics Read error : 0 Jitter error (maybe fixed) : 0 Retry sector count : 0 Damaged sector count : 0
Track 10 Filename : /Volumes/BRICKSTICK/Franui - Mahlerlieder (2011) [FLAC]/10 Wo die schönen Trompeten blasen.flac
Track gain : -6.71 dB Peak : 1.000000 CRC32 hash (test run) : E52434C3 CRC32 hash : E52434C3 CRC32 hash (skip zero) : C48022F4 AccurateRip v1 signature : ED857C58 AccurateRip v2 signature : F9F0087F ->Accurately ripped (v2, confidence 9/9) Statistics Read error : 0 Jitter error (maybe fixed) : 0 Retry sector count : 0 Damaged sector count : 0
Track 11 Filename : /Volumes/BRICKSTICK/Franui - Mahlerlieder (2011) [FLAC]/11 Urlicht.flac
Track gain : -0.97 dB Peak : 0.990723 CRC32 hash (test run) : 9953183B CRC32 hash : 9953183B CRC32 hash (skip zero) : 48F9D124 AccurateRip v1 signature : 2AB3CD9C AccurateRip v2 signature : AFC18437 ->Accurately ripped (v2, confidence 9/9) Statistics Read error : 0 Jitter error (maybe fixed) : 0 Retry sector count : 0 Damaged sector count : 0
Track 12 Filename : /Volumes/BRICKSTICK/Franui - Mahlerlieder (2011) [FLAC]/12 Um Mitternacht.flac
Track gain : -4.77 dB Peak : 0.999969 CRC32 hash (test run) : 43308305 CRC32 hash : 43308305 CRC32 hash (skip zero) : ADAAA889 AccurateRip v1 signature : 99753F1C AccurateRip v2 signature : 027363A6 ->Accurately ripped (v2, confidence 9/9) Statistics Read error : 0 Jitter error (maybe fixed) : 0 Retry sector count : 0 Damaged sector count : 0
Track 13 Filename : /Volumes/BRICKSTICK/Franui - Mahlerlieder (2011) [FLAC]/13 Revelge (For a Drummerboy).flac
Track gain : -5.34 dB Peak : 1.000000 CRC32 hash (test run) : DFCC14E4 CRC32 hash : DFCC14E4 CRC32 hash (skip zero) : 21FCC03D AccurateRip v1 signature : 4E4BD0DD AccurateRip v2 signature : BE9A5FEC ->Accurately ripped (v2, confidence 9/9) Statistics Read error : 0 Jitter error (maybe fixed) : 0 Retry sector count : 0 Damaged sector count : 0
Track 14 Filename : /Volumes/BRICKSTICK/Franui - Mahlerlieder (2011) [FLAC]/14 Ich bin der Welt abhanden gekommen.flac
Track gain : 2.78 dB Peak : 0.607056 CRC32 hash (test run) : 3A7C7024 CRC32 hash : 3A7C7024 CRC32 hash (skip zero) : 454DF87B AccurateRip v1 signature : 99EDB4BC AccurateRip v2 signature : A07DC0DF ->Accurately ripped (v2, confidence 9/9) Statistics Read error : 0 Jitter error (maybe fixed) : 0 Retry sector count : 0 Damaged sector count : 0
No errors occurred
End of status report
-----BEGIN XLD SIGNATURE-----hnrEEx0sCyqnxQIFYUQNElET5Bxgzss_3MPamQrUcz8LRzIJst9ehXxl2pRfWcHp74JyN5gAksUTXMABaOG3gdo9rUkuGtnjBC.Y9aO-----END XLD SIGNATURE-----

Содержание индексной карты (.CUE)

TITLE "Mahlerlieder"PERFORMER "Franui"CATALOG 9120031340720REM DATE "2011-05-20"REM DISCID C710880EREM REPLAYGAIN_ALBUM_GAIN -4.62 dBREM REPLAYGAIN_ALBUM_PEAK 1.000000FILE "01 Wenn mein Schatz Hochzeit macht.flac" WAVE  TRACK 01 AUDIO    TITLE "Wenn mein Schatz Hochzeit macht"    PERFORMER "Franui"    ISRC DEB161100201    REM REPLAYGAIN_TRACK_GAIN -5.46 dB    REM REPLAYGAIN_TRACK_PEAK 1.000000    INDEX 01 00:00:00FILE "02 Nicht wiedersehen!.flac" WAVE  TRACK 02 AUDIO    TITLE "Nicht wiedersehen!"    PERFORMER "Franui"    ISRC DEB161100202    REM REPLAYGAIN_TRACK_GAIN -5.23 dB    REM REPLAYGAIN_TRACK_PEAK 1.000000    INDEX 01 00:00:00FILE "03 Das irdische Leben.flac" WAVE  TRACK 03 AUDIO    TITLE "Das irdische Leben"    PERFORMER "Franui"    ISRC DEB161100203    REM REPLAYGAIN_TRACK_GAIN -6.63 dB    REM REPLAYGAIN_TRACK_PEAK 1.000000    INDEX 01 00:00:00FILE "04 Ich atmet´einen linden Duft.flac" WAVE  TRACK 04 AUDIO    TITLE "Ich atmet´einen linden Duft"    PERFORMER "Franui"    ISRC DEB161100204    REM REPLAYGAIN_TRACK_GAIN -0.64 dB    REM REPLAYGAIN_TRACK_PEAK 0.783630    INDEX 01 00:00:00FILE "05 Die zwei blauen Augen.flac" WAVE  TRACK 05 AUDIO    TITLE "Die zwei blauen Augen"    PERFORMER "Franui"    ISRC DEB161100205    REM REPLAYGAIN_TRACK_GAIN -3.05 dB    REM REPLAYGAIN_TRACK_PEAK 0.985535    INDEX 01 00:00:00FILE "06 Wunderhorntanz.flac" WAVE  TRACK 06 AUDIO    TITLE "Wunderhorntanz"    PERFORMER "Franui"    ISRC DEB161100206    REM REPLAYGAIN_TRACK_GAIN -6.59 dB    REM REPLAYGAIN_TRACK_PEAK 0.999969    INDEX 01 00:00:00FILE "07 Phantasie / Zu Straßburg auf der Schanz´.flac" WAVE  TRACK 07 AUDIO    TITLE "Phantasie / Zu Straßburg auf der Schanz´"    PERFORMER "Franui"    ISRC DEB161100207    REM REPLAYGAIN_TRACK_GAIN -5.29 dB    REM REPLAYGAIN_TRACK_PEAK 0.999969    INDEX 01 00:00:00FILE "08 Wenn dein Mütterlein.flac" WAVE  TRACK 08 AUDIO    TITLE "Wenn dein Mütterlein"    PERFORMER "Franui"    ISRC DEB161100208    REM REPLAYGAIN_TRACK_GAIN 1.46 dB    REM REPLAYGAIN_TRACK_PEAK 0.670715    INDEX 01 00:00:00FILE "09 Ich ging mit Lust.flac" WAVE  TRACK 09 AUDIO    TITLE "Ich ging mit Lust"    PERFORMER "Franui"    ISRC DEB161100209    REM REPLAYGAIN_TRACK_GAIN -3.67 dB    REM REPLAYGAIN_TRACK_PEAK 0.994781    INDEX 01 00:00:00FILE "10 Wo die schönen Trompeten blasen.flac" WAVE  TRACK 10 AUDIO    TITLE "Wo die schönen Trompeten blasen"    PERFORMER "Franui"    ISRC DEB161100210    REM REPLAYGAIN_TRACK_GAIN -6.71 dB    REM REPLAYGAIN_TRACK_PEAK 1.000000    INDEX 01 00:00:00FILE "11 Urlicht.flac" WAVE  TRACK 11 AUDIO    TITLE "Urlicht"    PERFORMER "Franui"    ISRC DEB161100211    REM REPLAYGAIN_TRACK_GAIN -0.97 dB    REM REPLAYGAIN_TRACK_PEAK 0.990723    INDEX 01 00:00:00FILE "12 Um Mitternacht.flac" WAVE  TRACK 12 AUDIO    TITLE "Um Mitternacht"    PERFORMER "Franui"    ISRC DEB161100212    REM REPLAYGAIN_TRACK_GAIN -4.77 dB    REM REPLAYGAIN_TRACK_PEAK 0.999969    INDEX 01 00:00:00FILE "13 Revelge (For a Drummerboy).flac" WAVE  TRACK 13 AUDIO    TITLE "Revelge (For a Drummerboy)"    PERFORMER "Franui"    ISRC DEB161100213    REM REPLAYGAIN_TRACK_GAIN -5.34 dB    REM REPLAYGAIN_TRACK_PEAK 1.000000    INDEX 01 00:00:00FILE "14 Ich bin der Welt abhanden gekommen.flac" WAVE  TRACK 14 AUDIO    TITLE "Ich bin der Welt abhanden gekommen"    PERFORMER "Franui"    ISRC DEB161100214    REM REPLAYGAIN_TRACK_GAIN 2.78 dB    REM REPLAYGAIN_TRACK_PEAK 0.607056    INDEX 01 00:00:00

Лог проверки качества

AUDIOCHECKER v2.0 beta (build 457) - by Dester - [email protected]~~~~~~~~~~~~~~~~~~~~~~~~~~~~~~~~~~-=== DO NOT EDIT THIS FILE! ===-
Path: ...\Franui - Mahlerlieder (2011) [FLAC]
01 -=- 01 Wenn mein Schatz Hochzeit macht.flac -=- CDDA (100%)02 -=- 02 Nicht wiedersehen!.flac -=- CDDA (100%)03 -=- 03 Das irdische Leben.flac -=- CDDA (100%)04 -=- 04 Ich atmet' einen linden Duft.flac -=- CDDA (49%)05 -=- 05 Die zwei blauen Augen.flac -=- CDDA (94%)06 -=- 06 Wunderhorntanz.flac -=- CDDA (100%)07 -=- 07 Phantasie - Zu Stra?burg auf der Schanz'.flac -=- ERROR08 -=- 08 Wenn dein Mutterlein.flac -=- ERROR09 -=- 09 Ich ging mit Lust.flac -=- CDDA (100%)10 -=- 10 Wo die schonen Trompeten blasen.flac -=- ERROR11 -=- 11 Urlicht.flac -=- CDDA (100%)12 -=- 12 Um Mitternacht.flac -=- CDDA (86%)13 -=- 13 Revelge (For a Drummerboy).flac -=- CDDA (100%)14 -=- 14 Ich bin der Welt abhanden gekommen.flac -=- CDDA (49%)
Summary 88,91% CDDA
56611844

[doutdess.info].t283098.torrent
Торрент: Зарегистрирован [ 2018-08-08 21:05 ] · 740695FEF58F8D991D4E9C2A43ADDDD67CD1FF5A

13 KB

Статус: проверено
Скачан: 0 раз
Размер: 301 MB
(Brass & Military, Folk, World, & Country) [CD] Franui - Mahlerlieder - 2011, FLAC (tracks+.cue), lossless скачать торрент бесплатно и без регистрации

[Профиль] [ЛС]
Форум Тема Автор Размер
Оркестровая музыка в lossless (Brass & Military, Marches) Frederick Fennell, Eastman Wind Ensemble - Hands Across the Sea (Sousa, Ganne, San Miguel, Tieke, Prokofiev, Hanssen, Delle Cese, Coates, Meacham, Goldman, McCoy, L.... Vi$itReal 364 MB
Показать сообщения:    

Текущее время: 20-Мар 15:13

Часовой пояс: UTC + 3



Вы не можете начинать темы
Вы не можете отвечать на сообщения
Вы не можете редактировать свои сообщения
Вы не можете удалять свои сообщения
Вы не можете голосовать в опросах
Вы не можете прикреплять файлы к сообщениям
Вы можете скачивать файлы