Reply to topic
DL-List and Torrent activity [Update пиров]
Size:  378 MB   |    Registered:  3 years 8 months   |    Completed:  1 time
Seeders:  921  [  0 KB/s  ]   Leechers:  17  [  0 KB/s  ]  
 
     
 
 
Author Message

RelizMAN ®

11

Post 05-Oct-2015 00:31

[Quote]

Logos - Corpus Christi Vol. II

-
-Жанр: New Age
Носитель: CD
Год издания: 2011
Издатель (лейбл): Art Composite / Music 4 Pro
Страна исполнителя (группы): France
Аудиокодек: FLAC (*.flac)
Тип рипа: tracks+.cue
Битрейт аудио: lossless
Продолжительность: 01:16:15
Источник (релизер): Holon ?
Наличие сканов: нет
Треклист:
01. L'Entrée À Jérusalem [00:04:49]
02. Le Réveil De La Fille De Jaïre [00:06:49]
03. Je Suis Le Chemin, La Vérité Et La Vie [00:03:45]
04. Miracles De Vie [00:04:55]
05. Le Baptéme Au Jourdain [00:04:51]
06. Ephata ! (La Guérison Du Sourd-Muet) [00:05:03]
07. Le Puits De Samarie [00:06:37]
08. Ceux Que Tu M'As Donnés, Je N'En Ai Perdu Un Seul [00:06:13]
09. La Marche Sur L'Eau [00:05:23]
10. Bienheureux Les Cœurs Purs [00:06:15]
11. Du Monde Au Royaume [00:07:20]
12. Au Commencement Était Le Verbe [00:05:02]
13. Renaìtre Par L'Eau Et L'Esprit [00:04:24]
14. Cherchez Avant Tout Le Royaume Des Cieux [00:04:43]
-
-

Лог создания рипа

Содержание индексной карты (.CUE)

REM GENRE New AgeREM DATE 2011REM COMMENT rip by HolonPERFORMER "Logos"TITLE "Corpus Christi II"FILE "01. L'Entrée À Jérusalem.flac" WAVE TRACK 01 AUDIO TITLE "L'Entrée À Jérusalem" PERFORMER "Logos" INDEX 01 00:00:00FILE "02. Le Réveil De La Fille De Jaïre.flac" WAVE TRACK 02 AUDIO TITLE "Le Réveil De La Fille De Jaïre" PERFORMER "Logos" INDEX 01 00:00:00FILE "03. Je Suis Le Chemin, La Vérité Et La Vie.flac" WAVE TRACK 03 AUDIO TITLE "Je Suis Le Chemin, La Vérité Et La Vie" PERFORMER "Logos" INDEX 01 00:00:00FILE "04. Miracles De Vie.flac" WAVE TRACK 04 AUDIO TITLE "Miracles De Vie" PERFORMER "Logos" INDEX 01 00:00:00FILE "05. Le Baptéme Au Jourdain.flac" WAVE TRACK 05 AUDIO TITLE "Le Baptéme Au Jourdain" PERFORMER "Logos" INDEX 01 00:00:00FILE "06. Ephata ! (La Guérison Du Sourd-Muet).flac" WAVE TRACK 06 AUDIO TITLE "Ephata ! (La Guérison Du Sourd-Muet)" PERFORMER "Logos" INDEX 01 00:00:00FILE "07. Le Puits De Samarie.flac" WAVE TRACK 07 AUDIO TITLE "Le Puits De Samarie" PERFORMER "Logos" INDEX 01 00:00:00FILE "08. Ceux Que Tu M'As Donnés, Je N'En Ai Perdu Un Seul.flac" WAVE TRACK 08 AUDIO TITLE "Ceux Que Tu M'As Donnés, Je N'En Ai Perdu Un Seul" PERFORMER "Logos" INDEX 01 00:00:00FILE "09. La Marche Sur L'Eau.flac" WAVE TRACK 09 AUDIO TITLE "La Marche Sur L'Eau" PERFORMER "Logos" INDEX 01 00:00:00FILE "10. Bienheureux Les Cœurs Purs.flac" WAVE TRACK 10 AUDIO TITLE "Bienheureux Les Cœurs Purs" PERFORMER "Logos" INDEX 01 00:00:00FILE "11. Du Monde Au Royaume.flac" WAVE TRACK 11 AUDIO TITLE "Du Monde Au Royaume" PERFORMER "Logos" INDEX 01 00:00:00FILE "12. Au Commencement Était Le Verbe.flac" WAVE TRACK 12 AUDIO TITLE "Au Commencement Était Le Verbe" PERFORMER "Logos" INDEX 01 00:00:00FILE "13. Renaìtre Par L'Eau Et L'Esprit.flac" WAVE TRACK 13 AUDIO TITLE "Renaìtre Par L'Eau Et L'Esprit" PERFORMER "Logos" INDEX 01 00:00:00FILE "14. Cherchez Avant Tout Le Royaume Des Cieux.flac" WAVE TRACK 14 AUDIO TITLE "Cherchez Avant Tout Le Royaume Des Cieux" PERFORMER "Logos" INDEX 01 00:00:00

Лог проверки качества

-----------------------
DON'T MODIFY THIS FILE
-----------------------
PERFORMER: auCDtect Task Manager, ver. 1.6.0 RC1 build 1.6.0.1Copyright (c) 2008-2010 y-soft. All rights reservedhttp://y-soft.org
ANALYZER: auCDtect: CD records authenticity detector, version 0.8.2Copyright (c) 2004 Oleg Berngardt. All rights reserved.Copyright (c) 2004 Alexander Djourik. All rights reserved.
FILE: 14. Cherchez Avant Tout Le Royaume Des Cieux.flac Size: 26110406 Hash: 89AA98CE142EE5C5A678F664820C4098 Accuracy: -m0 Conclusion: CDDA 100% Signature: 4BFFCACE1CD071FC59C5BD94A97ABA2C702A6C5CFILE: 13. Renaìtre Par L'Eau Et L'Esprit.flac Size: 22698935 Hash: EA0896CB53B45BB79CAD36A3ED26E1C9 Accuracy: -m0 Conclusion: CDDA 100% Signature: 2A253F673E4A03A85BC6847A32964F98FECDF8F6FILE: 12. Au Commencement Était Le Verbe.flac Size: 25559830 Hash: 4E672E7B292ED192622CD632CEA94FA7 Accuracy: -m0 Conclusion: CDDA 99% Signature: 157C76359AAA1219C2C71AE0B38E4292BDB3EB00FILE: 11. Du Monde Au Royaume.flac Size: 37487327 Hash: 3CE60B7B4A2C3EB3392111473D2B1AAF Accuracy: -m0 Conclusion: CDDA 100% Signature: E0BA695DFBA79CA05B92C4F96B7DA5E60DB68823FILE: 10. Bienheureux Les Cœurs Purs.flac Size: 34876539 Hash: 0B6F8050B6A9993F19C85507781DE746 Accuracy: -m0 Conclusion: CDDA 100% Signature: 7466B53A4B6287CAE045105978EBA3E4D6B5CFC9FILE: 09. La Marche Sur L'Eau.flac Size: 25902712 Hash: 546D26969F10AC205974DA6A68D6546D Accuracy: -m0 Conclusion: CDDA 100% Signature: 7664BA9F9C7E23E459883DD732D73595EDFE372EFILE: 08. Ceux Que Tu M'As Donnés, Je N'En Ai Perdu Un Seul.flac Size: 28911467 Hash: CBD067C5FD1B275AC000E8BED8A70638 Accuracy: -m0 Conclusion: CDDA 76% Signature: D0B90EE4AFDCD2308BEB4642ACA40B9DED4283B9FILE: 07. Le Puits De Samarie.flac Size: 36006579 Hash: DC581B4602B7C4A0B98CB3A43C12D73E Accuracy: -m0 Conclusion: CDDA 49% Signature: 7CD77DE12A602CBBA2EDC0473EA2CF41F4569FCFFILE: 06. Ephata ! (La Guérison Du Sourd-Muet).flac Size: 26496868 Hash: B00D6ED45BCC2E2EF79E78B2F4CE9658 Accuracy: -m0 Conclusion: CDDA 99% Signature: 7B4AAA5F73F96FEC866CBC3980EB237258E1EE85FILE: 05. Le Baptéme Au Jourdain.flac Size: 26426264 Hash: 9F308AE33BFB9D138FFD3F3AC9FCA6F1 Accuracy: -m0 Conclusion: CDDA 100% Signature: F4D27BD255E777B05D35ED053727FA4F44E2D7A2FILE: 04. Miracles De Vie.flac Size: 23983166 Hash: 8A7A3CA12B83041ECB29C6A319C5B7FB Accuracy: -m0 Conclusion: CDDA 100% Signature: F728CF071529503D9673A6E1C84C534469BA0CC1FILE: 03. Je Suis Le Chemin, La Vérité Et La Vie.flac Size: 19423506 Hash: 5818911ABDCF1D1453DDC58A65A29C61 Accuracy: -m0 Conclusion: CDDA 100% Signature: 2BF410117D93749B47EDEFE704299B18F5F5B3B4FILE: 02. Le Réveil De La Fille De Jaïre.flac Size: 34865280 Hash: 527D334F58BE57D10AE20EF4E7D094EF Accuracy: -m0 Conclusion: CDDA 100% Signature: 92E3676AFF57DCFD7E9846080E3F522918541843FILE: 01. L'Entrée À Jérusalem.flac Size: 26954195 Hash: E5B041AFEEE52145C0196C909FE08122 Accuracy: -m0 Conclusion: CDDA 42% Signature: CF10278FC674B05755C2F3C49FDD00F6E2BA6C33

[doutdess.info].t81102.torrent
Torrent: Registered [ 2015-10-05 00:30 ] · 3C13757117519DBD7D2C1B566754512413C7F877

16 KB

Status: checked
Completed: 1 times
Size: 378 MB
(New Age) [CD] Logos - Corpus Christi Vol. II - actes et miracles - 2011, FLAC (tracks+.cue), lossless скачать торрент бесплатно и без регистрации

[Profile] [PM]
Forum Topic Author Size
NewAge & Meditative lossless (New Age) Al Gromer Khan & Emin Corrado - Tantra Electronica - 2004, FLAC (tracks+.cue), lossless RelizMAN 284 MB
NewAge & Meditative lossless (New Age) Al Gromer Khan - Negus - The Royal Principle - 2008, FLAC (tracks+.cue), lossless RelizMAN 227 MB
NewAge & Meditative lossless (New Age) Amethystium - 2005 - "Transversa" [APE (image + .cue)], lossless RelizMAN 437 MB
NewAge & Meditative lossless (New Age) Anima - Temple of the Stars - 2010, FLAC (tracks+.cue), lossless RelizMAN 376 MB
NewAge & Meditative lossless (New Age) Anne Linnet - Relax, No. 1 - 2003, FLAC (tracks+.cue), lossless RelizMAN 312 MB
NewAge & Meditative lossless (New Age) Anthony Miles - Music For Children - 1995, APE (image+.cue) lossless RelizMAN 212 MB
NewAge & Meditative lossless (New Age) Anuragi - Highway Back Home (1990), Morning & Evening Meditation (1992), APE (image + .cue), lossless RelizMAN 331 MB
NewAge & Meditative lossless (New Age) Asha - Chosen by You - 2002, FLAC (tracks+.cue), lossless RelizMAN 350 MB
Display posts:    

Current time is: 27-Jun 15:52

All times are UTC + 3



You cannot post new topics in this forum
You cannot reply to topics in this forum
You cannot edit your posts in this forum
You cannot delete your posts in this forum
You cannot vote in polls in this forum
You cannot attach files in this forum
You can download files in this forum