Reply to topic
DL-List and Torrent activity [Update пиров]
Size:  303 MB   |    Registered:  3 years 8 months   |    Completed:  0 times
Seeders:  322  [  0 KB/s  ]   Leechers:  28  [  0 KB/s  ]  
 
     
 
 
Author Message

RelizMAN ®

11

Post 05-Oct-2015 00:31

[Quote]

Zingaia - Earth Church

-
-Жанр: New Age
Носитель: CD
Год издания: 2012
Издатель (лейбл): Sequoia Records
Номер по каталогу: x130
Аудиокодек: FLAC (*.flac)
Тип рипа: tracks+.cue
Битрейт аудио: lossless
Продолжительность: 00:47:47
Источник (релизер): internet
Наличие сканов: да
Треклист:
01. Afro Techno [00:04:54]
02. Earth Church [00:04:34]
03. Incense Ceremony [00:04:51]
04. Maenads In Morocco [00:04:41]
05. The Message [00:05:29]
06. Omumbiri [00:04:21]
07. Mermade [00:03:38]
08. Sekhment [00:04:46]
09. Call Of The Panisk [00:05:57]
10. Wisdom Keepers [00:04:31]
-
-

Лог создания рипа

Exact Audio Copy V1.0 beta 3 from 29. August 2011
EAC extraction logfile from 8. May 2015, 20:28
Zingaia / Earth Church
Used drive : ASUS DRW-24F1ST a Adapter: 2 ID: 0
Read mode : SecureUtilize accurate stream : YesDefeat audio cache : YesMake use of C2 pointers : No
Read offset correction : 6Overread into Lead-In and Lead-Out : NoFill up missing offset samples with silence : YesDelete leading and trailing silent blocks : NoNull samples used in CRC calculations : YesUsed interface : Native Win32 interface for Win NT & 2000Gap handling : Appended to previous track
Used output format : User Defined EncoderSelected bitrate : 1024 kBit/sQuality : HighAdd ID3 tag : NoCommand line compressor : C:\Program Files (x86)\Exact Audio Copy\Flac\flac.exeAdditional command line options : -8 -V -T "COMMENT=ripped by DrStandBy special for new-team.org" -T "ARTIST=%artist%" -T "TITLE=%title%" -T "ALBUM=%albumtitle%" -T "DATE=%year%" -T "TRACKNUMBER=%tracknr%" -T "GENRE=%genre%" %source%
TOC of the extracted CD
Track | Start | Length | Start sector | End sector --------------------------------------------------------- 1 | 0:00.00 | 4:54.22 | 0 | 22071 2 | 4:54.22 | 4:34.28 | 22072 | 42649 3 | 9:28.50 | 4:51.50 | 42650 | 64524 4 | 14:20.25 | 4:41.71 | 64525 | 85670 5 | 19:02.21 | 5:29.56 | 85671 | 110401 6 | 24:32.02 | 4:21.67 | 110402 | 130043 7 | 28:53.69 | 3:38.30 | 130044 | 146423 8 | 32:32.24 | 4:46.70 | 146424 | 167943 9 | 37:19.19 | 5:57.19 | 167944 | 194737 10 | 43:16.38 | 4:31.05 | 194738 | 215067
Track 1
Filename I:\For new-team.org\2012 - Zingaia - Earth Church (Sequoia Records #x130)\01. Zingaia - Afro Techno.wav
Pre-gap length 0:00:02.00
Peak level 96.6 % Extraction speed 1.9 X Track quality 100.0 % Test CRC DB93BFA0 Copy CRC DB93BFA0 Cannot be verified as accurate (confidence 1) [8ED0DCA2], AccurateRip returned [EAA857EE] (AR v2) Copy OK
Track 2
Filename I:\For new-team.org\2012 - Zingaia - Earth Church (Sequoia Records #x130)\02. Zingaia - Earth Church.wav
Peak level 96.6 % Extraction speed 2.1 X Track quality 100.0 % Test CRC BF14D850 Copy CRC BF14D850 Cannot be verified as accurate (confidence 1) [F794BC2A], AccurateRip returned [67D1C640] (AR v2) Copy OK
Track 3
Filename I:\For new-team.org\2012 - Zingaia - Earth Church (Sequoia Records #x130)\03. Zingaia - Incense Ceremony.wav
Peak level 96.6 % Extraction speed 2.3 X Track quality 100.0 % Test CRC 3CC00365 Copy CRC 3CC00365 Cannot be verified as accurate (confidence 1) [DB67A52A], AccurateRip returned [A9164F62] (AR v2) Copy OK
Track 4
Filename I:\For new-team.org\2012 - Zingaia - Earth Church (Sequoia Records #x130)\04. Zingaia - Maenads in Morocco.wav
Peak level 96.6 % Extraction speed 2.5 X Track quality 100.0 % Test CRC 8F80616F Copy CRC 8F80616F Cannot be verified as accurate (confidence 1) [E83AF946], AccurateRip returned [52F5CB33] (AR v2) Copy OK
Track 5
Filename I:\For new-team.org\2012 - Zingaia - Earth Church (Sequoia Records #x130)\05. Zingaia - The Message.wav
Peak level 96.6 % Extraction speed 2.8 X Track quality 100.0 % Test CRC F0798265 Copy CRC F0798265 Cannot be verified as accurate (confidence 1) [6A5293C0], AccurateRip returned [141097F2] (AR v2) Copy OK
Track 6
Filename I:\For new-team.org\2012 - Zingaia - Earth Church (Sequoia Records #x130)\06. Zingaia - Omumbiri.wav
Peak level 96.6 % Extraction speed 2.8 X Track quality 100.0 % Test CRC AFBE2DB4 Copy CRC AFBE2DB4 Cannot be verified as accurate (confidence 1) [9149D6E1], AccurateRip returned [5D5D7F14] (AR v2) Copy OK
Track 7
Filename I:\For new-team.org\2012 - Zingaia - Earth Church (Sequoia Records #x130)\07. Zingaia - MerMade.wav
Peak level 96.6 % Extraction speed 2.9 X Track quality 100.0 % Test CRC 68456FF7 Copy CRC 68456FF7 Cannot be verified as accurate (confidence 1) [8217086A], AccurateRip returned [1D2760EB] (AR v2) Copy OK
Track 8
Filename I:\For new-team.org\2012 - Zingaia - Earth Church (Sequoia Records #x130)\08. Zingaia - Sekhment.wav
Peak level 96.6 % Extraction speed 3.1 X Track quality 100.0 % Test CRC 4BDE7C5F Copy CRC 4BDE7C5F Cannot be verified as accurate (confidence 1) [A7A65F30], AccurateRip returned [0907AE1C] (AR v2) Copy OK
Track 9
Filename I:\For new-team.org\2012 - Zingaia - Earth Church (Sequoia Records #x130)\09. Zingaia - Call of the Panisk.wav
Peak level 96.6 % Extraction speed 2.8 X Track quality 99.9 % Test CRC C330112F Copy CRC C330112F Cannot be verified as accurate (confidence 1) [E74710EB], AccurateRip returned [F1F8B2D4] (AR v2) Copy OK
Track 10
Filename I:\For new-team.org\2012 - Zingaia - Earth Church (Sequoia Records #x130)\10. Zingaia - Wisdom Keepers.wav
Peak level 96.6 % Extraction speed 3.4 X Track quality 100.0 % Test CRC F7E12373 Copy CRC F7E12373 Cannot be verified as accurate (confidence 1) [A1953DFC], AccurateRip returned [55EA75A4] (AR v2) Copy OK
No tracks could be verified as accurateYou may have a different pressing from the one(s) in the database
No errors occurred
End of status report
---- CUETools DB Plugin V2.1.6
[CTDB TOCID: lZnt5x8ttd4DC_U6KoEE_fMVXSY-] foundSubmit result: lZnt5x8ttd4DC_U6KoEE_fMVXSY- has been confirmedTrack | CTDB Status 1 | (1/1) Accurately ripped 2 | (1/1) Accurately ripped 3 | (1/1) Accurately ripped 4 | (1/1) Accurately ripped 5 | (1/1) Accurately ripped 6 | (1/1) Accurately ripped 7 | (1/1) Accurately ripped 8 | (1/1) Accurately ripped 9 | (1/1) Accurately ripped 10 | (1/1) Accurately ripped
==== Log checksum 3B364FA1DDA334563856E3310CC889FD43D3697335753F9FEEB0C7C470425E54 ====

Содержание индексной карты (.CUE)

REM GENRE "New Age"REM DATE 2012REM DISCID 8D0B330AREM COMMENT "ExactAudioCopy v1.0b3"CATALOG 4015307677929PERFORMER "Zingaia"TITLE "Earth Church"FILE "01. Zingaia - Afro Techno.wav" WAVE TRACK 01 AUDIO TITLE "Afro Techno" PERFORMER "Zingaia" ISRC USSQ11213001 INDEX 01 00:00:00FILE "02. Zingaia - Earth Church.wav" WAVE TRACK 02 AUDIO TITLE "Earth Church" PERFORMER "Zingaia" ISRC USSQ11213002 INDEX 01 00:00:00FILE "03. Zingaia - Incense Ceremony.wav" WAVE TRACK 03 AUDIO TITLE "Incense Ceremony" PERFORMER "Zingaia" ISRC USSQ11213003 INDEX 01 00:00:00FILE "04. Zingaia - Maenads in Morocco.wav" WAVE TRACK 04 AUDIO TITLE "Maenads in Morocco" PERFORMER "Zingaia" ISRC USSQ11213004 INDEX 01 00:00:00FILE "05. Zingaia - The Message.wav" WAVE TRACK 05 AUDIO TITLE "The Message" PERFORMER "Zingaia" ISRC USSQ11213005 INDEX 01 00:00:00FILE "06. Zingaia - Omumbiri.wav" WAVE TRACK 06 AUDIO TITLE "Omumbiri" PERFORMER "Zingaia" ISRC USSQ11213006 INDEX 01 00:00:00FILE "07. Zingaia - MerMade.wav" WAVE TRACK 07 AUDIO TITLE "MerMade" PERFORMER "Zingaia" ISRC USSQ11213007 INDEX 01 00:00:00FILE "08. Zingaia - Sekhment.wav" WAVE TRACK 08 AUDIO TITLE "Sekhment" PERFORMER "Zingaia" ISRC USSQ11213008 INDEX 01 00:00:00FILE "09. Zingaia - Call of the Panisk.wav" WAVE TRACK 09 AUDIO TITLE "Call of the Panisk" PERFORMER "Zingaia" ISRC USSQ11213009 INDEX 01 00:00:00FILE "10. Zingaia - Wisdom Keepers.wav" WAVE TRACK 10 AUDIO TITLE "Wisdom Keepers" PERFORMER "Zingaia" ISRC USSQ11213010 INDEX 01 00:00:00

Лог проверки качества

-----------------------
DON'T MODIFY THIS FILE
-----------------------
PERFORMER: auCDtect Task Manager, ver. 1.6.0 RC1 build 1.6.0.1Copyright (c) 2008-2010 y-soft. All rights reservedhttp://y-soft.org
ANALYZER: auCDtect: CD records authenticity detector, version 0.8.2Copyright (c) 2004 Oleg Berngardt. All rights reserved.Copyright (c) 2004 Alexander Djourik. All rights reserved.
FILE: 10. Zingaia - Wisdom Keepers.flac Size: 26671266 Hash: CAB9286972A092FC1B7001261CE5CD92 Accuracy: -m0 Conclusion: CDDA 100% Signature: E399E9AD5764F07B13788518067F0231A3C54B92FILE: 09. Zingaia - Call of the Panisk.flac Size: 36011465 Hash: 8D3C97A189B8F47287A4BA0E930D876E Accuracy: -m0 Conclusion: CDDA 100% Signature: 6BDADB37F21490D2035D8EFA7CDEE4C20D2365DDFILE: 08. Zingaia - Sekhment.flac Size: 31403154 Hash: F1ED90AACF8BB5DFA28BE419759F6C76 Accuracy: -m0 Conclusion: CDDA 99% Signature: A41B69CB4BC93D0733BFFBAB041A3E8BD8897DB6FILE: 07. Zingaia - MerMade.flac Size: 20854763 Hash: 93F25389C310B977457CD41675C426B2 Accuracy: -m0 Conclusion: CDDA 100% Signature: CA7B5EBC328C3D1068462BDA0594956103E4ED38FILE: 06. Zingaia - Omumbiri.flac Size: 27950654 Hash: DC269DC6C7C44173F10A6E897747E5AC Accuracy: -m0 Conclusion: CDDA 100% Signature: 62B14E6AFE1EF1A6B43796038C07BEE6CDB32FD9FILE: 05. Zingaia - The Message.flac Size: 32336561 Hash: 9E17E370DF5F1E00FDC48C2BDC1291B6 Accuracy: -m0 Conclusion: CDDA 100% Signature: 44C4A67C5FF5D726C17DE95C990B1A8E13029492FILE: 04. Zingaia - Maenads in Morocco.flac Size: 29693867 Hash: 2B28826D4A0930D04BEEA9B2DA8C8120 Accuracy: -m0 Conclusion: CDDA 100% Signature: A6F2F3053FD3EAAB1ADA031D4D830D4987A0ECE3FILE: 03. Zingaia - Incense Ceremony.flac Size: 28447761 Hash: 09D8E1C8D1F8AC4514D34F351B1474E0 Accuracy: -m0 Conclusion: CDDA 100% Signature: E20EFC99F1A518ECB1A26E11C1EF5A1BBED9D047FILE: 02. Zingaia - Earth Church.flac Size: 27008664 Hash: 636FF88D76D1163D3CB5A8A52A6439B5 Accuracy: -m0 Conclusion: CDDA 100% Signature: DF8D1F4FF4F7AC1C15C7F34014C99EA0D750078FFILE: 01. Zingaia - Afro Techno.flac Size: 31398132 Hash: 08A2129AB6AFA9A8F12BF4CFCF3D1B1F Accuracy: -m0 Conclusion: CDDA 100% Signature: 712F61640428F4FC4CAEF0C9239411FD3BE1C940

Скриншот спектра частот


[doutdess.info].t81108.torrent
Torrent: Registered [ 2015-10-05 00:30 ] · D157686CCE16718375B1BCFBC119ADDDBD6C0CE6

13 KB

Status: checked
Completed: 0 times
Size: 303 MB
(New Age) [CD] Zingaia - Earth Church - 2012, FLAC (tracks+.cue), lossless скачать торрент бесплатно и без регистрации

[Profile] [PM]
Forum Topic Author Size
NewAge & Meditative lossless (New Age) Al Gromer Khan & Emin Corrado - Tantra Electronica - 2004, FLAC (tracks+.cue), lossless RelizMAN 284 MB
NewAge & Meditative lossless (New Age) Al Gromer Khan - Negus - The Royal Principle - 2008, FLAC (tracks+.cue), lossless RelizMAN 227 MB
NewAge & Meditative lossless (New Age) Amethystium - 2005 - "Transversa" [APE (image + .cue)], lossless RelizMAN 437 MB
NewAge & Meditative lossless (New Age) Anima - Temple of the Stars - 2010, FLAC (tracks+.cue), lossless RelizMAN 376 MB
NewAge & Meditative lossless (New Age) Anne Linnet - Relax, No. 1 - 2003, FLAC (tracks+.cue), lossless RelizMAN 312 MB
NewAge & Meditative lossless (New Age) Anthony Miles - Music For Children - 1995, APE (image+.cue) lossless RelizMAN 212 MB
NewAge & Meditative lossless (New Age) Anuragi - Highway Back Home (1990), Morning & Evening Meditation (1992), APE (image + .cue), lossless RelizMAN 331 MB
NewAge & Meditative lossless (New Age) Asha - Chosen by You - 2002, FLAC (tracks+.cue), lossless RelizMAN 350 MB
Display posts:    

Current time is: 27-Jun 15:41

All times are UTC + 3



You cannot post new topics in this forum
You cannot reply to topics in this forum
You cannot edit your posts in this forum
You cannot delete your posts in this forum
You cannot vote in polls in this forum
You cannot attach files in this forum
You can download files in this forum