Ответить на тему
Статистика раздачи [Обновить пиров]
Размер:  270 MB   |    Зарегистрирован:  7 месяцев 16 дней   |    Скачан:  0 раз
Сидов:  809  [  0 KB/s  ]   Личеров:  4  [  0 KB/s  ]  
 
     
 
 
Автор Сообщение

Vi$itReal ®

12

Создавать темы 09-Авг-2018 16:35

[Цитировать]

Cabadzi ‎ / Des Angles Et Des Épines
Жанр: Hip Hop, Rock
Носитель: CD
Страна-производитель диска (релиза): France
Год издания: 2014
Издатель (лейбл): Le Cirque Absent
Номер по каталогу: LCAB 030014
Страна исполнителя (группы): France
Аудиокодек: FLAC (*.flac)
Тип рипа: tracks+.cue
Битрейт аудио: lossless
Продолжительность: 00:44:50
Источник (релизер): what.cd
Наличие сканов в содержимом раздачи: нет
Треклист:
01 Féroces Intimes 3:55
02 Le Bruit Des Portes 3:23
03 Cent Fois 3:46
04 Nous Sommes Deux Femmes 3:56
05 Mon Ami 4:05
06 Plus Sombre 4:21
07 Cancre Ultime 4:52
08 L'Odeur 3:27
09 Messe Noire 4:47
10 D'En Haut, La Ville Est Belle En Bas 8:20

Лог создания рипа

Exact Audio Copy V1.0 beta 3 from 29. August 2011
EAC extraction logfile from 22. January 2015, 19:08
Cabadzi / Des angles et des épines
Used drive : TSSTcorpCDDVDW TS-L633C Adapter: 3 ID: 0
Read mode : SecureUtilize accurate stream : YesDefeat audio cache : YesMake use of C2 pointers : No
Read offset correction : 6Overread into Lead-In and Lead-Out : NoFill up missing offset samples with silence : YesDelete leading and trailing silent blocks : NoNull samples used in CRC calculations : YesUsed interface : Native Win32 interface for Win NT & 2000Gap handling : Appended to previous track
Used output format : User Defined EncoderSelected bitrate : 1024 kBit/sQuality : HighAdd ID3 tag : NoCommand line compressor : C:\Program Files (x86)\Exact Audio Copy\Flac\flac.exeAdditional command line options : -8 -V -T "ARTIST=%artist%" -T "TITLE=%title%" -T "ALBUM=%albumtitle%" -T "DATE=%year%" -T "TRACKNUMBER=%tracknr%" -T "GENRE=%genre%" -T "PERFORMER=%albuminterpret%" -T "COMPOSER=%composer%" %haslyrics%--tag-from-file=LYRICS="%lyricsfile%"%haslyrics% -T "ALBUMARTIST=%albumartist%" -T "DISCNUMBER=%cdnumber%" -T "TOTALDISCS=%totalcds%" -T "TOTALTRACKS=%numtracks%" -T "COMMENT=%comment%" %source% -o %dest%
TOC of the extracted CD
Track | Start | Length | Start sector | End sector --------------------------------------------------------- 1 | 0:00.00 | 3:54.69 | 0 | 17618 2 | 3:54.69 | 3:22.51 | 17619 | 32819 3 | 7:17.45 | 3:45.71 | 32820 | 49765 4 | 11:03.41 | 3:55.42 | 49766 | 67432 5 | 14:59.08 | 4:05.19 | 67433 | 85826 6 | 19:04.27 | 4:20.61 | 85827 | 105387 7 | 23:25.13 | 4:52.18 | 105388 | 127305 8 | 28:17.31 | 3:26.50 | 127306 | 142805 9 | 31:44.06 | 4:46.42 | 142806 | 164297 10 | 36:30.48 | 8:20.18 | 164298 | 201815
Track 1
Filename C:\Users\Stella\Music\01 - Féroces Intimes.wav
Pre-gap length 0:00:02.00
Peak level 96.8 % Extraction speed 0.8 X Track quality 100.0 % Test CRC 4F0FBCC3 Copy CRC 4F0FBCC3 Track not present in AccurateRip database Copy OK
Track 2
Filename C:\Users\Stella\Music\02 - Le Bruit des Portes.wav
Peak level 96.9 % Extraction speed 1.7 X Track quality 100.0 % Test CRC F1F29A2F Copy CRC F1F29A2F Track not present in AccurateRip database Copy OK
Track 3
Filename C:\Users\Stella\Music\03 - Cent Fois.wav
Peak level 97.9 % Extraction speed 1.0 X Track quality 100.0 % Test CRC E363B564 Copy CRC E363B564 Track not present in AccurateRip database Copy OK
Track 4
Filename C:\Users\Stella\Music\04 - Nous Sommes Deux Femmes.wav
Peak level 96.3 % Extraction speed 1.7 X Track quality 100.0 % Test CRC 8D080865 Copy CRC 8D080865 Track not present in AccurateRip database Copy OK
Track 5
Filename C:\Users\Stella\Music\05 - Mon Ami.wav
Peak level 97.3 % Extraction speed 1.2 X Track quality 100.0 % Test CRC 23957DD2 Copy CRC 23957DD2 Track not present in AccurateRip database Copy OK
Track 6
Filename C:\Users\Stella\Music\06 - Plus Sombre.wav
Peak level 96.4 % Extraction speed 0.9 X Track quality 100.0 % Test CRC C192846A Copy CRC C192846A Track not present in AccurateRip database Copy OK
Track 7
Filename C:\Users\Stella\Music\07 - Cancre Ultime.wav
Peak level 95.6 % Extraction speed 0.4 X Track quality 100.0 % Test CRC 4458F59F Copy CRC 4458F59F Track not present in AccurateRip database Copy OK
Track 8
Filename C:\Users\Stella\Music\08 - L'odeur.wav
Peak level 99.7 % Extraction speed 2.3 X Track quality 100.0 % Test CRC 692CBCD0 Copy CRC 692CBCD0 Track not present in AccurateRip database Copy OK
Track 9
Filename C:\Users\Stella\Music\09 - Messe Noire.wav
Peak level 95.9 % Extraction speed 3.9 X Track quality 100.0 % Test CRC D1F7B93D Copy CRC D1F7B93D Track not present in AccurateRip database Copy OK
Track 10
Filename C:\Users\Stella\Music\10 - D'en Haut, la Ville es Belle en Bas.wav
Peak level 96.4 % Extraction speed 4.3 X Track quality 100.0 % Test CRC 1F61DC46 Copy CRC 1F61DC46 Track not present in AccurateRip database Copy OK
None of the tracks are present in the AccurateRip database
No errors occurred
End of status report
---- CUETools DB Plugin V2.1.3
[CTDB TOCID: BwrO1KEVYYjQJ8COl6UtoyBb5p4-] found, Submit result: BwrO1KEVYYjQJ8COl6UtoyBb5p4- has been confirmed[31f5d884] (1/1) Accurately ripped
==== Log checksum BB5B00899F8F15AA96882CB68D9FBE3EB6D1D0A3EE48595C93FCB92C31F19D54 ====

Содержание индексной карты (.CUE)

REM DATE 2014REM DISCID 870A820AREM COMMENT "ExactAudioCopy v1.0b3"PERFORMER "Cabadzi"TITLE "Des angles et des йpines"FILE "01 - Fйroces Intimes.wav" WAVE  TRACK 01 AUDIO    TITLE "Fйroces Intimes"    PERFORMER "Cabadzi"    ISRC FR9W11404743    FLAGS DCP    INDEX 01 00:00:00FILE "02 - Le Bruit des Portes.wav" WAVE  TRACK 02 AUDIO    TITLE "Le Bruit des Portes"    PERFORMER "Cabadzi"    ISRC FR9W11404738    FLAGS DCP    INDEX 01 00:00:00FILE "03 - Cent Fois.wav" WAVE  TRACK 03 AUDIO    TITLE "Cent Fois"    PERFORMER "Cabadzi"    ISRC FR9W11404738    FLAGS DCP    INDEX 01 00:00:00FILE "04 - Nous Sommes Deux Femmes.wav" WAVE  TRACK 04 AUDIO    TITLE "Nous Sommes Deux Femmes"    PERFORMER "Cabadzi"    ISRC FR9W11404737    FLAGS DCP    INDEX 01 00:00:00FILE "05 - Mon Ami.wav" WAVE  TRACK 05 AUDIO    TITLE "Mon Ami"    PERFORMER "Cabadzi"    ISRC FR9W11404739    FLAGS DCP    INDEX 01 00:00:00FILE "06 - Plus Sombre.wav" WAVE  TRACK 06 AUDIO    TITLE "Plus Sombre"    PERFORMER "Cabadzi"    ISRC FR9W11404742    FLAGS DCP    INDEX 01 00:00:00FILE "07 - Cancre Ultime.wav" WAVE  TRACK 07 AUDIO    TITLE "Cancre Ultime"    PERFORMER "Cabadzi"    ISRC FR9W11404745    FLAGS DCP    INDEX 01 00:00:00FILE "08 - L'odeur.wav" WAVE  TRACK 08 AUDIO    TITLE "L'odeur"    PERFORMER "Cabadzi"    ISRC FR9W11404736    FLAGS DCP    INDEX 01 00:00:00FILE "09 - Messe Noire.wav" WAVE  TRACK 09 AUDIO    TITLE "Messe Noire"    PERFORMER "Cabadzi"    ISRC FR9W11404746    FLAGS DCP    INDEX 01 00:00:00FILE "10 - D'en Haut, la Ville es Belle en Bas.wav" WAVE  TRACK 10 AUDIO    TITLE "D'en Haut, la Ville es Belle en Bas"    PERFORMER "Cabadzi"    ISRC FR9W11404740    FLAGS DCP    INDEX 01 00:00:00

Лог проверки качества

AUDIOCHECKER v2.0 beta (build 457) - by Dester - [email protected]~~~~~~~~~~~~~~~~~~~~~~~~~~~~~~~~~~-=== DO NOT EDIT THIS FILE! ===-
Path: ...\Cabadzi - Des Angles et des Epines - FLAC
01 -=- 01.Feroces Intimes.flac -=- ERROR02 -=- 02.Le Bruit des Portes.flac -=- CDDA (100%)03 -=- 03.Cent Fois.flac -=- CDDA (100%)04 -=- 04.Nous Sommes Deux Femmes.flac -=- CDDA (100%)05 -=- 05.Mon Ami.flac -=- CDDA (100%)06 -=- 06.Plus Sombre.flac -=- CDDA (100%)07 -=- 07.Cancre Ultime.flac -=- CDDA (100%)08 -=- 08.L'odeur.flac -=- CDDA (100%)09 -=- 09.Messe Noire.flac -=- CDDA (99%)10 -=- 10.D'en Haut, la Ville est Belle en Bas.flac -=- CDDA (99%)
Summary 99,78% CDDA
176779092

[doutdess.info].t283288.torrent
Торрент: Зарегистрирован [ 2018-08-09 16:35 ] · F810279BED1B297BBDAC757CAC5A66E37C25F98D

12 KB

Статус: проверено
Скачан: 0 раз
Размер: 270 MB
(Hip Hop, Rock) [CD] Cabadzi ‎ - Des Angles Et Des Épines (Des Angles Et Des Epines) - 2014, FLAC (tracks+.cue), lossless скачать торрент бесплатно и без регистрации

[Профиль] [ЛС]
Форум Тема Автор Размер
Зарубежный Рэп, Хип-Хоп lossy (Hip Hop, Acid Jazz) Dodge City Productions - Steppin\' Up and Out - 1993, MP3, 320 kbps RelizMAN 172 MB
Зарубежный Рэп, Хип-Хоп lossless (Hip Hop, Beatbox, Electro) [CD] Fat Boys - Fat Boys - 2012 (1984), FLAC (tracks+.cue), lossless Vi$itReal 450 MB
Зарубежный Рэп, Хип-Хоп lossless (Hip Hop, Boom Bap, Hardcore Hip Hop) [CDR] Da Buze Bruvaz (feat. Alca da Headscalpa) - Bermuda Triangle: Underwater Pyramidz - 2017, FLAC (tracks+.cue), lossless Vi$itReal 214 MB
Зарубежный Рэп, Хип-Хоп lossless (Hip Hop, Boom Bap, Hardcore Hip Hop) [CDR] Da Buze Bruvaz - Adebisi Hat - 2017, FLAC (tracks+.cue), lossless Vi$itReal 370 MB
Зарубежный Рэп, Хип-Хоп lossy (Hip Hop, Breakbeat) Maxim (from The Prodigy) - Дискография (11 релизов + 16 треков неизданное) MP3, 56-320 kbps RelizMAN 695 MB
Зарубежный Рэп, Хип-Хоп lossy (Hip Hop, Christian Hip-Hop) Bizzle - Discography (13 Releases) [2010-2016], MP3, 128-320 kbps RelizMAN 1,37 GB
Зарубежный Рэп, Хип-Хоп lossy (Hip Hop, Cut Up/DJ, Electronic) Spank Rock (+ DJs Devlin, Darko, XXXchange) — Дискография (17 релизов) — 2005-2009, MP3 (tracks), VBR, 320 kbps (~ 272) RelizMAN 1,24 GB
Зарубежный Рэп, Хип-Хоп lossless (Hip Hop, Cut-up/DJ, Conscious) Tony Touch - The Last Of The Pro Ricans - 2002, FLAC (tracks+.cue), lossless Vi$itReal 261 MB
Показать сообщения:    

Текущее время: 25-Мар 20:46

Часовой пояс: UTC + 3



Вы не можете начинать темы
Вы не можете отвечать на сообщения
Вы не можете редактировать свои сообщения
Вы не можете удалять свои сообщения
Вы не можете голосовать в опросах
Вы не можете прикреплять файлы к сообщениям
Вы можете скачивать файлы