Reply to topic
DL-List and Torrent activity [Update пиров]
Size:  6.13 GB   |    Registered:  3 years 8 months   |    Completed:  2 times
Seeders:  121  [  0 KB/s  ]   Leechers:  32  [  0 KB/s  ]  
 
     
 
 
Author Message

RelizMAN ®

11

Post 05-Oct-2015 00:31

[Quote]

- Stamatis Spanoudakis (Σταμάτης Σπανουδάκης) -
- Коллекция (10 Albums, 4 Soundtracks, 3 Live, 3 Compilations) (23CD) -
-|| Жанр: New Age || Год издания диска: 1985-2014 || Страна: Greece || Носитель: CD || Издатель (лейбл): Stam Studio, Lyra, Warner Music, PolyGram ||
|| Аудио кодек: FLAC (*.flac) || Тип рипа: (tracks+.cue, image+.cue) || Битрейт аудио: lossless || Продолжительность: 18:28:50 ||
|| Источник (релизер): GRFVN, Highlander, Speedyclick, rovanpera1, xarax || Наличие сканов в содержимом раздачи: частично ||-Стаматис Спанудакис (Stamatis Spanoudakis, Σταμάτης Σπανουδάκης - греч.) - греческий композитор и музыкант, работающий в жанре лирической инструментальной музыки, совмещающей электронику, симфонический оркестр и греческий фольклор.-

Stamatis Spanoudakis

Стаматис Спанудакис родился 11 декабря 1948 г. в Греции. С самого раннего возраста музыка занимала очень важное место в его жизни. В детстве Спанудакис изучал классическую музыку (теория гитары). Затем, будучи подростком в шестидесятых-семидесятых годах, выступал в качестве бас-гитариста и клавишника с группами в Афинах, Париже и, наконец, в Лондоне, где он прожил в течение ряда лет и записал первый альбом. Потом он продолжает изучение классической музыки сначала в Германии у профессора Бертольда Хюммеля (Bertold Hummel), а затем в Греции, в Афинах у профессора Константиноса Кидониатиса (Konstantinos Kydoniatis). Спанудакис увлекается византийской и греческой музыкой. В последствии в своем творчестве он будет пытаться совместить три музыкальных стиля: рок, классику и фольклор. В какой-то степени творчество Спанудакиса можно отнести к стилю Нью-Эйдж.
Стаматис Спанудакис является автором многочисленных песен (как музыки, так и слов) для различных греческих исполнителей (в том числе для такого известного певца, как Демис Руссос (Demis Roussos). Он также написал саундтреки для множества кинофильмов в Греции, Германии и Италии, музыку для театра и телевидения. Удостоен премии за киномузыку в 1975 и 2004 годах. На сегодняшний день композитор выпустил более 50-ти альбомов. С 1995 года Спанудакис сосредоточен почти исключительно на инструментальной музыке, нередко основанной на греческих исторических и религиозных темах.
Стаматис Спанудакис живет в тихом пригороде с женой Дори и четырьмя собаками. Имеет свою собственную студию - "Stam Studio", где работает в качестве композитора, аранжировщика, продюсера, исполнителя и звукорежиссера.
Альбомы композитора пользуются неизменной популярностью и любовью публики, приобретая золотой и платиновый статус.
Маэстро гастролирует по разным странам мира, с живыми концертами, поражающими своей яркостью и динамизмом.
With Vangelis With Ennio Moricone

-
- -Albums
1986 - Kontrabando (2015 Re-release) (With Eleftheria Arvanitaki) Продолжительность: 00:35:02
01. I Akti - (04:16)
02. I Stigmi - (04:02)
03. Paramythi - (03:19)
04. Mi Milas - (02:28)
05. Pali Moni - (03:19)
06. O,ti Mou Lipi... - (03:40)
07. Efyges Noris - (03:48)
08. Toso Erotevmeni - (03:02)
09. Kontrabando - (04:04)
10. Mia Foni - (03:04)

Лог создания рипа

Exact Audio Copy V1.0 beta 3 from 29. August 2011
EAC extraction logfile from 17. May 2015, 20:38
Ελευθερία Αρβανιτάκη / Κοντραμπάντο
Used drive : TSSTcorpCDDVDW SH-224DB Adapter: 0 ID: 0
Read mode : SecureUtilize accurate stream : YesDefeat audio cache : YesMake use of C2 pointers : No
Read offset correction : 6Overread into Lead-In and Lead-Out : NoFill up missing offset samples with silence : YesDelete leading and trailing silent blocks : NoNull samples used in CRC calculations : YesUsed interface : Native Win32 interface for Win NT & 2000Gap handling : Appended to previous track
Used output format : User Defined EncoderSelected bitrate : 1024 kBit/sQuality : HighAdd ID3 tag : NoCommand line compressor : C:\Program Files (x86)\Exact Audio Copy\FLAC\FLAC.EXEAdditional command line options : -8 -V -T "ARTIST=%artist%" -T "TITLE=%title%" -T "ALBUM=%albumtitle%" -T "DATE=%year%" -T "TRACKNUMBER=%tracknr%" -T "GENRE=%genre%" -T "PERFORMER=%albuminterpret%" -T "COMPOSER=%composer%" %haslyrics%--tag-from-file=LYRICS="%lyricsfile%"%haslyrics% -T "ALBUMARTIST=%albumartist%" -T "DISCNUMBER=%cdnumber%" -T "TOTALDISCS=%totalcds%" -T "TOTALTRACKS=%numtracks%" -T "COMMENT=%comment%" %source% -o %dest%
TOC of the extracted CD
Track | Start | Length | Start sector | End sector --------------------------------------------------------- 1 | 0:00.00 | 4:01.55 | 0 | 18129 2 | 4:01.55 | 4:00.28 | 18130 | 36157 3 | 8:02.08 | 3:17.63 | 36158 | 50995 4 | 11:19.71 | 2:25.46 | 50996 | 61916 5 | 13:45.42 | 3:16.01 | 61917 | 76617 6 | 17:01.43 | 3:35.50 | 76618 | 92792 7 | 20:37.18 | 3:45.68 | 92793 | 109735 8 | 24:23.11 | 3:00.67 | 109736 | 123302 9 | 27:24.03 | 4:01.33 | 123303 | 141410 10 | 31:25.36 | 2:57.36 | 141411 | 154721
Track 1
Filename C:\Downloads\CD Ripped\01 - Η Ακτή.wav
Pre-gap length 0:00:02.00
Peak level 97.7 % Extraction speed 1.7 X Track quality 100.0 % Test CRC B7189317 Copy CRC B7189317 Track not present in AccurateRip database Copy OK
Track 2
Filename C:\Downloads\CD Ripped\02 - Η Στιγμή.wav
Peak level 97.7 % Extraction speed 1.7 X Track quality 99.9 % Test CRC 16868163 Copy CRC 16868163 Track not present in AccurateRip database Copy OK
Track 3
Filename C:\Downloads\CD Ripped\03 - Παραμύθι.wav
Peak level 97.7 % Extraction speed 1.7 X Track quality 99.9 % Test CRC 1C0A057F Copy CRC 1C0A057F Track not present in AccurateRip database Copy OK
Track 4
Filename C:\Downloads\CD Ripped\04 - Μη Μιλάς.wav
Peak level 97.7 % Extraction speed 2.0 X Track quality 100.0 % Test CRC F427E9ED Copy CRC F427E9ED Track not present in AccurateRip database Copy OK
Track 5
Filename C:\Downloads\CD Ripped\05 - Πάλι Μόνη.wav
Peak level 97.7 % Extraction speed 2.2 X Track quality 100.0 % Test CRC 092287B0 Copy CRC 092287B0 Track not present in AccurateRip database Copy OK
Track 6
Filename C:\Downloads\CD Ripped\06 - Ότι Μου Λείπει.wav
Peak level 97.7 % Extraction speed 2.4 X Track quality 100.0 % Test CRC 8A510238 Copy CRC 8A510238 Track not present in AccurateRip database Copy OK
Track 7
Filename C:\Downloads\CD Ripped\07 - Έφυγες Νωρίς.wav
Peak level 97.7 % Extraction speed 2.5 X Track quality 100.0 % Test CRC A10DFFCD Copy CRC A10DFFCD Track not present in AccurateRip database Copy OK
Track 8
Filename C:\Downloads\CD Ripped\08 - Τόσο Ερωτευμένη.wav
Peak level 97.7 % Extraction speed 1.9 X Track quality 99.9 % Test CRC 55CBBF38 Copy CRC 55CBBF38 Track not present in AccurateRip database Copy OK
Track 9
Filename C:\Downloads\CD Ripped\09 - Κοντραμπάντο.wav
Peak level 97.7 % Extraction speed 2.4 X Track quality 100.0 % Test CRC 28B453F4 Copy CRC 28B453F4 Track not present in AccurateRip database Copy OK
Track 10
Filename C:\Downloads\CD Ripped\10 - Μια Φωνή.wav
Peak level 97.7 % Extraction speed 2.7 X Track quality 100.0 % Test CRC 913B60E0 Copy CRC 913B60E0 Track not present in AccurateRip database Copy OK
None of the tracks are present in the AccurateRip database
No errors occurred
End of status report
---- CUETools DB Plugin V2.1.3
[CTDB TOCID: NsUDD26ci9KQahI2iZ1onDMooTc-] found, Submit result: NsUDD26ci9KQahI2iZ1onDMooTc- has been confirmed[798709f1] (2/2) Accurately ripped
==== Log checksum 4C9BEDA02528A8EF80AB51612B51DB6D9FCECFA0C188A1F873B33622C26F0AA5 ====

Содержание индексной карты (.CUE)

REM GENRE "Εντεχνο λαϊκό"REM DATE 2015REM DISCID 89080E0AREM COMMENT "ExactAudioCopy v1.0b3"PERFORMER "Ελευθερία Αρβανιτάκη"TITLE "Κοντραμπάντο"FILE "01 - Η Ακτή.wav" WAVE TRACK 01 AUDIO TITLE "Η Ακτή" PERFORMER "Ελευθερία Αρβανιτάκη" INDEX 01 00:00:00FILE "02 - Η Στιγμή.wav" WAVE TRACK 02 AUDIO TITLE "Η Στιγμή" PERFORMER "Ελευθερία Αρβανιτάκη" INDEX 01 00:00:00FILE "03 - Παραμύθι.wav" WAVE TRACK 03 AUDIO TITLE "Παραμύθι" PERFORMER "Ελευθερία Αρβανιτάκη" INDEX 01 00:00:00FILE "04 - Μη Μιλάς.wav" WAVE TRACK 04 AUDIO TITLE "Μη Μιλάς" PERFORMER "Ελευθερία Αρβανιτάκη" INDEX 01 00:00:00FILE "05 - Πάλι Μόνη.wav" WAVE TRACK 05 AUDIO TITLE "Πάλι Μόνη" PERFORMER "Ελευθερία Αρβανιτάκη" INDEX 01 00:00:00FILE "06 - Ότι Μου Λείπει.wav" WAVE TRACK 06 AUDIO TITLE "Ότι Μου Λείπει" PERFORMER "Ελευθερία Αρβανιτάκη" INDEX 01 00:00:00FILE "07 - Έφυγες Νωρίς.wav" WAVE TRACK 07 AUDIO TITLE "Έφυγες Νωρίς" PERFORMER "Ελευθερία Αρβανιτάκη" INDEX 01 00:00:00FILE "08 - Τόσο Ερωτευμένη.wav" WAVE TRACK 08 AUDIO TITLE "Τόσο Ερωτευμένη" PERFORMER "Ελευθερία Αρβανιτάκη" INDEX 01 00:00:00FILE "09 - Κοντραμπάντο.wav" WAVE TRACK 09 AUDIO TITLE "Κοντραμπάντο" PERFORMER "Ελευθερία Αρβανιτάκη" INDEX 01 00:00:00FILE "10 - Μια Φωνή.wav" WAVE TRACK 10 AUDIO TITLE "Μια Φωνή" PERFORMER "Ελευθερία Αρβανιτάκη" INDEX 01 00:00:00
1990 - To Dilima (The Dilemma) (With Petros Gaitanos) Продолжительность: 00:35:26
01. Introduction (Isagogi) - (02:00)
02. Wrong Season (Lathos Epohi) - (04:28)
03. How I Love You (Pos S' Agapao) - (04:08)
04. The Dilemma (To Dilima) - (04:05)
05. I've Told You (Sou To Ho Pi) - (02:56)
06. Still I Want You (Ke Se Zitao Akoma) - (04:07)
07. What You Are (Afto Pou Ise) - (03:30)
08. The Court (To Dikastirio) - (04:43)
09. Only A Favor (Mia Hari Mono) - (04:49)
10. The End (To Finale) - (00:40)

Лог создания рипа

Exact Audio Copy V1.0 beta 1 from 15. November 2010
EAC extraction logfile from 3. September 2011, 22:12
Petros Gaitanos / Stamatis Spanoudakis To dilima
Used drive : HL-DT-STDVDRAM GH10N Adapter: 3 ID: 0
Read mode : SecureUtilize accurate stream : YesDefeat audio cache : YesMake use of C2 pointers : No
Read offset correction : 667Overread into Lead-In and Lead-Out : NoFill up missing offset samples with silence : YesDelete leading and trailing silent blocks : NoNull samples used in CRC calculations : YesUsed interface : Native Win32 interface for Win NT & 2000
Used output format : User Defined EncoderSelected bitrate : 1024 kBit/sQuality : HighAdd ID3 tag : NoCommand line compressor : C:\Program Files\FLAC\flac.exeAdditional command line options : -V -5 -T "artist=%a" -T "title=%t" -T "album=%g" -T "date=%y" -T "tracknumber=%n" -T "genre=%m" -5 %s
TOC of the extracted CD
Track | Start | Length | Start sector | End sector --------------------------------------------------------- 1 | 0:00.00 | 1:59.40 | 0 | 8964 2 | 1:59.40 | 4:28.00 | 8965 | 29064 3 | 6:27.40 | 4:08.12 | 29065 | 47676 4 | 10:35.52 | 4:04.25 | 47677 | 66001 5 | 14:40.02 | 2:56.03 | 66002 | 79204 6 | 17:36.05 | 4:06.72 | 79205 | 97726 7 | 21:43.02 | 3:29.48 | 97727 | 113449 8 | 25:12.50 | 4:43.07 | 113450 | 134681 9 | 29:55.57 | 4:48.35 | 134682 | 156316 10 | 34:44.17 | 0:40.00 | 156317 | 159316
Range status and errors
Selected range
Filename U:\EAC Rips\GREEK\Petros Gaitanos - To dilimma\Petros Gaitanos - Stamatis Spanoudakis To dilima.wav
Peak level 98.8 % Extraction speed 0.0 X Range quality 99.9 % Test CRC FA6BA6DA Copy CRC FA6BA6DA Copy OK
No errors occurred
AccurateRip summary
Track 1 accurately ripped (confidence 2) [24D33ACD]Track 2 accurately ripped (confidence 2) [D0DA23FD]Track 3 accurately ripped (confidence 2) [68767DE5]Track 4 accurately ripped (confidence 2) [8CB2FBBD]Track 5 accurately ripped (confidence 2) [0E396247]Track 6 accurately ripped (confidence 2) [01DE27E9]Track 7 accurately ripped (confidence 2) [C6C99B71]Track 8 accurately ripped (confidence 2) [26C960DA]Track 9 accurately ripped (confidence 2) [5EFD9BB3]Track 10 accurately ripped (confidence 2) [88CFA2FF]
All tracks accurately ripped
End of status report
==== Log checksum 664AD079DD03CD0A9370D5B3BE006EE7052C9597256F2129DFDBBCA27F0DD9DA ====

Содержание индексной карты (.CUE)

REM DISCID 86084C0AREM COMMENT "ExactAudioCopy v1.0b1"PERFORMER "Petros Gaitanos"TITLE "Stamatis Spanoudakis - To Dilimma (The Dilemma) (1990)"FILE "Petros Gaitanos - Stamatis Spanoudakis To dilima.flac" WAVE TRACK 01 AUDIO TITLE "Introduction (Isagogi)" PERFORMER "Petros Gaitanos" INDEX 01 00:00:00 TRACK 02 AUDIO TITLE "Wrong season (Lathos epohi)" PERFORMER "Petros Gaitanos" INDEX 00 01:56:37 INDEX 01 01:59:40 TRACK 03 AUDIO TITLE "How I love you (Pos s' agapao)" PERFORMER "Petros Gaitanos" INDEX 00 06:24:70 INDEX 01 06:27:40 TRACK 04 AUDIO TITLE "The dilemma (To dilima)" PERFORMER "Petros Gaitanos" INDEX 00 10:32:60 INDEX 01 10:35:52 TRACK 05 AUDIO TITLE "I've told you (Sou to ho pi)" PERFORMER "Petros Gaitanos" INDEX 00 14:37:20 INDEX 01 14:40:02 TRACK 06 AUDIO TITLE "Still I want you (Ke se zitao akoma)" PERFORMER "Petros Gaitanos" INDEX 00 17:33:42 INDEX 01 17:36:05 TRACK 07 AUDIO TITLE "What you are (Afto pou ise)" PERFORMER "Petros Gaitanos" INDEX 00 21:40:27 INDEX 01 21:43:02 TRACK 08 AUDIO TITLE "The court (To dikastirio)" PERFORMER "Petros Gaitanos" INDEX 00 25:10:35 INDEX 01 25:12:50 TRACK 09 AUDIO TITLE "Only a favor (Mia hari mono)" PERFORMER "Petros Gaitanos" INDEX 00 29:52:70 INDEX 01 29:55:57 TRACK 10 AUDIO TITLE "The end (To finale)" PERFORMER "Petros Gaitanos" INDEX 00 34:41:02 INDEX 01 34:44:17
1992 - Thalassa (Sea) Продолжительность: 00:41:52
01. Whistling - (04:34)
02. In The Sea - (02:37)
03. Summer - (02:48)
04. Shamana - (05:00)
05. Tempest - (05:50)
06. Night - (01:45)
07. Ni Chaud Ni Froid - (03:41)
08. An Island - (04:43)
09. Highlands - (04:34)
10. Thalassa - (06:20)

Лог создания рипа

Exact Audio Copy V1.0 beta 3 from 29. August 2011
EAC extraction logfile from 29. June 2012, 13:52
Stamatris Spanoudakis / Thalassa
Used drive : Optiarc DVD RW AD-7280S Adapter: 3 ID: 1
Read mode : SecureUtilize accurate stream : YesDefeat audio cache : YesMake use of C2 pointers : No
Read offset correction : 48Overread into Lead-In and Lead-Out : NoFill up missing offset samples with silence : YesDelete leading and trailing silent blocks : NoNull samples used in CRC calculations : YesUsed interface : Native Win32 interface for Win NT & 2000Gap handling : Appended to previous track
Used output format : User Defined EncoderSelected bitrate : 768 kBit/sQuality : HighAdd ID3 tag : NoCommand line compressor : C:\Program Files (x86)\Exact Audio Copy\FLAC\FLAC.EXEAdditional command line options : -8 -V -T "ARTIST=%artist%" -T "TITLE=%title%" -T "ALBUM=%albumtitle%" -T "DATE=%year%" -T "TRACKNUMBER=%tracknr%" -T "GENRE=%genre%" -T "COMMENT=%comment%" -T "BAND=%albuminterpret%" -T "ALBUMARTIST=%albuminterpret%" -T "COMPOSER=%composer%" %haslyrics%--tag-from-file=LYRICS="%lyricsfile%"%haslyrics% -T "DISCNUMBER=%cdnumber%" -T "TOTALDISCS=%totalcds%" -T "TOTALTRACKS=%numtracks%" %hascover%--picture="%coverfile%"%hascover% %source% -o %dest%
TOC of the extracted CD
Track | Start | Length | Start sector | End sector --------------------------------------------------------- 1 | 0:00.00 | 4:33.32 | 0 | 20506 2 | 4:33.32 | 2:36.50 | 20507 | 32256 3 | 7:10.07 | 2:48.13 | 32257 | 44869 4 | 9:58.20 | 5:00.07 | 44870 | 67376 5 | 14:58.27 | 5:50.10 | 67377 | 93636 6 | 20:48.37 | 1:44.40 | 93637 | 101476 7 | 22:33.02 | 3:40.60 | 101477 | 118036 8 | 26:13.62 | 4:42.18 | 118037 | 139204 9 | 30:56.05 | 4:33.52 | 139205 | 159731 10 | 35:29.57 | 6:19.09 | 159732 | 188165
Track 1
Filename d:\rip\01_Whistling.wav
Pre-gap length 0:00:02.00
Peak level 90.0 % Extraction speed 4.6 X Track quality 100.0 % Test CRC 9447C05B Copy CRC 9447C05B Accurately ripped (confidence 1) [580CE83A] (AR v2) Copy OK
Track 2
Filename d:\rip\02_In_the_Sea.wav
Pre-gap length 0:00:02.00
Peak level 59.3 % Extraction speed 2.9 X Track quality 99.9 % Test CRC B3D243D9 Copy CRC B3D243D9 Accurately ripped (confidence 1) [C34A587D] (AR v2) Copy OK
Track 3
Filename d:\rip\03_Summer.wav
Pre-gap length 0:00:02.00
Peak level 72.3 % Extraction speed 5.0 X Track quality 100.0 % Test CRC 16D788CB Copy CRC 16D788CB Accurately ripped (confidence 1) [BBBF8ED9] (AR v2) Copy OK
Track 4
Filename d:\rip\04_Shamana.wav
Pre-gap length 0:00:02.00
Peak level 100.0 % Extraction speed 4.4 X Track quality 99.9 % Test CRC 211620D6 Copy CRC 211620D6 Accurately ripped (confidence 1) [B642E86F] (AR v2) Copy OK
Track 5
Filename d:\rip\05_Tempest.wav
Pre-gap length 0:00:02.00
Peak level 100.0 % Extraction speed 6.4 X Track quality 100.0 % Test CRC 5F624B62 Copy CRC 5F624B62 Accurately ripped (confidence 1) [E20DCF91] (AR v2) Copy OK
Track 6
Filename d:\rip\06_Night.wav
Pre-gap length 0:00:02.00
Peak level 69.2 % Extraction speed 5.5 X Track quality 100.0 % Test CRC 86DD8F6C Copy CRC 86DD8F6C Accurately ripped (confidence 1) [C6F32B9A] (AR v2) Copy OK
Track 7
Filename d:\rip\07_Ni_Chaud_Ni_Froid.wav
Pre-gap length 0:00:02.00
Peak level 97.4 % Extraction speed 6.5 X Track quality 100.0 % Test CRC 71938099 Copy CRC 71938099 Accurately ripped (confidence 1) [18DF4C81] (AR v2) Copy OK
Track 8
Filename d:\rip\08_An_Island.wav
Pre-gap length 0:00:02.00
Peak level 94.4 % Extraction speed 7.2 X Track quality 100.0 % Test CRC EBBAAB4E Copy CRC EBBAAB4E Accurately ripped (confidence 1) [817509D5] (AR v2) Copy OK
Track 9
Filename d:\rip\09_Highlands.wav
Pre-gap length 0:00:02.00
Peak level 75.3 % Extraction speed 7.5 X Track quality 100.0 % Test CRC E649E158 Copy CRC E649E158 Accurately ripped (confidence 1) [7CB69A6C] (AR v2) Copy OK
Track 10
Filename d:\rip\10_Thalassa.wav
Pre-gap length 0:00:02.00
Peak level 82.8 % Extraction speed 6.3 X Track quality 99.9 % Test CRC 0C0EA01D Copy CRC 0C0EA01D Accurately ripped (confidence 1) [907FBBEF] (AR v2) Copy OK
All tracks accurately ripped
No errors occurred
End of status report
==== Log checksum 6C3B59EF5551E23463F927FBBB6BD68E9918FEB8EC6886CD9C900366523C54F0 ====

Содержание индексной карты (.CUE)

REM GENRE ElectronicREM DATE 1992REM DISCID 6D09CC0AREM COMMENT "ExactAudioCopy v1.0b3"CATALOG 0000000000000PERFORMER "Stamatris Spanoudakis"TITLE "Thalassa"FILE "01_Whistling.wav" WAVE TRACK 01 AUDIO TITLE "Whistling" PERFORMER "Stamatris Spanoudakis" ISRC GRS019200160 INDEX 01 00:00:00 TRACK 02 AUDIO TITLE "In the Sea" PERFORMER "Stamatris Spanoudakis" ISRC GRS019200161 INDEX 00 04:31:32FILE "02_In_the_Sea.wav" WAVE INDEX 01 00:00:00 TRACK 03 AUDIO TITLE "Summer" PERFORMER "Stamatris Spanoudakis" ISRC GRS019200162 INDEX 00 02:34:50FILE "03_Summer.wav" WAVE INDEX 01 00:00:00 TRACK 04 AUDIO TITLE "Shamana" PERFORMER "Stamatris Spanoudakis" ISRC GRS019200163 INDEX 00 02:46:13FILE "04_Shamana.wav" WAVE INDEX 01 00:00:00 TRACK 05 AUDIO TITLE "Tempest" PERFORMER "Stamatris Spanoudakis" ISRC GRS019200164 INDEX 00 04:58:07FILE "05_Tempest.wav" WAVE INDEX 01 00:00:00 TRACK 06 AUDIO TITLE "Night" PERFORMER "Stamatris Spanoudakis" ISRC GRS019200165 INDEX 00 05:48:10FILE "06_Night.wav" WAVE INDEX 01 00:00:00 TRACK 07 AUDIO TITLE "Ni Chaud Ni Froid" PERFORMER "Stamatris Spanoudakis" ISRC GRS019200166 INDEX 00 01:42:40FILE "07_Ni_Chaud_Ni_Froid.wav" WAVE INDEX 01 00:00:00 TRACK 08 AUDIO TITLE "An Island" PERFORMER "Stamatris Spanoudakis" ISRC GRS019200167 INDEX 00 03:38:60FILE "08_An_Island.wav" WAVE INDEX 01 00:00:00 TRACK 09 AUDIO TITLE "Highlands" PERFORMER "Stamatris Spanoudakis" ISRC GRS019200168 INDEX 00 04:40:18FILE "09_Highlands.wav" WAVE INDEX 01 00:00:00 TRACK 10 AUDIO TITLE "Thalassa" PERFORMER "Stamatris Spanoudakis" ISRC GRS019200169 INDEX 00 04:31:52FILE "10_Thalassa.wav" WAVE INDEX 01 00:00:00
2002 - Earini Ora (Holy Hour) (With Vassilis Saleas & Lefteris Zervas) (2002 Re-release) Продолжительность: 00:49:58
01. Kyrie Eleison - (04:19)
02. Anymnoumen Loge - (04:19)
03. Idou O Nymfios Erhete - (07:21)
04. Ores Anatolis - (01:38)
05. I Zoi En Tafo - (05:12)
06. Earini Ora - (02:39)
07. Evlogi I Psihi Mou Ton Kyrion - (04:42)
08. Logos Dilinou - (03:41)
09. Orthros - (04:33)
10. O, Glyki Mou Ear - (07:28)
11. Christos Anesti - (04:06)

Лог создания рипа

Exact Audio Copy V1.0 beta 3 from 29. August 2011
EAC extraction logfile from 6. December 2013, 14:54
Stamatis Spanoudakis / Earini Ora
Used drive : TSSTcorpCDDVDW SH-S222A Adapter: 0 ID: 0
Read mode : SecureUtilize accurate stream : YesDefeat audio cache : YesMake use of C2 pointers : No
Read offset correction : 6Overread into Lead-In and Lead-Out : NoFill up missing offset samples with silence : YesDelete leading and trailing silent blocks : NoNull samples used in CRC calculations : YesUsed interface : Native Win32 interface for Win NT & 2000Gap handling : Appended to previous track
Used output format : User Defined EncoderSelected bitrate : 1024 kBit/sQuality : HighAdd ID3 tag : NoCommand line compressor : C:\Program Files (x86)\FLAC\flac.exeAdditional command line options : -8 -V -T "ARTIST=%artist%" -T "TITLE=%title%" -T "ALBUM=%albumtitle%" -T "DATE=%year%" -T "TRACKNUMBER=%tracknr%" -T "GENRE=%genre%" -T "PERFORMER=%albuminterpret%" -T "COMPOSER=%composer%" %haslyrics%--tag-from-file=LYRICS="%lyricsfile%"%haslyrics% -T "ALBUMARTIST=%albumartist%" -T "DISCNUMBER=%cdnumber%" -T "TOTALDISCS=%totalcds%" -T "TOTALTRACKS=%numtracks%" -T "COMMENT=%comment%" %source% -o %dest%
TOC of the extracted CD
Track | Start | Length | Start sector | End sector --------------------------------------------------------- 1 | 0:00.00 | 4:18.18 | 0 | 19367 2 | 4:18.18 | 4:19.01 | 19368 | 38793 3 | 8:37.19 | 7:20.44 | 38794 | 71837 4 | 15:57.63 | 1:38.11 | 71838 | 79198 5 | 17:35.74 | 5:11.40 | 79199 | 102563 6 | 22:47.39 | 2:39.15 | 102564 | 114503 7 | 25:26.54 | 4:41.44 | 114504 | 135622 8 | 30:08.23 | 3:40.31 | 135623 | 152153 9 | 33:48.54 | 4:32.41 | 152154 | 172594 10 | 38:21.20 | 7:27.73 | 172595 | 206192 11 | 45:49.18 | 4:05.37 | 206193 | 224604
Track 1
Filename C:\Temp\01 - Kyrie Eleison.wav
Pre-gap length 0:00:02.00
Peak level 83.5 % Extraction speed 2.1 X Track quality 100.0 % Test CRC 91AF066F Copy CRC 91AF066F Track not present in AccurateRip database Copy OK
Track 2
Filename C:\Temp\02 - Anymnoumen Loge.wav
Peak level 71.4 % Extraction speed 2.1 X Track quality 100.0 % Test CRC 03B40BDC Copy CRC 03B40BDC Track not present in AccurateRip database Copy OK
Track 3
Filename C:\Temp\03 - Idou O Nymfios Erhete.wav
Peak level 77.2 % Extraction speed 2.2 X Track quality 100.0 % Test CRC 95C1A5A0 Copy CRC 95C1A5A0 Track not present in AccurateRip database Copy OK
Track 4
Filename C:\Temp\04 - Ores Anatolis.wav
Peak level 64.3 % Extraction speed 1.7 X Track quality 100.0 % Test CRC 72891279 Copy CRC 72891279 Track not present in AccurateRip database Copy OK
Track 5
Filename C:\Temp\05 - I Zoi En Tafo.wav
Peak level 87.6 % Extraction speed 2.2 X Track quality 100.0 % Test CRC 5EC4740A Copy CRC 5EC4740A Track not present in AccurateRip database Copy OK
Track 6
Filename C:\Temp\06 - Earini Ora.wav
Peak level 62.1 % Extraction speed 1.9 X Track quality 100.0 % Test CRC 25F12D1D Copy CRC 25F12D1D Track not present in AccurateRip database Copy OK
Track 7
Filename C:\Temp\07 - Evlogi I Psihi Mou Ton Kyrion.wav
Peak level 65.8 % Extraction speed 2.1 X Track quality 100.0 % Test CRC B05BD0EA Copy CRC B05BD0EA Track not present in AccurateRip database Copy OK
Track 8
Filename C:\Temp\08 - Logos Dilinou.wav
Peak level 63.5 % Extraction speed 1.8 X Track quality 99.9 % Test CRC 062561CD Copy CRC 062561CD Track not present in AccurateRip database Copy OK
Track 9
Filename C:\Temp\09 - Orthros.wav
Peak level 76.3 % Extraction speed 1.9 X Track quality 99.9 % Test CRC 15B0C184 Copy CRC 15B0C184 Track not present in AccurateRip database Copy OK
Track 10
Filename C:\Temp\10 - O, Glyky Mou Ear.wav
Peak level 73.0 % Extraction speed 2.2 X Track quality 100.0 % Test CRC 50CAF41B Copy CRC 50CAF41B Track not present in AccurateRip database Copy OK
Track 11
Filename C:\Temp\11 - Hristos Anesti.wav
Peak level 84.6 % Extraction speed 2.1 X Track quality 100.0 % Test CRC 2D5135CC Copy CRC 2D5135CC Track not present in AccurateRip database Copy OK
None of the tracks are present in the AccurateRip database
No errors occurred
End of status report
---- CUETools DB Plugin V2.1.3
[CTDB TOCID: GQ80YuS6EAqV1s.ypiS2Mec7gJY-] disk not present in database, Submit result: GQ80YuS6EAqV1s.ypiS2Mec7gJY- has been uploaded
==== Log checksum 40AB2784041EB5B63E50C5D00617067AB72AE51EECA2150BCB5C1DFC6D1D97B4 ====

Содержание индексной карты (.CUE)

REM DATE 2002REM DISCID 860BB20BREM COMMENT "ExactAudioCopy v1.0b3"PERFORMER "Stamatis Spanoudakis"TITLE "Earini Ora"FILE "01 - Kyrie Eleison.wav" WAVE TRACK 01 AUDIO TITLE "Kyrie Eleison" PERFORMER "Stamatis Spanoudakis" INDEX 01 00:00:00FILE "02 - Anymnoumen Loge.wav" WAVE TRACK 02 AUDIO TITLE "Anymnoumen Loge" PERFORMER "Stamatis Spanoudakis" INDEX 01 00:00:00FILE "03 - Idou O Nymfios Erhete.wav" WAVE TRACK 03 AUDIO TITLE "Idou O Nymfios Erhete" PERFORMER "Stamatis Spanoudakis" INDEX 01 00:00:00FILE "04 - Ores Anatolis.wav" WAVE TRACK 04 AUDIO TITLE "Ores Anatolis" PERFORMER "Stamatis Spanoudakis" INDEX 01 00:00:00FILE "05 - I Zoi En Tafo.wav" WAVE TRACK 05 AUDIO TITLE "I Zoi En Tafo" PERFORMER "Stamatis Spanoudakis" INDEX 01 00:00:00FILE "06 - Earini Ora.wav" WAVE TRACK 06 AUDIO TITLE "Earini Ora" PERFORMER "Stamatis Spanoudakis" INDEX 01 00:00:00FILE "07 - Evlogi I Psihi Mou Ton Kyrion.wav" WAVE TRACK 07 AUDIO TITLE "Evlogi I Psihi Mou Ton Kyrion" PERFORMER "Stamatis Spanoudakis" INDEX 01 00:00:00FILE "08 - Logos Dilinou.wav" WAVE TRACK 08 AUDIO TITLE "Logos Dilinou" PERFORMER "Stamatis Spanoudakis" INDEX 01 00:00:00FILE "09 - Orthros.wav" WAVE TRACK 09 AUDIO TITLE "Orthros" PERFORMER "Stamatis Spanoudakis" INDEX 01 00:00:00FILE "10 - O, Glyky Mou Ear.wav" WAVE TRACK 10 AUDIO TITLE "O, Glyky Mou Ear" PERFORMER "Stamatis Spanoudakis" INDEX 01 00:00:00FILE "11 - Hristos Anesti.wav" WAVE TRACK 11 AUDIO TITLE "Hristos Anesti" PERFORMER "Stamatis Spanoudakis" INDEX 01 00:00:00
1994 - Alexandros (The Myth Of The East, The Dream Of The West) (With Vassilis Saleas, Lefteris Zervas & Antonis Apergis) (1998 Expanded Edition) Продолжительность: 00:59:29
01. Isagogi (Introduction) - (02:46)
02. Stin Avli Tou Vasilia (At The King's Court) - (03:44)
03. Ifestion (Hefestion) - (04:15)
04. O Horos Ton Aspidon (Dance Of The Shields) - (03:11)
05. Zei O Vasilias Alexandros (Is King Alexander Alive?) - (03:22)
06. Another Way - (04:03)
07. Polemos (War) - (03:09)
08. I Monaxia Tou Vasilia (The Lonely King) - (02:55)
09. Gialini Thalassa (Sea Of Glass) - (03:16)
10. Kataktisis (Conquests) - (02:45)
11. Stratiotes Giro Apo Tin Fotia (Soldiers By The Fire) - (03:01)
12. Alexandria - (04:27)
13. The Mermaid & The Piano - (02:24)
14. Meditation - (02:36)
15. Boukefalas (Voukephalos) - (03:13)
16. Ale - Iskandar - (03:27)
17. Otan Tha'ste Eftihismeni (When You Will Be Truly Happy) - (04:10)
18. Zi Ke Vasilevi (He Lives And He Reigns) - (02:45)

Лог создания рипа

Exact Audio Copy V0.99 prebeta 3 from 28. July 2007
EAC extraction logfile from 9. November 2009, 22:54
Stamatis Spanoudakis / Alexandros (The Myth Of The East, The Dream Of The West)(1998 Expanded Edition)
Used drive : HL-DT-STDVDRAM GSA-H10A Adapter: 0 ID: 0
Read mode : SecureUtilize accurate stream : YesDefeat audio cache : YesMake use of C2 pointers : No
Read offset correction : 667Overread into Lead-In and Lead-Out : NoFill up missing offset samples with silence : YesDelete leading and trailing silent blocks : NoNull samples used in CRC calculations : YesUsed interface : Installed external ASPI interfaceGap handling : Appended to previous track
Used output format : User Defined EncoderSelected bitrate : 128 kBit/sQuality : HighAdd ID3 tag : NoCommand line compressor : C:\Programs\FLAC\flac.exeAdditional command line options : -V -8 -T "artist=%a" -T "title=%t" -T "album=%g" -T "date=%y" -T "tracknumber=%n" -T "genre=%m" %s
TOC of the extracted CD
Track | Start | Length | Start sector | End sector --------------------------------------------------------- 1 | 0:00.00 | 2:46.03 | 0 | 12452 2 | 2:46.03 | 3:43.67 | 12453 | 29244 3 | 6:29.70 | 4:14.23 | 29245 | 48317 4 | 10:44.18 | 3:10.22 | 48318 | 62589 5 | 13:54.40 | 3:22.08 | 62590 | 77747 6 | 17:16.48 | 4:02.35 | 77748 | 95932 7 | 21:19.08 | 3:08.67 | 95933 | 110099 8 | 24:28.00 | 2:54.63 | 110100 | 123212 9 | 27:22.63 | 3:15.35 | 123213 | 137872 10 | 30:38.23 | 2:44.27 | 137873 | 150199 11 | 33:22.50 | 3:00.55 | 150200 | 163754 12 | 36:23.30 | 4:26.65 | 163755 | 183769 13 | 40:50.20 | 2:23.40 | 183770 | 194534 14 | 43:13.60 | 2:36.13 | 194535 | 206247 15 | 45:49.73 | 3:13.00 | 206248 | 220722 16 | 49:02.73 | 3:27.08 | 220723 | 236255 17 | 52:30.06 | 4:09.72 | 236256 | 255002 18 | 56:40.03 | 2:44.30 | 255003 | 267332
Track 1
Filename C:\Temp\01 - Introduction.wav
Pre-gap length 0:00:02.00
Peak level 69.9 % Track quality 99.9 % Test CRC 4715EF2D Copy CRC 4715EF2D Accurately ripped (confidence 1) [577D2DEE] Copy OK
Track 2
Filename C:\Temp\02 - At The King's Court.wav
Peak level 100.0 % Track quality 100.0 % Test CRC 0DDFB03E Copy CRC 0DDFB03E Accurately ripped (confidence 1) [B3FF7824] Copy OK
Track 3
Filename C:\Temp\03 - Hefestion.wav
Peak level 98.9 % Track quality 100.0 % Test CRC AE86F152 Copy CRC AE86F152 Accurately ripped (confidence 1) [276A1CCF] Copy OK
Track 4
Filename C:\Temp\04 - Dance Of The Shields.wav
Peak level 88.7 % Track quality 99.9 % Test CRC B07F22EA Copy CRC B07F22EA Accurately ripped (confidence 1) [27E6AC7E] Copy OK
Track 5
Filename C:\Temp\05 - Is King Alexander Alive .wav
Peak level 80.4 % Track quality 100.0 % Test CRC D958DE04 Copy CRC D958DE04 Accurately ripped (confidence 1) [46CA64F6] Copy OK
Track 6
Filename C:\Temp\06 - Another Way.wav
Peak level 94.4 % Track quality 100.0 % Test CRC 98731B6D Copy CRC 98731B6D Accurately ripped (confidence 1) [D89721BA] Copy OK
Track 7
Filename C:\Temp\07 - War.wav
Peak level 97.2 % Track quality 100.0 % Test CRC 63593F83 Copy CRC 63593F83 Accurately ripped (confidence 1) [45807B34] Copy OK
Track 8
Filename C:\Temp\08 - The Lonely King.wav
Peak level 72.0 % Track quality 100.0 % Test CRC 82854F7B Copy CRC 82854F7B Accurately ripped (confidence 1) [FC583DF0] Copy OK
Track 9
Filename C:\Temp\09 - Sea Of Glass.wav
Peak level 85.0 % Track quality 100.0 % Test CRC 499077BC Copy CRC 499077BC Accurately ripped (confidence 1) [E7C59109] Copy OK
Track 10
Filename C:\Temp\10 - Conquests.wav
Peak level 85.8 % Track quality 99.9 % Test CRC 9815099B Copy CRC 9815099B Accurately ripped (confidence 1) [16813C59] Copy OK
Track 11
Filename C:\Temp\11 - Soldiers By The Fire.wav
Peak level 92.9 % Track quality 100.0 % Test CRC D4264C95 Copy CRC D4264C95 Accurately ripped (confidence 1) [12B6353C] Copy OK
Track 12
Filename C:\Temp\12 - Alexandria.wav
Peak level 91.0 % Track quality 100.0 % Test CRC 139F6CC0 Copy CRC 139F6CC0 Accurately ripped (confidence 1) [174D0611] Copy OK
Track 13
Filename C:\Temp\13 - The Mermaid & The Piano.wav
Peak level 67.0 % Track quality 100.0 % Test CRC CC552722 Copy CRC CC552722 Accurately ripped (confidence 1) [D476CF9B] Copy OK
Track 14
Filename C:\Temp\14 - Meditation.wav
Peak level 76.4 % Track quality 100.0 % Test CRC 7A5C75DC Copy CRC 7A5C75DC Accurately ripped (confidence 1) [0CA4697C] Copy OK
Track 15
Filename C:\Temp\15 - Voukephalos.wav
Peak level 89.5 % Track quality 100.0 % Test CRC 7EB0FEC4 Copy CRC 7EB0FEC4 Accurately ripped (confidence 1) [F3669795] Copy OK
Track 16
Filename C:\Temp\16 - Ale Iskandar.wav
Peak level 96.3 % Track quality 100.0 % Test CRC 4557911E Copy CRC 4557911E Accurately ripped (confidence 1) [F48CD043] Copy OK
Track 17
Filename C:\Temp\17 - ''When You Will Be Truly Happy''.wav
Peak level 92.1 % Track quality 100.0 % Test CRC D650CC42 Copy CRC D650CC42 Accurately ripped (confidence 1) [FA756EBC] Copy OK
Track 18
Filename C:\Temp\18 - He Lives & He Reigns.wav
Peak level 86.3 % Track quality 99.9 % Test CRC 41CB7C10 Copy CRC 41CB7C10 Accurately ripped (confidence 1) [E7CDBFED] Copy OK
All tracks accurately ripped
No errors occurred
End of status report

Содержание индексной карты (.CUE)

REM DATE 1994REM DISCID ED0DEC12REM COMMENT "ExactAudioCopy v0.99pb3"PERFORMER "Stamatis Spanoudakis"TITLE "Alexandros (The Myth Of The East, The Dream Of The West)(1998 Expanded Edition)"FILE "01 - Introduction.wav" WAVE TRACK 01 AUDIO TITLE "Introduction" PERFORMER "Stamatis Spanoudakis" INDEX 01 00:00:00FILE "02 - At The King's Court.wav" WAVE TRACK 02 AUDIO TITLE "At The King's Court" PERFORMER "Stamatis Spanoudakis" INDEX 01 00:00:00FILE "03 - Hefestion.wav" WAVE TRACK 03 AUDIO TITLE "Hefestion" PERFORMER "Stamatis Spanoudakis" INDEX 01 00:00:00FILE "04 - Dance Of The Shields.wav" WAVE TRACK 04 AUDIO TITLE "Dance Of The Shields" PERFORMER "Stamatis Spanoudakis" INDEX 01 00:00:00FILE "05 - Is King Alexander Alive .wav" WAVE TRACK 05 AUDIO TITLE "Is King Alexander Alive?" PERFORMER "Stamatis Spanoudakis" INDEX 01 00:00:00FILE "06 - Another Way.wav" WAVE TRACK 06 AUDIO TITLE "Another Way" PERFORMER "Stamatis Spanoudakis" INDEX 01 00:00:00FILE "07 - War.wav" WAVE TRACK 07 AUDIO TITLE "War" PERFORMER "Stamatis Spanoudakis" INDEX 01 00:00:00FILE "08 - The Lonely King.wav" WAVE TRACK 08 AUDIO TITLE "The Lonely King" PERFORMER "Stamatis Spanoudakis" INDEX 01 00:00:00FILE "09 - Sea Of Glass.wav" WAVE TRACK 09 AUDIO TITLE "Sea Of Glass" PERFORMER "Stamatis Spanoudakis" INDEX 01 00:00:00FILE "10 - Conquests.wav" WAVE TRACK 10 AUDIO TITLE "Conquests" PERFORMER "Stamatis Spanoudakis" INDEX 01 00:00:00FILE "11 - Soldiers By The Fire.wav" WAVE TRACK 11 AUDIO TITLE "Soldiers By The Fire" PERFORMER "Stamatis Spanoudakis" INDEX 01 00:00:00FILE "12 - Alexandria.wav" WAVE TRACK 12 AUDIO TITLE "Alexandria" PERFORMER "Stamatis Spanoudakis" INDEX 01 00:00:00FILE "13 - The Mermaid & The Piano.wav" WAVE TRACK 13 AUDIO TITLE "The Mermaid & The Piano" PERFORMER "Stamatis Spanoudakis" INDEX 01 00:00:00FILE "14 - Meditation.wav" WAVE TRACK 14 AUDIO TITLE "Meditation" PERFORMER "Stamatis Spanoudakis" INDEX 01 00:00:00FILE "15 - Voukephalos.wav" WAVE TRACK 15 AUDIO TITLE "Voukephalos" PERFORMER "Stamatis Spanoudakis" INDEX 01 00:00:00FILE "16 - Ale Iskandar.wav" WAVE TRACK 16 AUDIO TITLE "Ale Iskandar" PERFORMER "Stamatis Spanoudakis" INDEX 01 00:00:00FILE "17 - ''When You Will Be Truly Happy''.wav" WAVE TRACK 17 AUDIO TITLE "''When You Will Be Truly Happy''" PERFORMER "Stamatis Spanoudakis" INDEX 01 00:00:00FILE "18 - He Lives & He Reigns.wav" WAVE TRACK 18 AUDIO TITLE "He Lives & He Reigns" PERFORMER "Stamatis Spanoudakis" INDEX 01 00:00:00
1996 - To Dakri Tou Ioanni (St. John`s Tear) Продолжительность: 00:57:48
01. En Niso Ti Kaloumeni Patmo (In The Isle Of Patmos) - (01:42)
02. Brosta Ston Throno (Before The Throne) - (07:02)
03. Myriades Myriadon (Myriads Of Myriads) - (05:03)
04. To Heri Tou Angelou (The Hand Of The Angel) - (04:34)
05. To Klidi Tis Avissou (The Key To The Abyss) - (04:57)
06. O Logos Tis Ipomonis (Word Of Patience) - (05:18)
07. Kithares (Guitars) - (06:54)
08. I Perivevlimeni Ton Ilion (The Woman Clothed With The Sun) - (04:34)
09. Ne Amin Ke Ne (Amen And Yes) - (03:41)
10. To Dakri Tou Ioanni (St. John?s Tear) - (03:14)
11. Ourania Poli (Heavenly City) - (05:48)
12. S' Ena Kommati Gi Sti Mesogio (Piece Of Land In The Mediterranean) - (05:01)

Лог создания рипа

Exact Audio Copy V1.0 beta 3 from 29. August 2011
EAC extraction logfile from 24. April 2014, 21:03
Stamatis Spanoudakis / St. John's Tear
Used drive : Optiarc DVD RW AD-7280S Adapter: 0 ID: 0
Read mode : SecureUtilize accurate stream : YesDefeat audio cache : YesMake use of C2 pointers : No
Read offset correction : 48Overread into Lead-In and Lead-Out : NoFill up missing offset samples with silence : YesDelete leading and trailing silent blocks : NoNull samples used in CRC calculations : YesUsed interface : Installed external ASPI interfaceGap handling : Appended to previous track
Used output format : User Defined EncoderSelected bitrate : 768 kBit/sQuality : HighAdd ID3 tag : NoCommand line compressor : C:\Program Files (x86)\Exact Audio Copy\FLAC\FLAC.EXEAdditional command line options : -8 -V -T "ARTIST=%artist%" -T "TITLE=%title%" -T "ALBUM=%albumtitle%" -T "DATE=%year%" -T "TRACKNUMBER=%tracknr%" -T "GENRE=%genre%" -T "COMMENT=%comment%" -T "BAND=%albuminterpret%" -T "ALBUMARTIST=%albuminterpret%" -T "COMPOSER=%composer%" %haslyrics%--tag-from-file=LYRICS="%lyricsfile%"%haslyrics% -T "DISCNUMBER=%cdnumber%" -T "TOTALDISCS=%totalcds%" -T "TOTALTRACKS=%numtracks%" %hascover%--picture="%coverfile%"%hascover% %source% -o %dest%
TOC of the extracted CD
Track | Start | Length | Start sector | End sector --------------------------------------------------------- 1 | 0:00.00 | 1:41.47 | 0 | 7621 2 | 1:41.47 | 7:01.08 | 7622 | 39204 3 | 8:42.55 | 5:02.55 | 39205 | 61909 4 | 13:45.35 | 4:33.25 | 61910 | 82409 5 | 18:18.60 | 4:56.50 | 82410 | 104659 6 | 23:15.35 | 5:17.72 | 104660 | 128506 7 | 28:33.32 | 6:54.00 | 128507 | 159556 8 | 35:27.32 | 4:33.30 | 159557 | 180061 9 | 40:00.62 | 3:40.58 | 180062 | 196619 10 | 43:41.45 | 3:13.72 | 196620 | 211166 11 | 46:55.42 | 5:47.58 | 211167 | 237249 12 | 52:43.25 | 5:00.62 | 237250 | 259811
Track 1
Filename d:\rip\01_In_the_Isle_of_Patmos.wav
Pre-gap length 0:00:02.00
Peak level 29.6 % Extraction speed 1.9 X Track quality 100.0 % Test CRC 5FF9A723 Copy CRC 5FF9A723 Track not present in AccurateRip database Copy OK
Track 2
Filename d:\rip\02_Before_the_Throne.wav
Peak level 96.3 % Extraction speed 2.7 X Track quality 100.0 % Test CRC A5F566FC Copy CRC A5F566FC Track not present in AccurateRip database Copy OK
Track 3
Filename d:\rip\03_Myriads_of_Myriads.wav
Peak level 98.6 % Extraction speed 3.0 X Track quality 100.0 % Test CRC 852633C9 Copy CRC 852633C9 Track not present in AccurateRip database Copy OK
Track 4
Filename d:\rip\04_The_Hand_of_the_Angel.wav
Peak level 81.4 % Extraction speed 3.2 X Track quality 100.0 % Test CRC 34CE968A Copy CRC 34CE968A Track not present in AccurateRip database Copy OK
Track 5
Filename d:\rip\05_The_Key_to_the_Abyss.wav
Pre-gap length 0:00:01.18
Peak level 98.7 % Extraction speed 3.5 X Track quality 100.0 % Test CRC DCEF9FE7 Copy CRC DCEF9FE7 Track not present in AccurateRip database Copy OK
Track 6
Filename d:\rip\06_Word_of_Patience.wav
Peak level 91.2 % Extraction speed 3.8 X Track quality 100.0 % Test CRC 60B741D0 Copy CRC 60B741D0 Track not present in AccurateRip database Copy OK
Track 7
Filename d:\rip\07_Guitars.wav
Pre-gap length 0:00:02.12
Peak level 93.3 % Extraction speed 3.8 X Track quality 99.9 % Test CRC D076D5BE Copy CRC D076D5BE Track not present in AccurateRip database Copy OK
Track 8
Filename d:\rip\08_The_Woman_Clothed_with_the_Sun.wav
Peak level 96.4 % Extraction speed 4.2 X Track quality 100.0 % Test CRC A4B7E568 Copy CRC A4B7E568 Track not present in AccurateRip database Copy OK
Track 9
Filename d:\rip\09_Amen_And_Yes.wav
Peak level 92.4 % Extraction speed 3.7 X Track quality 99.9 % Test CRC A95E6439 Copy CRC A95E6439 Track not present in AccurateRip database Copy OK
Track 10
Filename d:\rip\10_St._John's_Tear.wav
Pre-gap length 0:00:01.05
Peak level 65.8 % Extraction speed 4.2 X Track quality 100.0 % Test CRC 5F750B4A Copy CRC 5F750B4A Track not present in AccurateRip database Copy OK
Track 11
Filename d:\rip\11_Heavenly_City.wav
Peak level 94.7 % Extraction speed 4.8 X Track quality 100.0 % Test CRC F18A7614 Copy CRC F18A7614 Track not present in AccurateRip database Copy OK
Track 12
Filename d:\rip\12_Piece_of_Land_in_the_Mediterranean.wav
Pre-gap length 0:00:03.66
Peak level 88.7 % Extraction speed 4.8 X Track quality 100.0 % Test CRC 0911761D Copy CRC 0911761D Track not present in AccurateRip database Copy OK
None of the tracks are present in the AccurateRip database
No errors occurred
End of status report
==== Log checksum 7C19B71CEC142C47A23D4FD40DCB60AA096858AAF201A1840F29C35F878295CA ====

Содержание индексной карты (.CUE)

REM GENRE ElectronicREM DATE 1996REM DISCID 8A0D880CREM COMMENT "ExactAudioCopy v1.0b3"CATALOG 0000000000000PERFORMER "Stamatis Spanoudakis"TITLE "St. John's Tear"FILE "01_In_the_Isle_of_Patmos.wav" WAVE TRACK 01 AUDIO TITLE "In the Isle of Patmos" PERFORMER "Stamatis Spanoudakis" INDEX 01 00:00:00FILE "02_Before_the_Throne.wav" WAVE TRACK 02 AUDIO TITLE "Before the Throne" PERFORMER "Stamatis Spanoudakis" INDEX 01 00:00:00FILE "03_Myriads_of_Myriads.wav" WAVE TRACK 03 AUDIO TITLE "Myriads of Myriads" PERFORMER "Stamatis Spanoudakis" INDEX 01 00:00:00FILE "04_The_Hand_of_the_Angel.wav" WAVE TRACK 04 AUDIO TITLE "The Hand of the Angel" PERFORMER "Stamatis Spanoudakis" INDEX 01 00:00:00 TRACK 05 AUDIO TITLE "The Key to the Abyss" PERFORMER "Stamatis Spanoudakis" INDEX 00 04:32:07FILE "05_The_Key_to_the_Abyss.wav" WAVE INDEX 01 00:00:00FILE "06_Word_of_Patience.wav" WAVE TRACK 06 AUDIO TITLE "Word of Patience" PERFORMER "Stamatis Spanoudakis" INDEX 01 00:00:00 TRACK 07 AUDIO TITLE "Guitars" PERFORMER "Stamatis Spanoudakis" INDEX 00 05:15:60FILE "07_Guitars.wav" WAVE INDEX 01 00:00:00FILE "08_The_Woman_Clothed_with_the_Sun.wav" WAVE TRACK 08 AUDIO TITLE "The Woman Clothed with the Sun" PERFORMER "Stamatis Spanoudakis" INDEX 01 00:00:00FILE "09_Amen_And_Yes.wav" WAVE TRACK 09 AUDIO TITLE "Amen And Yes" PERFORMER "Stamatis Spanoudakis" INDEX 01 00:00:00 TRACK 10 AUDIO TITLE "St. John's Tear" PERFORMER "Stamatis Spanoudakis" INDEX 00 03:39:53FILE "10_St._John's_Tear.wav" WAVE INDEX 01 00:00:00FILE "11_Heavenly_City.wav" WAVE TRACK 11 AUDIO TITLE "Heavenly City" PERFORMER "Stamatis Spanoudakis" INDEX 01 00:00:00 TRACK 12 AUDIO TITLE "Piece of Land in the Mediterranean" PERFORMER "Stamatis Spanoudakis" INDEX 00 05:43:67FILE "12_Piece_of_Land_in_the_Mediterranean.wav" WAVE INDEX 01 00:00:00
1998 - Marmaromenos Vasilias (Marble King) Продолжительность: 00:55:24
01. Pili Tou Paramythiou (Tales Gate) - (01:11)
02. Konstantinos Paleologos (Constantine Paleologos) - (04:08)
03. Poli Glykia (Gentle City) - (03:59)
04. Ta Matia Tis Dakrisan (Her Eyes Filled With Tears) - (04:07)
05. Ximerona Sta Tihi (Dawn At The Walls) - (04:32)
06. Mavri Triti (Black Tuesday) - (04:34)
07. Ealo I Poli (The City Has Fallen) - (05:27)
08. Tessera Vita (Four Betas) - (03:33)
09. Vrohero Dilino Ston Vosporo Rainy Dusk At Bosporos) - (04:58)
10. I Agapi Pou Den Gnorises (The Love You Never Knew) - (02:52)
11. Thrinos (Lamentation) - (04:00)
12. Tharthis San Astrapi (You`ll Come As A Lightning) - (04:37)
13. Marmaromenos Vasilias (Marble King) - (05:10)
14. Pili Tou Onirou (Dreams Gate) - (02:16)

Лог создания рипа

Exact Audio Copy V0.99 prebeta 3 from 28. July 2007
EAC extraction logfile from 9. November 2009, 23:37
Stamatis Spanoudakis / Marble King
Used drive : HL-DT-STDVDRAM GSA-H10A Adapter: 0 ID: 0
Read mode : SecureUtilize accurate stream : YesDefeat audio cache : YesMake use of C2 pointers : No
Read offset correction : 667Overread into Lead-In and Lead-Out : NoFill up missing offset samples with silence : YesDelete leading and trailing silent blocks : NoNull samples used in CRC calculations : YesUsed interface : Installed external ASPI interfaceGap handling : Appended to previous track
Used output format : User Defined EncoderSelected bitrate : 128 kBit/sQuality : HighAdd ID3 tag : NoCommand line compressor : C:\Programs\FLAC\flac.exeAdditional command line options : -V -8 -T "artist=%a" -T "title=%t" -T "album=%g" -T "date=%y" -T "tracknumber=%n" -T "genre=%m" %s
TOC of the extracted CD
Track | Start | Length | Start sector | End sector --------------------------------------------------------- 1 | 0:00.00 | 1:11.28 | 0 | 5352 2 | 1:11.28 | 4:08.07 | 5353 | 23959 3 | 5:19.35 | 3:58.63 | 23960 | 41872 4 | 9:18.23 | 4:06.22 | 41873 | 60344 5 | 13:24.45 | 4:31.18 | 60345 | 80687 6 | 17:55.63 | 4:34.00 | 80688 | 101237 7 | 22:29.63 | 5:26.32 | 101238 | 125719 8 | 27:56.20 | 3:32.28 | 125720 | 141647 9 | 31:28.48 | 4:57.22 | 141648 | 163944 10 | 36:25.70 | 2:52.18 | 163945 | 176862 11 | 39:18.13 | 3:59.25 | 176863 | 194812 12 | 43:17.38 | 4:36.50 | 194813 | 215562 13 | 47:54.13 | 5:09.60 | 215563 | 238797 14 | 53:03.73 | 2:15.47 | 238798 | 248969
Track 1
Filename C:\Temp\01 - Tatle's Gate.wav
Pre-gap length 0:00:02.00
Peak level 86.5 % Track quality 99.8 % Test CRC 08BEF16B Copy CRC 08BEF16B Accurately ripped (confidence 1) [9B72ACFB] Copy OK
Track 2
Filename C:\Temp\02 - Constantine Paleologos.wav
Peak level 92.9 % Track quality 100.0 % Test CRC A7192940 Copy CRC A7192940 Accurately ripped (confidence 1) [CAA51972] Copy OK
Track 3
Filename C:\Temp\03 - Gentle City.wav
Peak level 98.7 % Track quality 100.0 % Test CRC DB4AC170 Copy CRC DB4AC170 Accurately ripped (confidence 1) [74B42067] Copy OK
Track 4
Filename C:\Temp\04 - Her Eyes Filled With Tears.wav
Peak level 96.8 % Track quality 100.0 % Test CRC C89569B6 Copy CRC C89569B6 Accurately ripped (confidence 1) [2C8837A3] Copy OK
Track 5
Filename C:\Temp\05 - Dawn At The Walls.wav
Peak level 99.8 % Track quality 100.0 % Test CRC F3D5A903 Copy CRC F3D5A903 Accurately ripped (confidence 1) [9DA1C19E] Copy OK
Track 6
Filename C:\Temp\06 - Black Tuesday.wav
Peak level 93.0 % Track quality 100.0 % Test CRC FD73FDD3 Copy CRC FD73FDD3 Accurately ripped (confidence 1) [8ACFA145] Copy OK
Track 7
Filename C:\Temp\07 - The City Has Fallen.wav
Peak level 94.4 % Track quality 99.9 % Test CRC 670C310D Copy CRC 670C310D Accurately ripped (confidence 1) [3DBEA38B] Copy OK
Track 8
Filename C:\Temp\08 - Four Betas.wav
Peak level 96.2 % Track quality 100.0 % Test CRC 73A3BCC5 Copy CRC 73A3BCC5 Accurately ripped (confidence 1) [8D859CCA] Copy OK
Track 9
Filename C:\Temp\09 - Rainy Dusk At Bosporos.wav
Peak level 100.0 % Track quality 100.0 % Test CRC 799FF538 Copy CRC 799FF538 Accurately ripped (confidence 1) [0B0A26D0] Copy OK
Track 10
Filename C:\Temp\10 - The Love You Never Knew.wav
Peak level 90.6 % Track quality 100.0 % Test CRC 0BBEE968 Copy CRC 0BBEE968 Accurately ripped (confidence 1) [1B2FD858] Copy OK
Track 11
Filename C:\Temp\11 - Lamentation.wav
Peak level 98.3 % Track quality 100.0 % Test CRC F1F4F171 Copy CRC F1F4F171 Accurately ripped (confidence 1) [2CB5F894] Copy OK
Track 12
Filename C:\Temp\12 - You'll Come As A Lighting.wav
Peak level 96.0 % Track quality 100.0 % Test CRC 80A81081 Copy CRC 80A81081 Accurately ripped (confidence 1) [4B321773] Copy OK
Track 13
Filename C:\Temp\13 - Marble King.wav
Peak level 96.5 % Track quality 99.9 % Test CRC 67657B6C Copy CRC 67657B6C Accurately ripped (confidence 1) [8D439E53] Copy OK
Track 14
Filename C:\Temp\14 - Dream's Gate.wav
Peak level 74.6 % Track quality 100.0 % Test CRC CB486324 Copy CRC CB486324 Accurately ripped (confidence 1) [D7F02E37] Copy OK
All tracks accurately ripped
No errors occurred
End of status report

Содержание индексной карты (.CUE)

REM GENRE "New Age"REM DATE 1998REM DISCID CA0CF70EREM COMMENT "ExactAudioCopy v0.99pb3"PERFORMER "Stamatis Spanoudakis"TITLE "Marble King"FILE "01 - Tatle's Gate.wav" WAVE TRACK 01 AUDIO TITLE "Tatle's Gate" PERFORMER "Stamatis Spanoudakis" INDEX 01 00:00:00FILE "02 - Constantine Paleologos.wav" WAVE TRACK 02 AUDIO TITLE "Constantine Paleologos" PERFORMER "Stamatis Spanoudakis" INDEX 01 00:00:00FILE "03 - Gentle City.wav" WAVE TRACK 03 AUDIO TITLE "Gentle City" PERFORMER "Stamatis Spanoudakis" INDEX 01 00:00:00FILE "04 - Her Eyes Filled With Tears.wav" WAVE TRACK 04 AUDIO TITLE "Her Eyes Filled With Tears" PERFORMER "Stamatis Spanoudakis" INDEX 01 00:00:00FILE "05 - Dawn At The Walls.wav" WAVE TRACK 05 AUDIO TITLE "Dawn At The Walls" PERFORMER "Stamatis Spanoudakis" INDEX 01 00:00:00FILE "06 - Black Tuesday.wav" WAVE TRACK 06 AUDIO TITLE "Black Tuesday" PERFORMER "Stamatis Spanoudakis" INDEX 01 00:00:00FILE "07 - The City Has Fallen.wav" WAVE TRACK 07 AUDIO TITLE "The City Has Fallen" PERFORMER "Stamatis Spanoudakis" INDEX 01 00:00:00FILE "08 - Four Betas.wav" WAVE TRACK 08 AUDIO TITLE "Four Betas" PERFORMER "Stamatis Spanoudakis" INDEX 01 00:00:00FILE "09 - Rainy Dusk At Bosporos.wav" WAVE TRACK 09 AUDIO TITLE "Rainy Dusk At Bosporos" PERFORMER "Stamatis Spanoudakis" INDEX 01 00:00:00FILE "10 - The Love You Never Knew.wav" WAVE TRACK 10 AUDIO TITLE "The Love You Never Knew" PERFORMER "Stamatis Spanoudakis" INDEX 01 00:00:00FILE "11 - Lamentation.wav" WAVE TRACK 11 AUDIO TITLE "Lamentation" PERFORMER "Stamatis Spanoudakis" INDEX 01 00:00:00FILE "12 - You'll Come As A Lighting.wav" WAVE TRACK 12 AUDIO TITLE "You'll Come As A Lighting" PERFORMER "Stamatis Spanoudakis" INDEX 01 00:00:00FILE "13 - Marble King.wav" WAVE TRACK 13 AUDIO TITLE "Marble King" PERFORMER "Stamatis Spanoudakis" INDEX 01 00:00:00FILE "14 - Dream's Gate.wav" WAVE TRACK 14 AUDIO TITLE "Dream's Gate" PERFORMER "Stamatis Spanoudakis" INDEX 01 00:00:00
1999 - Hiliaenniakosiaenenindaennea (1999) Продолжительность: 00:45:14
01. Proangelos - (04:02)
02. 1999 - (04:49)
03. Mystikos Dipnos - (03:54)
04. I Parthenos Simeron - (04:02)
05. Evlogi I Psihi Mou Ton Kyrion - (03:07)
06. Epiklisi - (04:03)
07. Hiliaenniakosiaenenindaennea - (03:14)
08. Metania - (04:30)
09. Angeli Meta Pimenon - (03:50)
10. Apoihos - (03:07)
11. Christos Gennate - (02:27)
12. Haravgi - (04:09)

Лог создания рипа

Exact Audio Copy V1.0 beta 3 from 29. August 2011
EAC extraction logfile from 6. December 2013, 16:12
Stamatis Spanoudakis / Hiliaenniakosiaenenindaennea
Used drive : TSSTcorpCDDVDW SH-S222A Adapter: 0 ID: 0
Read mode : SecureUtilize accurate stream : YesDefeat audio cache : YesMake use of C2 pointers : No
Read offset correction : 6Overread into Lead-In and Lead-Out : NoFill up missing offset samples with silence : YesDelete leading and trailing silent blocks : NoNull samples used in CRC calculations : YesUsed interface : Native Win32 interface for Win NT & 2000Gap handling : Appended to previous track
Used output format : User Defined EncoderSelected bitrate : 1024 kBit/sQuality : HighAdd ID3 tag : NoCommand line compressor : C:\Program Files (x86)\FLAC\flac.exeAdditional command line options : -8 -V -T "ARTIST=%artist%" -T "TITLE=%title%" -T "ALBUM=%albumtitle%" -T "DATE=%year%" -T "TRACKNUMBER=%tracknr%" -T "GENRE=%genre%" -T "PERFORMER=%albuminterpret%" -T "COMPOSER=%composer%" %haslyrics%--tag-from-file=LYRICS="%lyricsfile%"%haslyrics% -T "ALBUMARTIST=%albumartist%" -T "DISCNUMBER=%cdnumber%" -T "TOTALDISCS=%totalcds%" -T "TOTALTRACKS=%numtracks%" -T "COMMENT=%comment%" %source% -o %dest%
TOC of the extracted CD
Track | Start | Length | Start sector | End sector --------------------------------------------------------- 1 | 0:00.00 | 4:01.52 | 0 | 18126 2 | 4:01.52 | 4:48.70 | 18127 | 39796 3 | 8:50.47 | 3:53.28 | 39797 | 57299 4 | 12:44.00 | 4:01.52 | 57300 | 75426 5 | 16:45.52 | 3:06.53 | 75427 | 89429 6 | 19:52.30 | 4:03.00 | 89430 | 107654 7 | 23:55.30 | 3:13.47 | 107655 | 122176 8 | 27:09.02 | 4:30.05 | 122177 | 142431 9 | 31:39.07 | 3:49.20 | 142432 | 159626 10 | 35:28.27 | 3:07.03 | 159627 | 173654 11 | 38:35.30 | 2:26.57 | 173655 | 184661 12 | 41:02.12 | 4:08.40 | 184662 | 203301
Track 1
Filename C:\Temp\01 - Proangelos.wav
Pre-gap length 0:00:02.00
Peak level 100.0 % Extraction speed 1.8 X Track quality 99.9 % Test CRC F9C9B856 Copy CRC F9C9B856 Cannot be verified as accurate (confidence 1) [1CEF9D4C], AccurateRip returned [2E767243] (AR v2) Copy OK
Track 2
Filename C:\Temp\02 - 1999.wav
Peak level 100.0 % Extraction speed 2.1 X Track quality 100.0 % Test CRC B17FA66E Copy CRC B17FA66E Cannot be verified as accurate (confidence 1) [F78CA1D0], AccurateRip returned [508D1DEA] (AR v2) Copy OK
Track 3
Filename C:\Temp\03 - Mistikos Dipnos.wav
Peak level 100.0 % Extraction speed 1.8 X Track quality 99.9 % Test CRC 4D5154A8 Copy CRC 4D5154A8 Cannot be verified as accurate (confidence 1) [F4A1BCA3], AccurateRip returned [6124FC3E] (AR v2) Copy OK
Track 4
Filename C:\Temp\04 - I Parthenos Simeron.wav
Peak level 99.9 % Extraction speed 1.8 X Track quality 99.9 % Test CRC 969086CF Copy CRC 969086CF Cannot be verified as accurate (confidence 1) [CC486D4B], AccurateRip returned [100C1545] (AR v2) Copy OK
Track 5
Filename C:\Temp\05 - Evlogi I Psihi Mou Ton Kyrion.wav
Peak level 100.0 % Extraction speed 2.0 X Track quality 100.0 % Test CRC 3411CB17 Copy CRC 3411CB17 Cannot be verified as accurate (confidence 1) [B49CC35D], AccurateRip returned [3D302272] (AR v2) Copy OK
Track 6
Filename C:\Temp\06 - Epiklisi.wav
Peak level 100.0 % Extraction speed 1.8 X Track quality 99.9 % Test CRC 52FB078C Copy CRC 52FB078C Cannot be verified as accurate (confidence 1) [D57A17ED], AccurateRip returned [468C8181] (AR v2) Copy OK
Track 7
Filename C:\Temp\07 - Hiliaenniakosiaenenindaennea.wav
Peak level 100.0 % Extraction speed 2.0 X Track quality 100.0 % Test CRC E13DDB4F Copy CRC E13DDB4F Cannot be verified as accurate (confidence 1) [2011C758], AccurateRip returned [1207121C] (AR v2) Copy OK
Track 8
Filename C:\Temp\08 - Metania.wav
Peak level 100.0 % Extraction speed 2.1 X Track quality 100.0 % Test CRC B3516467 Copy CRC B3516467 Cannot be verified as accurate (confidence 1) [0ADC0767], AccurateRip returned [7CB7EE92] (AR v2) Copy OK
Track 9
Filename C:\Temp\09 - Angeli Meta Poimenon.wav
Peak level 100.0 % Extraction speed 2.0 X Track quality 100.0 % Test CRC 6747E640 Copy CRC 6747E640 Cannot be verified as accurate (confidence 1) [B7CE3DD2], AccurateRip returned [6A03A2D9] (AR v2) Copy OK
Track 10
Filename C:\Temp\10 - Apoihos.wav
Peak level 100.0 % Extraction speed 2.0 X Track quality 100.0 % Test CRC 9DB13E0C Copy CRC 9DB13E0C Cannot be verified as accurate (confidence 1) [E66B2061], AccurateRip returned [2089D121] (AR v2) Copy OK
Track 11
Filename C:\Temp\11 - Hristos Genate.wav
Peak level 100.0 % Extraction speed 1.9 X Track quality 100.0 % Test CRC 67A01A48 Copy CRC 67A01A48 Cannot be verified as accurate (confidence 1) [5EF19FB5], AccurateRip returned [56DB85AB] (AR v2) Copy OK
Track 12
Filename C:\Temp\12 - Haravgi.wav
Peak level 100.0 % Extraction speed 2.1 X Track quality 100.0 % Test CRC 0EA526DA Copy CRC 0EA526DA Cannot be verified as accurate (confidence 1) [3440D797], AccurateRip returned [342165E3] (AR v2) Copy OK
No tracks could be verified as accurateYou may have a different pressing from the one(s) in the database
No errors occurred
End of status report
---- CUETools DB Plugin V2.1.3
[CTDB TOCID: saPRV7a96e0EPM1KptY7UPWQG60-] disk not present in database, Submit result: saPRV7a96e0EPM1KptY7UPWQG60- has been uploaded
==== Log checksum EEA8B37FDDEDDE7E3D6D0AD7A2F8E637118D07264EC196FB6A80B12A921FF559 ====

Содержание индексной карты (.CUE)

REM DATE 1999REM DISCID 870A960CREM COMMENT "ExactAudioCopy v1.0b3"PERFORMER "Stamatis Spanoudakis"TITLE "Hiliaenniakosiaenenindaennea"FILE "01 - Proangelos.wav" WAVE TRACK 01 AUDIO TITLE "Proangelos" PERFORMER "Stamatis Spanoudakis" ISRC 000000000000 INDEX 01 00:00:00FILE "02 - 1999.wav" WAVE TRACK 02 AUDIO TITLE "1999" PERFORMER "Stamatis Spanoudakis" ISRC 000000000000 INDEX 01 00:00:00FILE "03 - Mistikos Dipnos.wav" WAVE TRACK 03 AUDIO TITLE "Mistikos Dipnos" PERFORMER "Stamatis Spanoudakis" ISRC 000000000000 INDEX 01 00:00:00FILE "04 - I Parthenos Simeron.wav" WAVE TRACK 04 AUDIO TITLE "I Parthenos Simeron" PERFORMER "Stamatis Spanoudakis" ISRC 000000000000 INDEX 01 00:00:00FILE "05 - Evlogi I Psihi Mou Ton Kyrion.wav" WAVE TRACK 05 AUDIO TITLE "Evlogi I Psihi Mou Ton Kyrion" PERFORMER "Stamatis Spanoudakis" ISRC 000000000000 INDEX 01 00:00:00FILE "06 - Epiklisi.wav" WAVE TRACK 06 AUDIO TITLE "Epiklisi" PERFORMER "Stamatis Spanoudakis" ISRC 000000000000 INDEX 01 00:00:00FILE "07 - Hiliaenniakosiaenenindaennea.wav" WAVE TRACK 07 AUDIO TITLE "Hiliaenniakosiaenenindaennea" PERFORMER "Stamatis Spanoudakis" ISRC 000000000000 INDEX 01 00:00:00FILE "08 - Metania.wav" WAVE TRACK 08 AUDIO TITLE "Metania" PERFORMER "Stamatis Spanoudakis" ISRC 000000000000 INDEX 01 00:00:00FILE "09 - Angeli Meta Poimenon.wav" WAVE TRACK 09 AUDIO TITLE "Angeli Meta Poimenon" PERFORMER "Stamatis Spanoudakis" ISRC 000000000000 INDEX 01 00:00:00FILE "10 - Apoihos.wav" WAVE TRACK 10 AUDIO TITLE "Apoihos" PERFORMER "Stamatis Spanoudakis" ISRC 000000000000 INDEX 01 00:00:00FILE "11 - Hristos Genate.wav" WAVE TRACK 11 AUDIO TITLE "Hristos Genate" PERFORMER "Stamatis Spanoudakis" ISRC 000000000000 INDEX 01 00:00:00FILE "12 - Haravgi.wav" WAVE TRACK 12 AUDIO TITLE "Haravgi" PERFORMER "Stamatis Spanoudakis" ISRC 000000000000 INDEX 01 00:00:00
2001 - Gia Tin Smyrni (For Smyrni) Продолжительность: 00:51:24
01. Ihni Sto Homa (Traces In The Dust) - (03:46)
02. Horos Sto Fos Tou Fengariou (Dance In The Moonlight) - (02:18)
03. To Karavani (Caravan) - (03:57)
04. 27 Avgoustou (August 27Th) - (03:03)
05. S' Agapao Fonazo (Shouting I Love You) - (04:31)
06. To Enigma (The Riddle) - (04:53)
07. Saitan Asker - (03:25)
08. Gia Tin Smyrni (For Smyrni) - (04:07)
09. Mnimes (Memories) - (03:03)
10. Ithela (How I Wish) - (03:05)
11. Mikrasiatiko Dili (Sunset In Asia Minor) - (04:33)
12. Peripatos Sto Kai (Promenade On The Quai) - (03:00)
13. Mavros Kavalaris (The Black Horseman) - (03:57)
14. Namouna Gia Ligo Eki (Wish I Was There For A While) - (03:46)

Лог создания рипа

Exact Audio Copy V1.0 beta 3 from 29. August 2011
EAC extraction logfile from 24. April 2014, 19:51
Stamatis Spanoudakis / For Smyrni
Used drive : Optiarc DVD RW AD-7280S Adapter: 0 ID: 0
Read mode : SecureUtilize accurate stream : YesDefeat audio cache : YesMake use of C2 pointers : No
Read offset correction : 48Overread into Lead-In and Lead-Out : NoFill up missing offset samples with silence : YesDelete leading and trailing silent blocks : NoNull samples used in CRC calculations : YesUsed interface : Installed external ASPI interfaceGap handling : Appended to previous track
Used output format : User Defined EncoderSelected bitrate : 768 kBit/sQuality : HighAdd ID3 tag : NoCommand line compressor : C:\Program Files (x86)\Exact Audio Copy\FLAC\FLAC.EXEAdditional command line options : -8 -V -T "ARTIST=%artist%" -T "TITLE=%title%" -T "ALBUM=%albumtitle%" -T "DATE=%year%" -T "TRACKNUMBER=%tracknr%" -T "GENRE=%genre%" -T "COMMENT=%comment%" -T "BAND=%albuminterpret%" -T "ALBUMARTIST=%albuminterpret%" -T "COMPOSER=%composer%" %haslyrics%--tag-from-file=LYRICS="%lyricsfile%"%haslyrics% -T "DISCNUMBER=%cdnumber%" -T "TOTALDISCS=%totalcds%" -T "TOTALTRACKS=%numtracks%" %hascover%--picture="%coverfile%"%hascover% %source% -o %dest%
TOC of the extracted CD
Track | Start | Length | Start sector | End sector --------------------------------------------------------- 1 | 0:00.00 | 3:45.65 | 0 | 16939 2 | 3:45.65 | 2:17.65 | 16940 | 27279 3 | 6:03.55 | 3:57.10 | 27280 | 45064 4 | 10:00.65 | 3:02.37 | 45065 | 58751 5 | 13:03.27 | 4:31.00 | 58752 | 79076 6 | 17:34.27 | 4:52.60 | 79077 | 101036 7 | 22:27.12 | 3:24.68 | 101037 | 116404 8 | 25:52.05 | 4:06.62 | 116405 | 134916 9 | 29:58.67 | 3:02.48 | 134917 | 148614 10 | 33:01.40 | 3:04.35 | 148615 | 162449 11 | 36:06.00 | 4:32.45 | 162450 | 182894 12 | 40:38.45 | 3:00.22 | 182895 | 196416 13 | 43:38.67 | 3:57.18 | 196417 | 214209 14 | 47:36.10 | 3:45.40 | 214210 | 231124
Track 1
Filename d:\rip\01_Traces_in_the_Dust.wav
Pre-gap length 0:00:02.00
Peak level 99.9 % Extraction speed 2.5 X Track quality 100.0 % Test CRC 8D3CDDEE Copy CRC 8D3CDDEE Accurately ripped (confidence 2) [9B7200B6] (AR v1) Copy OK
Track 2
Filename d:\rip\02_Dance_in_the_Moonlight.wav
Peak level 100.0 % Extraction speed 2.4 X Track quality 100.0 % Test CRC 97127CF7 Copy CRC 97127CF7 Accurately ripped (confidence 2) [D6AC5F23] (AR v1) Copy OK
Track 3
Filename d:\rip\03_Caravan.wav
Pre-gap length 0:00:01.03
Peak level 99.9 % Extraction speed 2.9 X Track quality 100.0 % Test CRC 954F8A77 Copy CRC 954F8A77 Accurately ripped (confidence 2) [9CE1FE46] (AR v1) Copy OK
Track 4
Filename d:\rip\04_August_27th.wav
Pre-gap length 0:00:01.15
Peak level 99.9 % Extraction speed 2.9 X Track quality 100.0 % Test CRC 2CD6CA21 Copy CRC 2CD6CA21 Accurately ripped (confidence 2) [66644FFA] (AR v1) Copy OK
Track 5
Filename d:\rip\05_Shouting_I_Love_You.wav
Pre-gap length 0:00:01.05
Peak level 99.9 % Extraction speed 3.3 X Track quality 100.0 % Test CRC 28FD9EDB Copy CRC 28FD9EDB Accurately ripped (confidence 2) [168177B7] (AR v1) Copy OK
Track 6
Filename d:\rip\06_The_Riddle.wav
Peak level 99.9 % Extraction speed 3.2 X Track quality 99.9 % Test CRC EF7C37AF Copy CRC EF7C37AF Accurately ripped (confidence 2) [46B3AEA8] (AR v1) Copy OK
Track 7
Filename d:\rip\07_Saitan_Asker.wav
Peak level 100.0 % Extraction speed 3.6 X Track quality 100.0 % Test CRC DC2209EF Copy CRC DC2209EF Accurately ripped (confidence 2) [DB7650D1] (AR v1) Copy OK
Track 8
Filename d:\rip\08_For_Smyrni.wav
Peak level 100.0 % Extraction speed 3.9 X Track quality 100.0 % Test CRC 65A1697B Copy CRC 65A1697B Accurately ripped (confidence 2) [1A6C5B4D] (AR v1) Copy OK
Track 9
Filename d:\rip\09_Memories.wav
Peak level 99.9 % Extraction speed 3.9 X Track quality 100.0 % Test CRC 3943D008 Copy CRC 3943D008 Accurately ripped (confidence 2) [B37580BC] (AR v1) Copy OK
Track 10
Filename d:\rip\10_How_I_Wish.wav
Peak level 99.9 % Extraction speed 4.0 X Track quality 100.0 % Test CRC B3ED943A Copy CRC B3ED943A Accurately ripped (confidence 2) [CF604A19] (AR v1) Copy OK
Track 11
Filename d:\rip\11_Sunset_in_Asia_Minor.wav
Peak level 99.9 % Extraction speed 3.9 X Track quality 99.9 % Test CRC 9A3A2A57 Copy CRC 9A3A2A57 Accurately ripped (confidence 1) [6A91E557] (AR v1) Copy OK
Track 12
Filename d:\rip\12_Promenade_on_the_Quai.wav
Peak level 100.0 % Extraction speed 4.2 X Track quality 100.0 % Test CRC E1679E42 Copy CRC E1679E42 Accurately ripped (confidence 2) [E5A4C5E7] (AR v1) Copy OK
Track 13
Filename d:\rip\13_The_Black_Horseman.wav
Peak level 100.0 % Extraction speed 4.6 X Track quality 100.0 % Test CRC 6AEBA2C9 Copy CRC 6AEBA2C9 Accurately ripped (confidence 2) [659CE1AC] (AR v1) Copy OK
Track 14
Filename d:\rip\14_Wish_I_Was_There_for_a_While.wav
Pre-gap length 0:00:01.08
Peak level 100.0 % Extraction speed 4.7 X Track quality 100.0 % Test CRC A46B5FBF Copy CRC A46B5FBF Accurately ripped (confidence 1) [E7EB63AD] (AR v1) Copy OK
All tracks accurately ripped
No errors occurred
End of status report
==== Log checksum 23EAD2C622A9AF8A7E5610DD5029208B292931ADAAF6CD00E80ABF6BDE9C63E7 ====

Содержание индексной карты (.CUE)

REM GENRE ElectronicREM DATE 2001REM DISCID BD0C090EREM COMMENT "ExactAudioCopy v1.0b3"CATALOG 0000000003864PERFORMER "Stamatis Spanoudakis"TITLE "For Smyrni"FILE "01_Traces_in_the_Dust.wav" WAVE TRACK 01 AUDIO TITLE "Traces in the Dust" PERFORMER "Stamatis Spanoudakis" INDEX 01 00:00:00FILE "02_Dance_in_the_Moonlight.wav" WAVE TRACK 02 AUDIO TITLE "Dance in the Moonlight" PERFORMER "Stamatis Spanoudakis" INDEX 01 00:00:00 TRACK 03 AUDIO TITLE "Caravan" PERFORMER "Stamatis Spanoudakis" INDEX 00 02:16:62FILE "03_Caravan.wav" WAVE INDEX 01 00:00:00 TRACK 04 AUDIO TITLE "August 27th" PERFORMER "Stamatis Spanoudakis" INDEX 00 03:55:70FILE "04_August_27th.wav" WAVE INDEX 01 00:00:00 TRACK 05 AUDIO TITLE "Shouting I Love You" PERFORMER "Stamatis Spanoudakis" INDEX 00 03:01:32FILE "05_Shouting_I_Love_You.wav" WAVE INDEX 01 00:00:00FILE "06_The_Riddle.wav" WAVE TRACK 06 AUDIO TITLE "The Riddle" PERFORMER "Stamatis Spanoudakis" INDEX 01 00:00:00FILE "07_Saitan_Asker.wav" WAVE TRACK 07 AUDIO TITLE "Saitan Asker" PERFORMER "Stamatis Spanoudakis" INDEX 01 00:00:00FILE "08_For_Smyrni.wav" WAVE TRACK 08 AUDIO TITLE "For Smyrni" PERFORMER "Stamatis Spanoudakis" INDEX 01 00:00:00FILE "09_Memories.wav" WAVE TRACK 09 AUDIO TITLE "Memories" PERFORMER "Stamatis Spanoudakis" INDEX 01 00:00:00FILE "10_How_I_Wish.wav" WAVE TRACK 10 AUDIO TITLE "How I Wish" PERFORMER "Stamatis Spanoudakis" INDEX 01 00:00:00FILE "11_Sunset_in_Asia_Minor.wav" WAVE TRACK 11 AUDIO TITLE "Sunset in Asia Minor" PERFORMER "Stamatis Spanoudakis" INDEX 01 00:00:00FILE "12_Promenade_on_the_Quai.wav" WAVE TRACK 12 AUDIO TITLE "Promenade on the Quai" PERFORMER "Stamatis Spanoudakis" INDEX 01 00:00:00FILE "13_The_Black_Horseman.wav" WAVE TRACK 13 AUDIO TITLE "The Black Horseman" PERFORMER "Stamatis Spanoudakis" INDEX 01 00:00:00 TRACK 14 AUDIO TITLE "Wish I Was There for a While" PERFORMER "Stamatis Spanoudakis" INDEX 00 03:56:10FILE "14_Wish_I_Was_There_for_a_While.wav" WAVE INDEX 01 00:00:00
2011 - Thelo Name Panda Mazi Sou (Je Veux Toijours Etre Avec Toi) Продолжительность: 00:44:30
01. Dilino Ston Agio Theodoro (Dusk At Saint Theodore) - (04:39)
02. Thelo Name Panda Mazi Sou (Je Veux Toijours Etre Avec Toi) - (04:36)
03. Oniro Himerinis Niktos (A Winter Night`s Dream) - (03:21)
04. Pezondas Me Ta Kimata (Playing With Waves) - (03:53)
05. Mine (Stay) - (05:16)
06. S' Agapao (Je T`aime) - (05:01)
07. I Psihes Pou Mas Akoun (The Souls That Hear Us) - (04:52)
08. Monahi Perpatouses (You Walked Alone) - (04:21)
09. An Thes (Si Tu Veux) - (04:51)
10. Thelo (Je Veux) - (03:40)

Лог создания рипа

Exact Audio Copy V1.0 beta 3 from 29. August 2011
EAC extraction logfile from 19. September 2014, 11:08
Stamatis Spanoudakis / Je Veux Toujours Etre Avec Toi
Used drive : Optiarc DVD RW AD-7280S Adapter: 3 ID: 1
Read mode : SecureUtilize accurate stream : YesDefeat audio cache : YesMake use of C2 pointers : No
Read offset correction : 48Overread into Lead-In and Lead-Out : NoFill up missing offset samples with silence : YesDelete leading and trailing silent blocks : NoNull samples used in CRC calculations : YesUsed interface : Native Win32 interface for Win NT & 2000Gap handling : Appended to previous track
Used output format : User Defined EncoderSelected bitrate : 768 kBit/sQuality : HighAdd ID3 tag : NoCommand line compressor : C:\Program Files (x86)\Exact Audio Copy\FLAC\FLAC.EXEAdditional command line options : -8 -V -T "ARTIST=%artist%" -T "TITLE=%title%" -T "ALBUM=%albumtitle%" -T "DATE=%year%" -T "TRACKNUMBER=%tracknr%" -T "GENRE=%genre%" -T "COMMENT=%comment%" -T "BAND=%albuminterpret%" -T "ALBUMARTIST=%albuminterpret%" -T "COMPOSER=%composer%" %haslyrics%--tag-from-file=LYRICS="%lyricsfile%"%haslyrics% -T "DISCNUMBER=%cdnumber%" -T "TOTALDISCS=%totalcds%" -T "TOTALTRACKS=%numtracks%" %hascover%--picture="%coverfile%"%hascover% %source% -o %dest%
TOC of the extracted CD
Track | Start | Length | Start sector | End sector --------------------------------------------------------- 1 | 0:00.00 | 4:38.66 | 0 | 20915 2 | 4:38.66 | 4:35.58 | 20916 | 41598 3 | 9:14.49 | 3:21.21 | 41599 | 56694 4 | 12:35.70 | 3:52.49 | 56695 | 74143 5 | 16:28.44 | 5:15.42 | 74144 | 97810 6 | 21:44.11 | 5:00.35 | 97811 | 120345 7 | 26:44.46 | 4:52.20 | 120346 | 142265 8 | 31:36.66 | 4:21.11 | 142266 | 161851 9 | 35:58.02 | 4:51.05 | 161852 | 183681 10 | 40:49.07 | 3:39.51 | 183682 | 200157
Track 1
Filename d:\rip\01_Dusk_at_Saint_Theodore.wav
Pre-gap length 0:00:02.00
Peak level 98.3 % Extraction speed 2.2 X Track quality 99.9 % Test CRC 5801F5B8 Copy CRC 5801F5B8 Track not present in AccurateRip database Copy OK
Track 2
Filename d:\rip\02_Je_Veux_Toujours_Etre_Avec_Toi.wav
Peak level 100.0 % Extraction speed 2.7 X Track quality 100.0 % Test CRC 08667AAD Copy CRC 08667AAD Track not present in AccurateRip database Copy OK
Track 3
Filename d:\rip\03_A_Winter_Night's_Dream.wav
Peak level 97.7 % Extraction speed 2.8 X Track quality 100.0 % Test CRC FFD5F7B8 Copy CRC FFD5F7B8 Track not present in AccurateRip database Copy OK
Track 4
Filename d:\rip\04_Playing_with_Waves.wav
Peak level 99.4 % Extraction speed 3.1 X Track quality 100.0 % Test CRC 88BE1B87 Copy CRC 88BE1B87 Track not present in AccurateRip database Copy OK
Track 5
Filename d:\rip\05_Stay.wav
Peak level 100.0 % Extraction speed 3.5 X Track quality 100.0 % Test CRC 47BD6B1D Copy CRC 47BD6B1D Track not present in AccurateRip database Copy OK
Track 6
Filename d:\rip\06_Je_T'aime.wav
Peak level 89.1 % Extraction speed 3.4 X Track quality 99.9 % Test CRC DF101218 Copy CRC DF101218 Track not present in AccurateRip database Copy OK
Track 7
Filename d:\rip\07_The_Souls_that_Hear_Us.wav
Peak level 98.6 % Extraction speed 4.0 X Track quality 100.0 % Test CRC B0B90E54 Copy CRC B0B90E54 Track not present in AccurateRip database Copy OK
Track 8
Filename d:\rip\08_You_Walked_Alone.wav
Peak level 99.8 % Extraction speed 4.1 X Track quality 100.0 % Test CRC EC62D0FF Copy CRC EC62D0FF Track not present in AccurateRip database Copy OK
Track 9
Filename d:\rip\09_Si_Tu_Veux.wav
Peak level 98.5 % Extraction speed 4.4 X Track quality 100.0 % Test CRC 76A4A852 Copy CRC 76A4A852 Track not present in AccurateRip database Copy OK
Track 10
Filename d:\rip\10_Je_Veux.wav
Peak level 99.3 % Extraction speed 4.3 X Track quality 100.0 % Test CRC B555361A Copy CRC B555361A Track not present in AccurateRip database Copy OK
None of the tracks are present in the AccurateRip database
No errors occurred
End of status report
==== Log checksum 8AEC54F9D004EE63F9FE2E782AB3692CD0EE195AE8197AB1884AF4CCEBCB4F0F ====

Содержание индексной карты (.CUE)

REM GENRE "New Age"REM DATE 2011REM DISCID 870A6C0AREM COMMENT "ExactAudioCopy v1.0b3"PERFORMER "Stamatis Spanoudakis"TITLE "Je Veux Toujours Etre Avec Toi"FILE "01_Dusk_at_Saint_Theodore.wav" WAVE TRACK 01 AUDIO TITLE "Dusk at Saint Theodore" PERFORMER "Stamatis Spanoudakis" INDEX 01 00:00:00FILE "02_Je_Veux_Toujours_Etre_Avec_Toi.wav" WAVE TRACK 02 AUDIO TITLE "Je Veux Toujours Etre Avec Toi" PERFORMER "Stamatis Spanoudakis" INDEX 01 00:00:00FILE "03_A_Winter_Night's_Dream.wav" WAVE TRACK 03 AUDIO TITLE "A Winter Night's Dream" PERFORMER "Stamatis Spanoudakis" INDEX 01 00:00:00FILE "04_Playing_with_Waves.wav" WAVE TRACK 04 AUDIO TITLE "Playing with Waves" PERFORMER "Stamatis Spanoudakis" INDEX 01 00:00:00FILE "05_Stay.wav" WAVE TRACK 05 AUDIO TITLE "Stay" PERFORMER "Stamatis Spanoudakis" INDEX 01 00:00:00FILE "06_Je_T'aime.wav" WAVE TRACK 06 AUDIO TITLE "Je T'aime" PERFORMER "Stamatis Spanoudakis" INDEX 01 00:00:00FILE "07_The_Souls_that_Hear_Us.wav" WAVE TRACK 07 AUDIO TITLE "The Souls that Hear Us" PERFORMER "Stamatis Spanoudakis" INDEX 01 00:00:00FILE "08_You_Walked_Alone.wav" WAVE TRACK 08 AUDIO TITLE "You Walked Alone" PERFORMER "Stamatis Spanoudakis" INDEX 01 00:00:00FILE "09_Si_Tu_Veux.wav" WAVE TRACK 09 AUDIO TITLE "Si Tu Veux" PERFORMER "Stamatis Spanoudakis" INDEX 01 00:00:00FILE "10_Je_Veux.wav" WAVE TRACK 10 AUDIO TITLE "Je Veux" PERFORMER "Stamatis Spanoudakis" INDEX 01 00:00:00

[doutdess.info].t81110.torrent
Torrent: Registered [ 2015-10-05 00:30 ] · 785B72FF415E516190EC822F40023BB622305573

75 KB

Status: checked
Completed: 2 times
Size: 6.13 GB
(New Age) [CD] Stamatis Spanoudakis - Коллекция (10 Albums, 4 Soundtracks, 3 Live, 3 Compilations) (23CD) - 1985-2014, FLAC (tracks+.cue, image+.cue), lossless скачать торрент бесплатно и без регистрации

[Profile] [PM]
Forum Topic Author Size
NewAge & Meditative lossless (New Age) Al Gromer Khan & Emin Corrado - Tantra Electronica - 2004, FLAC (tracks+.cue), lossless RelizMAN 284 MB
NewAge & Meditative lossless (New Age) Al Gromer Khan - Negus - The Royal Principle - 2008, FLAC (tracks+.cue), lossless RelizMAN 227 MB
NewAge & Meditative lossless (New Age) Amethystium - 2005 - "Transversa" [APE (image + .cue)], lossless RelizMAN 437 MB
NewAge & Meditative lossless (New Age) Anima - Temple of the Stars - 2010, FLAC (tracks+.cue), lossless RelizMAN 376 MB
NewAge & Meditative lossless (New Age) Anne Linnet - Relax, No. 1 - 2003, FLAC (tracks+.cue), lossless RelizMAN 312 MB
NewAge & Meditative lossless (New Age) Anthony Miles - Music For Children - 1995, APE (image+.cue) lossless RelizMAN 212 MB
NewAge & Meditative lossless (New Age) Anuragi - Highway Back Home (1990), Morning & Evening Meditation (1992), APE (image + .cue), lossless RelizMAN 331 MB
NewAge & Meditative lossless (New Age) Asha - Chosen by You - 2002, FLAC (tracks+.cue), lossless RelizMAN 350 MB
Display posts:    

Current time is: 27-Jun 15:03

All times are UTC + 3



You cannot post new topics in this forum
You cannot reply to topics in this forum
You cannot edit your posts in this forum
You cannot delete your posts in this forum
You cannot vote in polls in this forum
You cannot attach files in this forum
You can download files in this forum