Ответить на тему
Статистика раздачи [Обновить пиров]
Размер:  448 MB   |    Зарегистрирован:  7 месяцев 11 дней   |    Скачан:  0 раз
Сидов:  918  [  0 KB/s  ]   Личеров:  33  [  0 KB/s  ]  
 
     
 
 
Автор Сообщение

Vi$itReal ®

12

Создавать темы 07-Авг-2018 16:50

[Цитировать]

Жанр: Rap,Hip-Hop,Underground
Носитель: CD
Страна-производитель диска (релиза): USA
Год издания: 2015
Издатель (лейбл): © First Generation Rich Inc.
Номер по каталогу: FGNR180.
Страна исполнителя (группы): USA
Аудиокодек: FLAC (*.flac)
Тип рипа: tracks+.cue
Битрейт аудио: lossless
Продолжительность: 01:07:41
Источник (релизер):
Наличие сканов в содержимом раздачи:
Треклист:

01. All Day, Always (3:12)
02. Suicide Doors (4:52)
03. The Moments That Matter (feat. Kay Cola) (3:48)
04. Luxury (feat. Westside Gunn) (3:42)
05. Everything'for Sale (4:31)
06. See a Key (Ki') (feat. Jadakiss) (4:40)
07. Money Makes Us Happy (feat. Black Thought & Bilal) (5:25)
08. Playing Favorites (feat. Christon Gray) (4:11)
09. Meadow of Trust (feat. Saba) (3:45)
10. Women Who Can Cook (4:10)
11. Civilized Leisure (feat. Mozaic) (3:56)
12. The Experience (3:35)
13. Asking Bodie for a Package (feat. Skarr Akbar) (5:18)
14. Things I Should've Told My Friends (5:35)
15. Sweet Pursuit (feat. Kay Cola) (6:53)
- -Доп. информация:

Лог создания рипа

Exact Audio Copy V1.0 beta 3 from 29. August 2011
EAC extraction logfile from 25. June 2015, 16:14
Skyzoo / Music For My Friends
Used drive : hp BD MLT UJ262 Adapter: 0 ID: 0
Read mode : SecureUtilize accurate stream : YesDefeat audio cache : YesMake use of C2 pointers : No
Read offset correction : 103Overread into Lead-In and Lead-Out : NoFill up missing offset samples with silence : YesDelete leading and trailing silent blocks : NoNull samples used in CRC calculations : YesUsed interface : Native Win32 interface for Win NT & 2000Gap handling : Appended to previous track
Used output format : User Defined EncoderSelected bitrate : 1024 kBit/sQuality : HighAdd ID3 tag : NoCommand line compressor : C:\Program Files (x86)\Exact Audio Copy\Flac\flac.exeAdditional command line options : -8 -V -T "ARTIST=%artist%" -T "TITLE=%title%" -T "ALBUM=%albumtitle%" -T "DATE=%year%" -T "TRACKNUMBER=%tracknr%" -T "GENRE=%genre%" -T "PERFORMER=%albuminterpret%" -T "COMPOSER=%composer%" %haslyrics%--tag-from-file=LYRICS="%lyricsfile%"%haslyrics% -T "ALBUMARTIST=%albumartist%" -T "DISCNUMBER=%cdnumber%" -T "TOTALDISCS=%totalcds%" -T "TOTALTRACKS=%numtracks%" -T "COMMENT=%comment%" %source% -o %dest%
TOC of the extracted CD
Track | Start | Length | Start sector | End sector --------------------------------------------------------- 1 | 0:00.00 | 3:12.73 | 0 | 14472 2 | 3:12.73 | 4:52.04 | 14473 | 36376 3 | 8:05.02 | 3:48.13 | 36377 | 53489 4 | 11:53.15 | 3:42.11 | 53490 | 70150 5 | 15:35.26 | 4:31.59 | 70151 | 90534 6 | 20:07.10 | 4:40.43 | 90535 | 111577 7 | 24:47.53 | 5:25.48 | 111578 | 136000 8 | 30:13.26 | 4:11.55 | 136001 | 154880 9 | 34:25.06 | 3:45.54 | 154881 | 171809 10 | 38:10.60 | 4:10.60 | 171810 | 190619 11 | 42:21.45 | 3:56.18 | 190620 | 208337 12 | 46:17.63 | 3:35.74 | 208338 | 224536 13 | 49:53.62 | 5:18.18 | 224537 | 248404 14 | 55:12.05 | 5:35.06 | 248405 | 273535 15 | 60:47.11 | 6:53.45 | 273536 | 304555
Track 1
Filename C:\Users\Julian\Music\Skyzoo - Music For My Friends (FLAC)\Skyzoo - Music For My Friends - 01 - All Day, Always.wav
Pre-gap length 0:00:02.00
Peak level 100.0 % Extraction speed 2.4 X Track quality 100.0 % Test CRC 8292F53C Copy CRC 8292F53C Track not present in AccurateRip database Copy OK
Track 2
Filename C:\Users\Julian\Music\Skyzoo - Music For My Friends (FLAC)\Skyzoo - Music For My Friends - 02 - Suicide Doors.wav
Peak level 100.0 % Extraction speed 2.8 X Track quality 100.0 % Test CRC 15ED5FBB Copy CRC 15ED5FBB Track not present in AccurateRip database Copy OK
Track 3
Filename C:\Users\Julian\Music\Skyzoo - Music For My Friends (FLAC)\Skyzoo - Music For My Friends - 03 - The Moments That Matter.wav
Peak level 100.0 % Extraction speed 3.0 X Track quality 100.0 % Test CRC 8626486C Copy CRC 8626486C Track not present in AccurateRip database Copy OK
Track 4
Filename C:\Users\Julian\Music\Skyzoo - Music For My Friends (FLAC)\Skyzoo - Music For My Friends - 04 - Luxury.wav
Peak level 100.0 % Extraction speed 3.2 X Track quality 100.0 % Test CRC 8BA0F549 Copy CRC 8BA0F549 Track not present in AccurateRip database Copy OK
Track 5
Filename C:\Users\Julian\Music\Skyzoo - Music For My Friends (FLAC)\Skyzoo - Music For My Friends - 05 - Everything's For Sale.wav
Peak level 100.0 % Extraction speed 3.5 X Track quality 100.0 % Test CRC 0C25FCFC Copy CRC 0C25FCFC Track not present in AccurateRip database Copy OK
Track 6
Filename C:\Users\Julian\Music\Skyzoo - Music For My Friends (FLAC)\Skyzoo - Music For My Friends - 06 - See A Key (Ki').wav
Peak level 100.0 % Extraction speed 3.7 X Track quality 100.0 % Test CRC 926F367C Copy CRC 926F367C Track not present in AccurateRip database Copy OK
Track 7
Filename C:\Users\Julian\Music\Skyzoo - Music For My Friends (FLAC)\Skyzoo - Music For My Friends - 07 - Money Makes Us Happy.wav
Peak level 100.0 % Extraction speed 4.0 X Track quality 100.0 % Test CRC 83116682 Copy CRC 83116682 Track not present in AccurateRip database Copy OK
Track 8
Filename C:\Users\Julian\Music\Skyzoo - Music For My Friends (FLAC)\Skyzoo - Music For My Friends - 08 - Playing Favorites.wav
Peak level 100.0 % Extraction speed 4.1 X Track quality 100.0 % Test CRC 5CE34835 Copy CRC 5CE34835 Track not present in AccurateRip database Copy OK
Track 9
Filename C:\Users\Julian\Music\Skyzoo - Music For My Friends (FLAC)\Skyzoo - Music For My Friends - 09 - Meadow of Trust.wav
Peak level 100.0 % Extraction speed 4.2 X Track quality 100.0 % Test CRC 76E7973E Copy CRC 76E7973E Track not present in AccurateRip database Copy OK
Track 10
Filename C:\Users\Julian\Music\Skyzoo - Music For My Friends (FLAC)\Skyzoo - Music For My Friends - 10 - Women Who Can Cook.wav
Peak level 100.0 % Extraction speed 4.4 X Track quality 100.0 % Test CRC B94F6423 Copy CRC B94F6423 Track not present in AccurateRip database Copy OK
Track 11
Filename C:\Users\Julian\Music\Skyzoo - Music For My Friends (FLAC)\Skyzoo - Music For My Friends - 11 - Civilized Leisure.wav
Peak level 100.0 % Extraction speed 4.5 X Track quality 100.0 % Test CRC DEEA58D8 Copy CRC DEEA58D8 Track not present in AccurateRip database Copy OK
Track 12
Filename C:\Users\Julian\Music\Skyzoo - Music For My Friends (FLAC)\Skyzoo - Music For My Friends - 12 - The Experience.wav
Peak level 100.0 % Extraction speed 4.5 X Track quality 100.0 % Test CRC E22245BE Copy CRC E22245BE Track not present in AccurateRip database Copy OK
Track 13
Filename C:\Users\Julian\Music\Skyzoo - Music For My Friends (FLAC)\Skyzoo - Music For My Friends - 13 - Asking Bodie For a Package.wav
Peak level 100.0 % Extraction speed 5.0 X Track quality 100.0 % Test CRC 7861186A Copy CRC 7861186A Track not present in AccurateRip database Copy OK
Track 14
Filename C:\Users\Julian\Music\Skyzoo - Music For My Friends (FLAC)\Skyzoo - Music For My Friends - 14 - Things I Should've Told My Friends.wav
Peak level 100.0 % Extraction speed 5.2 X Track quality 100.0 % Test CRC 810AF85B Copy CRC 810AF85B Track not present in AccurateRip database Copy OK
Track 15
Filename C:\Users\Julian\Music\Skyzoo - Music For My Friends (FLAC)\Skyzoo - Music For My Friends - 15 - Sweet Pursuit.wav
Peak level 100.0 % Extraction speed 5.4 X Track quality 100.0 % Test CRC 22158DBD Copy CRC 22158DBD Track not present in AccurateRip database Copy OK
None of the tracks are present in the AccurateRip database
No errors occurred
End of status report
==== Log checksum 73C459D3B4BBAF53F53D06D2D3D640FDBA573F87394EC876AB20FDFE5BAC7761 ====

Содержание индексной карты (.CUE)

REM GENRE RapREM DATE 2015REM DISCID F30FDC0FREM COMMENT "ExactAudioCopy v1.0b3"CATALOG 0888915096512PERFORMER "Skyzoo"TITLE "Music For My Friends"FILE "01. All Day, Always.wav" WAVE  TRACK 01 AUDIO    TITLE "All Day, Always"    PERFORMER "Skyzoo"    ISRC USUYG1070813    FLAGS DCP    INDEX 01 00:00:00FILE "02. Suicide Doors.wav" WAVE  TRACK 02 AUDIO    TITLE "Suicide Doors"    PERFORMER "Skyzoo"    ISRC USUYG1070814    FLAGS DCP    INDEX 01 00:00:00FILE "03. The Moments That Matter (feat. Kay Cola).wav" WAVE  TRACK 03 AUDIO    TITLE "The Moments That Matter (feat. Kay Cola)"    PERFORMER "Skyzoo"    ISRC USUYG1070815    FLAGS DCP    INDEX 01 00:00:00FILE "04. Luxury (feat. Westside Gunn).wav" WAVE  TRACK 04 AUDIO    TITLE "Luxury (feat. Westside Gunn)"    PERFORMER "Skyzoo"    ISRC USUYG1070816    FLAGS DCP    INDEX 01 00:00:00FILE "05. Everything'for Sale.wav" WAVE  TRACK 05 AUDIO    TITLE "Everything's For Sale"    PERFORMER "Skyzoo"    ISRC USUYG1070817    FLAGS DCP    INDEX 01 00:00:00FILE "06. See a Key (Ki') (feat. Jadakiss).wav" WAVE  TRACK 06 AUDIO    TITLE "See a Key (Ki') (feat. Jadakiss)"    PERFORMER "Skyzoo"    ISRC USUYG1070818    FLAGS DCP    INDEX 01 00:00:00FILE "07. Money Makes Us Happy (feat. Black Thought & Bilal).wav" WAVE  TRACK 07 AUDIO    TITLE "Money Makes Us Happy (feat. Black Thought & Bilal)"    PERFORMER "Skyzoo"    ISRC USUYG1070819    FLAGS DCP    INDEX 01 00:00:00FILE "08. Playing Favorites (feat. Christon Gray).wav" WAVE  TRACK 08 AUDIO    TITLE "Playing Favorites (feat. Christon Gray)"    PERFORMER "Skyzoo"    ISRC USUYG1070820    FLAGS DCP    INDEX 01 00:00:00FILE "09. Meadow of Trust (feat. Saba).wav" WAVE  TRACK 09 AUDIO    TITLE "Meadow of Trust (feat. Saba)"    PERFORMER "Skyzoo"    ISRC USUYG1070821    FLAGS DCP    INDEX 01 00:00:00FILE "10. Women Who Can Cook.wav" WAVE  TRACK 10 AUDIO    TITLE "Women Who Can Cook"    PERFORMER "Skyzoo"    ISRC USUYG1070822    FLAGS DCP    INDEX 01 00:00:00FILE "11. Civilized Leisure (feat. Mozaic).wav" WAVE  TRACK 11 AUDIO    TITLE "Civilized Leisure (feat. Mozaic)"    PERFORMER "Skyzoo"    ISRC USUYG1070823    FLAGS DCP    INDEX 01 00:00:00FILE "12. The Experience.wav" WAVE  TRACK 12 AUDIO    TITLE "The Experience"    PERFORMER "Skyzoo"    ISRC USUYG1070824    FLAGS DCP    INDEX 01 00:00:00FILE "13. Asking Bodie for a Package (feat. Skarr Akbar).wav" WAVE  TRACK 13 AUDIO    TITLE "Asking Bodie for a Package (feat. Skarr Akbar)"    PERFORMER "Skyzoo"    ISRC USUYG1070825    FLAGS DCP    INDEX 01 00:00:00FILE "14. Things I Should've Told My Friends.wav" WAVE  TRACK 14 AUDIO    TITLE "Things I Should've Told My Friends"    PERFORMER "Skyzoo"    ISRC USUYG1070826    FLAGS DCP    INDEX 01 00:00:00FILE "15. Sweet Pursuit (feat. Kay Cola).wav" WAVE  TRACK 15 AUDIO    TITLE "Sweet Pursuit (feat. Kay Cola)"    PERFORMER "Skyzoo"    ISRC USUYG1070827    FLAGS DCP    INDEX 01 00:00:00

Лог проверки качества

AUDIOCHECKER v2.0 beta (build 457) - by Dester - [email protected]~~~~~~~~~~~~~~~~~~~~~~~~~~~~~~~~~~-=== DO NOT EDIT THIS FILE! ===-
Path: ...\Skyzoo - Music For My Friends (2015) CD FLAC
01 -=- 01. All Day, Always.flac -=- CDDA (100%)02 -=- 02. Suicide Doors.flac -=- CDDA (100%)03 -=- 03. The Moments That Matter (feat. Kay Cola).flac -=- CDDA (100%)04 -=- 04. Luxury (feat. Westside Gunn).flac -=- CDDA (100%)05 -=- 05. Everything'for Sale.flac -=- CDDA (99%)06 -=- 06. See a Key (Ki') (feat. Jadakiss).flac -=- CDDA (100%)07 -=- 07. Money Makes Us Happy (feat. Black Thought & Bilal).flac -=- CDDA (100%)08 -=- 08. Playing Favorites (feat. Christon Gray).flac -=- CDDA (100%)09 -=- 09. Meadow of Trust (feat. Saba).flac -=- CDDA (100%)10 -=- 10. Women Who Can Cook.flac -=- CDDA (100%)11 -=- 11. Civilized Leisure (feat. Mozaic).flac -=- CDDA (100%)12 -=- 12. The Experience.flac -=- CDDA (100%)13 -=- 13. Asking Bodie for a Package (feat. Skarr Akbar).flac -=- CDDA (100%)14 -=- 14. Things I Should've Told My Friends.flac -=- CDDA (100%)15 -=- 15. Sweet Pursuit (feat. Kay Cola).flac -=- CDDA (99%)
Summary 99,87% CDDA
180401908

Частотный спектр ВСЕГО альбома


[doutdess.info].t282851.torrent
Торрент: Зарегистрирован [ 2018-08-07 16:50 ] · DF62A4996B33146F5B2CB0E38CE0CF2039121D21

19 KB

Статус: проверено
Скачан: 0 раз
Размер: 448 MB
(Rap,Hip-Hop,Underground) [CD] Skyzoo - Music For My Friends - 2015, FLAC (tracks+.cue), lossless скачать торрент бесплатно и без регистрации

[Профиль] [ЛС]
Форум Тема Автор Размер
Отечественный Рэп, Хип-Хоп lossy (Rap,Hip-Hop) 4\'K - VKRUG. (Часть 2) - 2017, MP3, 320 kbps RelizMAN 56 MB
Отечественный Рэп, Хип-Хоп lossy (Rap,Hip-Hop) 5 Плюх (F.Y.P.M. / 43 градуса) - Абориген - 2017, MP3, 320 kbps RelizMAN 111 MB
Отечественный Рэп, Хип-Хоп lossy (Rap,Hip-Hop) Abama Clan - Монополия - 2016, MP3, 128-320 kbps RelizMAN 136 MB
Отечественный Рэп, Хип-Хоп lossy (Rap,Hip-Hop) Allj - Sayonara Boy - 2016, MP3, 320 kbps RelizMAN 69 MB
Зарубежный Рэп, Хип-Хоп lossy (Rap,Hip-Hop) Apathy,Celph Titled - Unseen Obscene - 2016, MP3, 320 kbps RelizMAN 67 MB
Зарубежный Рэп, Хип-Хоп lossy (Rap,Hip-Hop) B.a.R.S. Murre - Black Tanita - 2015, MP3, 320 kbps RelizMAN 103 MB
Отечественный Рэп, Хип-Хоп lossy (Rap,Hip-Hop) Bad Balance - Политика - 2016, MP3, 320 kbps RelizMAN 108 MB
Зарубежный Рэп, Хип-Хоп lossy (Rap,Hip-Hop) Berner & B-Real - Prohibition - 2014, MP3, 320 kbps RelizMAN 69 MB
Показать сообщения:    

Текущее время: 18-Мар 20:22

Часовой пояс: UTC + 3



Вы не можете начинать темы
Вы не можете отвечать на сообщения
Вы не можете редактировать свои сообщения
Вы не можете удалять свои сообщения
Вы не можете голосовать в опросах
Вы не можете прикреплять файлы к сообщениям
Вы можете скачивать файлы