Reply to topic
DL-List and Torrent activity [Update пиров]
Size:  202 MB   |    Registered:  3 years 8 months   |    Completed:  0 times
Seeders:  62  [  0 KB/s  ]   Leechers:  54  [  0 KB/s  ]  
 
     
 
 
Author Message

RelizMAN ®

11

Post 05-Oct-2015 00:31

[Quote]

Stephan Micus / Nomad Songs
Жанр: World Fusion, Ethnic, ECM
Носитель: CD
Страна-производитель диска (релиза): Europe
Год издания: 2015
Издатель (лейбл): ECM Records
Номер по каталогу: ECM 2409
Страна исполнителя (группы): Germany
Аудиокодек: FLAC (*.flac)
Тип рипа: tracks+.cue
Битрейт аудио: lossless
Продолжительность: 00:56:00
Источник (релизер): спасибо
Наличие сканов в содержимом раздачи:
Треклист:
1 Part 1 - Everywhere, Nowhere 4:40
2 Part 2 - Leila 5:27
3 Part 3 - The Promise 8:19
4 Part 4 - The Stars 2:47
5 Part 5 - The Spring 2:54
6 Part 6 - The Blessing 4:30
7 Part 7 - The Feast 5:04
8 Part 8 - Laughing At Thunder 4:21
9 Part 9 - Sea Of Grass 5:01
10 Part 10 - The Dance 6:12
11 Part 11 - Under The Chinar Trees 6:42

Лог создания рипа

Exact Audio Copy V1.1 from 23. June 2015
EAC extraction logfile from 24. July 2015, 11:44
Stephan Micus / Nomad Songs
Used drive : LITE-ON COMBO SOHC-5236K Adapter: 1 ID: 0
Read mode : SecureUtilize accurate stream : YesDefeat audio cache : YesMake use of C2 pointers : No
Read offset correction : 6Overread into Lead-In and Lead-Out : NoFill up missing offset samples with silence : YesDelete leading and trailing silent blocks : NoNull samples used in CRC calculations : YesUsed interface : Native Win32 interface for Win NT & 2000Gap handling : Appended to previous track
Used output format : User Defined EncoderSelected bitrate : 1024 kBit/sQuality : HighAdd ID3 tag : NoCommand line compressor : C:\Portable\eac-1.1\FLAC\FLAC.EXEAdditional command line options : -8 -V -T "ARTIST=%artist%" -T "TITLE=%title%" -T "ALBUM=%albumtitle%" -T "DATE=%year%" -T "TRACKNUMBER=%tracknr%" -T "GENRE=%genre%" -T "PERFORMER=%albuminterpret%" -T "COMPOSER=%composer%" %haslyrics%--tag-from-file=LYRICS="%lyricsfile%"%haslyrics% -T "ALBUMARTIST=%albumartist%" -T "DISCNUMBER=%cdnumber%" -T "TOTALDISCS=%totalcds%" -T "TOTALTRACKS=%numtracks%" -T "COMMENT=%comment%" %source% -o %dest%
TOC of the extracted CD
Track | Start | Length | Start sector | End sector --------------------------------------------------------- 1 | 0:00.00 | 4:40.12 | 0 | 21011 2 | 4:40.12 | 5:27.68 | 21012 | 45604 3 | 10:08.05 | 8:19.05 | 45605 | 83034 4 | 18:27.10 | 2:47.30 | 83035 | 95589 5 | 21:14.40 | 2:53.03 | 95590 | 108567 6 | 24:07.43 | 4:30.04 | 108568 | 128821 7 | 28:37.47 | 5:04.27 | 128822 | 151648 8 | 33:41.74 | 4:21.14 | 151649 | 171237 9 | 38:03.13 | 5:01.56 | 171238 | 193868 10 | 43:04.69 | 6:12.54 | 193869 | 221822 11 | 49:17.48 | 6:42.55 | 221823 | 252027
Track 1
Filename C:\EAC\Stephan Micus — 2015 — Nomad Songs [ECM 2409 4714325]\01 Everywhere, Nowhere.wav
Pre-gap length 0:00:02.00
Peak level 89.4 % Extraction speed 1.7 X Track quality 99.9 % Test CRC 0E0E0844 Copy CRC 0E0E0844 Track not present in AccurateRip database Copy OK
Track 2
Filename C:\EAC\Stephan Micus — 2015 — Nomad Songs [ECM 2409 4714325]\02 Leila.wav
Peak level 47.6 % Extraction speed 2.3 X Track quality 100.0 % Test CRC C1D165CD Copy CRC C1D165CD Accurately ripped (confidence 1) [1CBA7529] (AR v2) Copy OK
Track 3
Filename C:\EAC\Stephan Micus — 2015 — Nomad Songs [ECM 2409 4714325]\03 The Promise.wav
Peak level 97.5 % Extraction speed 2.7 X Track quality 100.0 % Test CRC C4BB0C85 Copy CRC C4BB0C85 Accurately ripped (confidence 1) [2502BCB1] (AR v2) Copy OK
Track 4
Filename C:\EAC\Stephan Micus — 2015 — Nomad Songs [ECM 2409 4714325]\04 The Stars.wav
Peak level 46.9 % Extraction speed 2.5 X Track quality 100.0 % Test CRC 1D18E978 Copy CRC 1D18E978 Accurately ripped (confidence 1) [6B303D57] (AR v2) Copy OK
Track 5
Filename C:\EAC\Stephan Micus — 2015 — Nomad Songs [ECM 2409 4714325]\05 The Spring.wav
Peak level 56.7 % Extraction speed 2.6 X Track quality 100.0 % Test CRC 714DE2B8 Copy CRC 714DE2B8 Accurately ripped (confidence 1) [53E256D7] (AR v2) Copy OK
Track 6
Filename C:\EAC\Stephan Micus — 2015 — Nomad Songs [ECM 2409 4714325]\06 The Blessing.wav
Peak level 38.0 % Extraction speed 3.0 X Track quality 100.0 % Test CRC E664B565 Copy CRC E664B565 Accurately ripped (confidence 1) [B7EE29A9] (AR v2) Copy OK
Track 7
Filename C:\EAC\Stephan Micus — 2015 — Nomad Songs [ECM 2409 4714325]\07 The Feast.wav
Peak level 54.1 % Extraction speed 3.2 X Track quality 100.0 % Test CRC B3EF9FE7 Copy CRC B3EF9FE7 Accurately ripped (confidence 1) [7640C8D5] (AR v2) Copy OK
Track 8
Filename C:\EAC\Stephan Micus — 2015 — Nomad Songs [ECM 2409 4714325]\08 Laughing at Thunder.wav
Peak level 85.3 % Extraction speed 3.3 X Track quality 100.0 % Test CRC F72C7148 Copy CRC F72C7148 Accurately ripped (confidence 1) [AB3A5B26] (AR v2) Copy OK
Track 9
Filename C:\EAC\Stephan Micus — 2015 — Nomad Songs [ECM 2409 4714325]\09 Sea of Grass.wav
Peak level 26.1 % Extraction speed 3.1 X Track quality 99.9 % Test CRC F03CEBB5 Copy CRC F03CEBB5 Accurately ripped (confidence 1) [D3903706] (AR v2) Copy OK
Track 10
Filename C:\EAC\Stephan Micus — 2015 — Nomad Songs [ECM 2409 4714325]\10 The Dance.wav
Peak level 89.6 % Extraction speed 3.6 X Track quality 100.0 % Test CRC 70F16FE3 Copy CRC 70F16FE3 Accurately ripped (confidence 1) [FF6EC1C7] (AR v2) Copy OK
Track 11
Filename C:\EAC\Stephan Micus — 2015 — Nomad Songs [ECM 2409 4714325]\11 Under the Chinar Trees.wav
Peak level 63.9 % Extraction speed 3.6 X Track quality 99.9 % Test CRC 0E197DAF Copy CRC 0E197DAF Accurately ripped (confidence 1) [36FDA7CC] (AR v2) Copy OK
10 akuratnie zgrane 1 nie ma w bazie danych AccurateRip
Some tracks could not be verified as accurate
No errors occurred
End of status report
---- CUETools DB Plugin V2.1.6
[CTDB TOCID: iqGxZVHBhA6wtpx9Mb4ApPPHgGE-] disk not present in databaseSubmit result: iqGxZVHBhA6wtpx9Mb4ApPPHgGE- has been uploaded
==== Log checksum 59A12E075C2C8B2DA075E43FFEFBD69ABA080520BDAFDBC93B086BE4DE4C673C ====

Содержание индексной карты (.CUE)

REM GENRE "World music"REM DATE 2015REM DISCID 9A0D200BREM COMMENT "ExactAudioCopy v1.1"CATALOG 0602547143259PERFORMER "Stephan Micus"TITLE "Nomad Songs"FILE "01 Everywhere, Nowhere.wav" WAVE TRACK 01 AUDIO TITLE "Everywhere, Nowhere" PERFORMER "Stephan Micus" ISRC DEB331240901 INDEX 01 00:00:00FILE "02 Leila.wav" WAVE TRACK 02 AUDIO TITLE "Leila" PERFORMER "Stephan Micus" ISRC DEB331240902 INDEX 01 00:00:00FILE "03 The Promise.wav" WAVE TRACK 03 AUDIO TITLE "The Promise" PERFORMER "Stephan Micus" ISRC DEB331240903 INDEX 01 00:00:00FILE "04 The Stars.wav" WAVE TRACK 04 AUDIO TITLE "The Stars" PERFORMER "Stephan Micus" ISRC DEB331240904 INDEX 01 00:00:00FILE "05 The Spring.wav" WAVE TRACK 05 AUDIO TITLE "The Spring" PERFORMER "Stephan Micus" ISRC DEB331240905 INDEX 01 00:00:00FILE "06 The Blessing.wav" WAVE TRACK 06 AUDIO TITLE "The Blessing" PERFORMER "Stephan Micus" ISRC DEB331240906 INDEX 01 00:00:00FILE "07 The Feast.wav" WAVE TRACK 07 AUDIO TITLE "The Feast" PERFORMER "Stephan Micus" ISRC DEB331240907 INDEX 01 00:00:00FILE "08 Laughing at Thunder.wav" WAVE TRACK 08 AUDIO TITLE "Laughing at Thunder" PERFORMER "Stephan Micus" ISRC DEB331240908 INDEX 01 00:00:00FILE "09 Sea of Grass.wav" WAVE TRACK 09 AUDIO TITLE "Sea of Grass" PERFORMER "Stephan Micus" ISRC DEB331240909 INDEX 01 00:00:00FILE "10 The Dance.wav" WAVE TRACK 10 AUDIO TITLE "The Dance" PERFORMER "Stephan Micus" ISRC DEB331240910 INDEX 01 00:00:00FILE "11 Under the Chinar Trees.wav" WAVE TRACK 11 AUDIO TITLE "Under the Chinar Trees" PERFORMER "Stephan Micus" ISRC DEB331240911 INDEX 01 00:00:00

Лог проверки качества

d:\>d:\aucdtect -d/-m0 d:\zzz\*.wavauCDtect: CD records authenticity detector, version 0.8.2Copyright (c) 2004 Oleg Berngardt. All rights reserved.Copyright (c) 2004 Alexander Djourik. All rights reserved.------------------------------------------------------------Processing file: [01. Everywhere, Nowhere.wav]
------------------------------------------------------------This track looks like CDDA with probability 99%
------------------------------------------------------------Processing file: [02. Leila.wav]
------------------------------------------------------------This track looks like CDDA with probability 99%
------------------------------------------------------------Processing file: [03. The Promise.wav]
------------------------------------------------------------This track looks like CDDA with probability 100%
------------------------------------------------------------Processing file: [04. The Stars.wav]
------------------------------------------------------------This track looks like CDDA with probability 100%
------------------------------------------------------------Processing file: [05. The Spring.wav]
------------------------------------------------------------This track looks like CDDA with probability 100%
------------------------------------------------------------Processing file: [06. The Blessing.wav]
------------------------------------------------------------This track looks like CDDA with probability 100%
------------------------------------------------------------Processing file: [07. The Feast.wav]
------------------------------------------------------------This track looks like CDDA with probability 100%
------------------------------------------------------------Processing file: [08. Laughing at Thunder.wav]
------------------------------------------------------------This track looks like CDDA with probability 100%
------------------------------------------------------------Processing file: [09. Sea of Grass.wav]
------------------------------------------------------------This track looks like CDDA with probability 100%
------------------------------------------------------------Processing file: [10. The Dance.wav]
------------------------------------------------------------This track looks like CDDA with probability 100%
------------------------------------------------------------Processing file: [11. Under the Chinar Trees.wav]
------------------------------------------------------------This track looks like CDDA with probability 100%
------------------------------------------------------------Final Conclusion:------------------------------------------------------------These tracks looks like CDDA with probability 100%
Доп. информация:

Album Reviews

Stephan Micus is a unique figure in music. In his numerous journeys all over the world he seeks to study and understand traditional instruments, the sounds that they produce and the cultures that brought them to life. He then composes original pieces for them, playing all the instruments himself and multi-tracking the compositions in many layers. In this way he combines instruments that would never normally be heard together, chosen from different cultures simply for their character, texture and sonic beauty. Micus’ music is profound, powerful and very original. Songlines magazine described his as “a one man universe of sound.” Nomad Songs is his 21st album for ECM.
While his last album Panagia was a meditative reflection around prayers to the Virgin Mary, this new one, Nomad Songs is more earthy and more vigorous.
Its main characters are two instruments that Micus hasn’t used before. The first is the Moroccan genbri, a lute covered with camel-skin, played by the Gnawa in Morocco. The Gnawa are the descendants of former Sub-Saharan slaves who play the genbri in night-long trance and healing ceremonies, traditionally combining it only with voices and big iron castanets. The deep sound of the genbri carries the earthy vibrations of Black Africa rather than the refined melodies of Arab lutes common in North Africa.
The second is the ndingo, a lamellophone similar to the kalimba, used by the San people in Botswana. These indigenous inhabitants of Southern Africa have been pushed off their land and marginalised by the new nation states. “All over the world there were people who lived over hundreds or thousands of years in complete harmony with nature and caused no damage to the environment,” explains Micus.
In his journeys all over the world Stephan Micus seeks to study and understand traditional instruments, the sounds that they produce and the cultures that brought them to life. He then composes original pieces for them, combining instruments that would never normally be heard together, chosen from different cultures simply for their character, texture and sonic beauty. Nomad Songs is his 21st album for ECM; he plays nine different instruments, but emphasizes two he hasn’t used before: The first is the Moroccan genbri, a lute covered with camel-skin, played by the Gnawa in Morocco. The second is the ndingo, a lamellophone similar to the kalimba, used by the San people in Botswana. These indigenous inhabitants of Southern Africa have been pushed off their land and marginalized by the new nation states. With the album’s title Micus, who sees himself as a musical nomad, refers to both the situation of people like the Gnawa and the San as well as his own way of working and living. - monoandstereo.com
Two years from the release of Panagia, which featured settings of Byzantine Greek prayers, Stephan Micus turns his focus to still more musical investigation and discovery performing on instruments from all over the world.
The German composer makes use of such unfamiliar instruments as the ndingo (a kalimba from Botswana) and the camel-skinned bass lute genbri familiar to the Gnawa among the array of instruments he plays.
Matching clashing textures to tantalising effect, more to the point conjuring meditational mood as part of the spell, Micus manages to harness the potential of sounds not always heard together and develop their possibilities. Nomad Songs certainly has a cleansing quality, not that everything quite works, the twin tin whistles played simultaneously on ‘Sea of Grass’ a little on the twee side for instance.
Recorded over an extended period between 2012 and 2014 Nomad Songs can also be a little self-indulgent at times, as laboriously multi-tracked albums by solo performers sometimes are. ‘Leila’ the second tune in, a dialogue between steel string guitar and the recorder-like suling, has a beguiling beauty to it as do many of the best tracks, more so than Micus’ over earnest vocalisations in an imaginary language.
Certainly for musical research and practical application of acquired knowledge Nomad Songs is hard to beat. But maybe it’s an album easier to admire than to absorb on a deeper level. - SG, marlbank.net

Состав

Stephan Micus: ndingo (1,5), genbri (1,3,5,8,10), steel-string guitar (2,7,10), suling (2), nay (3,7), rewab (3,10), rabab (3,10), twelve-string guitar (4,10), voice (6,11), two 14-string guitars (7), tin whistles (9), ndingo (11), shakuhachi (11)
Recorded 2012–2014 at MCM Studios

[doutdess.info].t81084.torrent
Torrent: Registered [ 2015-10-05 00:30 ] · 6CD2F6DEB94E487542DA25B53A1C59BFC807B260

17 KB

Status: checked
Completed: 0 times
Size: 202 MB
(World Fusion, Ethnic, ECM) [CD] Stephan Micus - Nomad Songs - 2015, FLAC (tracks+.cue), lossless скачать торрент бесплатно и без регистрации

[Profile] [PM]
Forum Topic Author Size
Фламенко и акустическая гитара lossy (World Fusion / Ethno-acoustic Rock / Flamenco) Dave Beegle - Beyond the Desert - 2003, MP3, 320 kbps Vi$itReal 92 MB
Этническая музыка Индии lossy (World Fusion, African & Indian Classical) Ravi (ft. Tarun Bhattacharya, Bikram Ghosh, Hossam Ramzy, Danny Thompson) - Ravi\'s Afro-Indian Project - 2009, MP3, 320 kbps Vi$itReal 145 MB
Этническая музыка Африки и Ближнего Востока lossless (World Fusion, African Folk, Afro-Cuban, Latin, Jaz) [WEB] Family Atlantica - Cosmic Unity - 2016, FLAC (tracks), lossless RelizMAN 261 MB
Этническая музыка Африки и Ближнего Востока lossless (World Fusion, African Guitar, Mandingue) [CD] Sekou Bembeya Diabate - Diamond Fingers - 1996, FLAC (tracks+.cue), lossless RelizMAN 322 MB
Этническая музыка Африки и Ближнего Востока lossless (World Fusion, African Traditiions, Brass Band) [WEB] Gangbe Brass Band - Go Slow to Lagos - 2015, FLAC (tracks), lossless RelizMAN 426 MB
Этническая музыка Кавказа и Закавказья lossy и lossless (World Fusion, African Traditions, Balafon) [CD] Kanazoe Orchestra - Miriya - 2016, FLAC (tracks+.cue), lossless Vi$itReal 382 MB
Этническая музыка Африки и Ближнего Востока lossless (World Fusion, African Traditions, Malian Trad.) [CD] BKO - Mali Foli Coura - 2017, FLAC (tracks+.cue), lossless RelizMAN 200 MB
Этническая музыка Африки и Ближнего Востока lossless (World Fusion, African Traditions, Malian, Wassoulou Trad., Griot Trad.) [CD] BKO Quintet - Bamako Today - 2014, FLAC (tracks+.cue), lossless RelizMAN 245 MB
Display posts:    

Current time is: 24-Jun 18:30

All times are UTC + 3



You cannot post new topics in this forum
You cannot reply to topics in this forum
You cannot edit your posts in this forum
You cannot delete your posts in this forum
You cannot vote in polls in this forum
You cannot attach files in this forum
You can download files in this forum