Ответить на тему
Статистика раздачи [Обновить пиров]
Размер:  366 MB   |    Зарегистрирован:  7 месяцев 12 дней   |    Скачан:  0 раз
Сидов:  600  [  0 KB/s  ]   Личеров:  46  [  0 KB/s  ]  
 
     
 
 
Автор Сообщение

RelizMAN ®

11

Создавать темы 07-Авг-2018 22:15

[Цитировать]

Vieux Farka Toure / Samba
Жанр: Folk, World, & Country
Носитель: CD
Страна-производитель диска (релиза): US
Год издания: 2017
Издатель (лейбл): Six Degrees Records
Номер по каталогу: 657036-126626
Страна исполнителя (группы): Mali
Аудиокодек: FLAC (*.flac)
Тип рипа: tracks+.cue
Битрейт аудио: lossless
Продолжительность: 00:57:32
Источник (релизер): ravana
Наличие сканов в содержимом раздачи: нет
Треклист:
01. Bonheur 05:38
02. Mariam (feat. Idan Raichel) 05:25
03. Ba Kaitere 06:56
04. Samba Si Kairi 08:13
05. Homafu Wawa 06:01
06. Maya (feat. Idan Raichel) 04:25
07. Nature 03:43
08. Reconnaissance 05:18
09. Ouaga 06:07
10. Ni Negaba 05:36

Лог создания рипа

Exact Audio Copy V1.0 beta 4 from 7. December 2014
EAC extraction logfile from 5. May 2017, 16:06
Vieux Farka Touré / Samba
Used drive : PIONEER DVD-RW DVR-116D Adapter: 1 ID: 0
Read mode : SecureUtilize accurate stream : YesDefeat audio cache : YesMake use of C2 pointers : No
Read offset correction : 96Overread into Lead-In and Lead-Out : NoFill up missing offset samples with silence : YesDelete leading and trailing silent blocks : NoNull samples used in CRC calculations : YesUsed interface : Native Win32 interface for Win NT & 2000Gap handling : Appended to previous track
Used output format : User Defined EncoderSelected bitrate : 1024 kBit/sQuality : HighAdd ID3 tag : NoCommand line compressor : C:\Program Files (x86)\Exact Audio Copy\Flac\flac.exeAdditional command line options : -8 -V -T "ARTIST=%artist%" -T "TITLE=%title%" -T "ALBUM=%albumtitle%" -T "DATE=%year%" -T "TRACKNUMBER=%tracknr%" -T "GENRE=%genre%" -T "PERFORMER=%albuminterpret%" -T "COMPOSER=%composer%" %haslyrics%--tag-from-file=LYRICS="%lyricsfile%"%haslyrics% -T "ALBUMARTIST=%albumartist%" -T "DISCNUMBER=%cdnumber%" -T "TOTALDISCS=%totalcds%" -T "TOTALTRACKS=%numtracks%" -T "COMMENT=%comment%" %source% -o %dest%
TOC of the extracted CD
Track | Start | Length | Start sector | End sector --------------------------------------------------------- 1 | 0:00.00 | 5:38.68 | 0 | 25417 2 | 5:38.68 | 5:26.22 | 25418 | 49889 3 | 11:05.15 | 6:56.55 | 49890 | 81144 4 | 18:01.70 | 8:14.08 | 81145 | 118202 5 | 26:16.03 | 6:01.66 | 118203 | 145343 6 | 32:17.69 | 4:25.44 | 145344 | 165262 7 | 36:43.38 | 3:44.13 | 165263 | 182075 8 | 40:27.51 | 5:18.66 | 182076 | 205991 9 | 45:46.42 | 6:08.55 | 205992 | 233646 10 | 51:55.22 | 5:36.60 | 233647 | 258906
Track 1
Filename C:\new flac rips\Vieux Farka Touré - 2017 - Samba\01 Bonheur.wav
Pre-gap length 0:00:02.00
Peak level 97.4 % Extraction speed 1.6 X Track quality 100.0 % Test CRC E1053B25 Copy CRC E1053B25 Track not present in AccurateRip database Copy OK
Track 2
Filename C:\new flac rips\Vieux Farka Touré - 2017 - Samba\02 Mariam (feat. Idan Raichel).wav
Peak level 97.9 % Extraction speed 1.8 X Track quality 100.0 % Test CRC A6C9DACA Copy CRC A6C9DACA Track not present in AccurateRip database Copy OK
Track 3
Filename C:\new flac rips\Vieux Farka Touré - 2017 - Samba\03 Ba Kaitere.wav
Peak level 98.0 % Extraction speed 2.1 X Track quality 100.0 % Test CRC 9CC4360D Copy CRC 9CC4360D Track not present in AccurateRip database Copy OK
Track 4
Filename C:\new flac rips\Vieux Farka Touré - 2017 - Samba\04 Samba Si Kairi.wav
Peak level 100.0 % Extraction speed 2.4 X Track quality 100.0 % Test CRC 84971AEF Copy CRC 84971AEF Track not present in AccurateRip database Copy OK
Track 5
Filename C:\new flac rips\Vieux Farka Touré - 2017 - Samba\05 Homafu Wawa.wav
Peak level 99.8 % Extraction speed 2.3 X Track quality 99.9 % Test CRC 9787672E Copy CRC 9787672E Track not present in AccurateRip database Copy OK
Track 6
Filename C:\new flac rips\Vieux Farka Touré - 2017 - Samba\06 Maya (feat. Idan Raichel).wav
Peak level 97.8 % Extraction speed 2.3 X Track quality 99.9 % Test CRC 8E4A04A3 Copy CRC 8E4A04A3 Track not present in AccurateRip database Copy OK
Track 7
Filename C:\new flac rips\Vieux Farka Touré - 2017 - Samba\07 Nature.wav
Peak level 99.2 % Extraction speed 2.6 X Track quality 100.0 % Test CRC 3B4AC417 Copy CRC 3B4AC417 Track not present in AccurateRip database Copy OK
Track 8
Filename C:\new flac rips\Vieux Farka Touré - 2017 - Samba\08 Reconnaissance.wav
Peak level 97.8 % Extraction speed 2.8 X Track quality 100.0 % Test CRC DF632116 Copy CRC DF632116 Track not present in AccurateRip database Copy OK
Track 9
Filename C:\new flac rips\Vieux Farka Touré - 2017 - Samba\09 Ouaga.wav
Peak level 100.0 % Extraction speed 3.0 X Track quality 100.0 % Test CRC 1E3C23CC Copy CRC 1E3C23CC Track not present in AccurateRip database Copy OK
Track 10
Filename C:\new flac rips\Vieux Farka Touré - 2017 - Samba\10 Ni Negaba.wav
Peak level 98.3 % Extraction speed 3.1 X Track quality 100.0 % Test CRC 8B7300A6 Copy CRC 8B7300A6 Track not present in AccurateRip database Copy OK
None of the tracks are present in the AccurateRip database
No errors occurred
End of status report
---- CUETools DB Plugin V2.1.4
[CTDB TOCID: UVdTzFfQZu6drXjiZKop0gzSFQo-] disk not present in databaseSubmit result: UVdTzFfQZu6drXjiZKop0gzSFQo- has been uploaded
==== Log checksum 24325603F7250D930880D2A43F6048A005A4DC9B810A9A6476391AF9E3F3A8BA ====

Содержание индексной карты (.CUE)

REM GENRE WorldREM DATE 2017REM DISCID 8E0D7C0AREM COMMENT "ExactAudioCopy v1.0b4"PERFORMER "Vieux Farka Tourй"TITLE "Samba"FILE "01 Bonheur.wav" WAVE  TRACK 01 AUDIO    TITLE "Bonheur"    PERFORMER "Vieux Farka Tourй"    FLAGS DCP    INDEX 01 00:00:00FILE "02 Mariam (feat. Idan Raichel).wav" WAVE  TRACK 02 AUDIO    TITLE "Mariam (feat. Idan Raichel)"    PERFORMER "Vieux Farka Tourй"    FLAGS DCP    INDEX 01 00:00:00FILE "03 Ba Kaitere.wav" WAVE  TRACK 03 AUDIO    TITLE "Ba Kaitere"    PERFORMER "Vieux Farka Tourй"    FLAGS DCP    INDEX 01 00:00:00FILE "04 Samba Si Kairi.wav" WAVE  TRACK 04 AUDIO    TITLE "Samba Si Kairi"    PERFORMER "Vieux Farka Tourй"    FLAGS DCP    INDEX 01 00:00:00FILE "05 Homafu Wawa.wav" WAVE  TRACK 05 AUDIO    TITLE "Homafu Wawa"    PERFORMER "Vieux Farka Tourй"    FLAGS DCP    INDEX 01 00:00:00FILE "06 Maya (feat. Idan Raichel).wav" WAVE  TRACK 06 AUDIO    TITLE "Maya (feat. Idan Raichel)"    PERFORMER "Vieux Farka Tourй"    FLAGS DCP    INDEX 01 00:00:00FILE "07 Nature.wav" WAVE  TRACK 07 AUDIO    TITLE "Nature"    PERFORMER "Vieux Farka Tourй"    FLAGS DCP    INDEX 01 00:00:00FILE "08 Reconnaissance.wav" WAVE  TRACK 08 AUDIO    TITLE "Reconnaissance"    PERFORMER "Vieux Farka Tourй"    FLAGS DCP    INDEX 01 00:00:00FILE "09 Ouaga.wav" WAVE  TRACK 09 AUDIO    TITLE "Ouaga"    PERFORMER "Vieux Farka Tourй"    FLAGS DCP    INDEX 01 00:00:00FILE "10 Ni Negaba.wav" WAVE  TRACK 10 AUDIO    TITLE "Ni Negaba"    PERFORMER "Vieux Farka Tourй"    FLAGS DCP    INDEX 01 00:00:00

[doutdess.info].t282899.torrent
Торрент: Зарегистрирован [ 2018-08-07 22:15 ] · 8849D819A0F430A9E179D274CF6BCF2C7845213B

15 KB

Статус: проверено
Скачан: 0 раз
Размер: 366 MB
(Folk, World, & Country) [CD] Vieux Farka Toure - Samba - 2017, FLAC (tracks+.cue), lossless скачать торрент бесплатно и без регистрации

[Профиль] [ЛС]
Форум Тема Автор Размер
Фольклор, Народная и Этническая музыка собственные оцифровки (Folk, World & Country) [3LP] [24/96] The Nitty Gritty Dirt Band - Will The Circle Be Unbroken - 1972, FLAC (tracks+.cue) RelizMAN 2,29 GB
Фольклор, Народная и Этническая музыка собственные оцифровки (Folk, World & Country) [MC] [24/48] Veli-Matti Jarvenpaa - Sarkijarven Bolero/Veli-Matti Järvenpää - Särkijärven Bolero - 1992, FLAC (image+.cue) RelizMAN 512 MB
Этническая музыка Африки и Ближнего Востока lossless (Folk, World & Country, Ethnic Fusion, Rai) [CD] Cheikha Rimitti - N\'ta Goudami - 2005, FLAC (tracks+.cue), lossless RelizMAN 423 MB
Klezmer и Еврейский фольклор lossy и lossless (Folk, World music) Odessa Klezmer Orkesta - Meyn Shtetel Yas - 2002, MP3, 320 kbps RelizMAN 125 MB
Этническая музыка Африки и Ближнего Востока lossless (Folk, World Music) [CD] Alla & son luth errant - Zahra - 2002, FLAC (image+.cue), lossless RelizMAN 318 MB
Этническая музыка Африки и Ближнего Востока lossless (Folk, World Music) [CD] Alla - Foundou de Bechar (Foundou from Bechar) - 1993, FLAC (image+.cue), lossless RelizMAN 239 MB
Этническая музыка Африки и Ближнего Востока lossless (Folk, World Music) [CD] Alla - Taghit - 1994, FLAC (image+.cue), lossless RelizMAN 167 MB
Этническая музыка Африки и Ближнего Востока lossless (Folk, World Music) [CD] Alla - Tanakoul - 1996, FLAC (image+.cue), lossless RelizMAN 348 MB
Показать сообщения:    

Текущее время: 20-Мар 15:11

Часовой пояс: UTC + 3



Вы не можете начинать темы
Вы не можете отвечать на сообщения
Вы не можете редактировать свои сообщения
Вы не можете удалять свои сообщения
Вы не можете голосовать в опросах
Вы не можете прикреплять файлы к сообщениям
Вы можете скачивать файлы