Ответить на тему
Статистика раздачи [Обновить пиров]
Размер:  197 MB   |    Зарегистрирован:  7 месяцев 17 дней   |    Скачан:  1 раз
Сидов:  664  [  0 KB/s  ]   Личеров:  13  [  0 KB/s  ]  
 
     
 
 
Автор Сообщение

Vi$itReal ®

12

Создавать темы 08-Авг-2018 15:35

[Цитировать]

XXXTENTACION / ?
Жанр: Hip-Hop
Носитель: CD
Страна-производитель диска (релиза): USA
Год издания: 2018
Издатель (лейбл): Bad Vibes Forever
Номер по каталогу: 2812107276
Страна исполнителя (группы): USA
Аудиокодек: FLAC (*.flac)
Тип рипа: tracks+.cue
Битрейт аудио: lossless
Продолжительность: 00:37:36
Источник (релизер): Red [k1ng0]
Наличие сканов в содержимом раздачи: нет
Треклист:

01. Introduction (instructions) (01:57)
02. ALONE, PART 3 (01:49)
03. Moonlight (02:15)
04. SAD! (02:46)
05. the remedy for a broken heart (why am I so in love) (02:40)
06. Floor 555 (01:33)
07. NUMB (03:06)
08. infinity (888) (Feat. Joey Bada$$) (02:56)
09. going down! (01:55)
10. Pain = BESTFRIEND (Feat. Travis Barker) (01:41)
11. $$$ (With Matt OX) (02:10)
12. love yourself (interlude) (00:48)
13. SMASH! (Feat. PnB Rock) (01:49)
14. I don't even speak spanish lol (03:12)
15. changes (02:01)
16. Hope (01:50)
17. schizophrenia (01:20)
18. before I close my eyes (01:39)

Лог создания рипа

Exact Audio Copy V1.3 from 2. September 2016
EAC extraction logfile from 20. July 2018, 0:12
XXXTENTACION / ?
Used drive : HL-DT-STDVDRAM GH24NSB0 Adapter: 1 ID: 0
Read mode : SecureUtilize accurate stream : YesDefeat audio cache : YesMake use of C2 pointers : No
Read offset correction : 6Overread into Lead-In and Lead-Out : NoFill up missing offset samples with silence : YesDelete leading and trailing silent blocks : NoNull samples used in CRC calculations : YesUsed interface : Native Win32 interface for Win NT & 2000Gap handling : Appended to previous track
Used output format : User Defined EncoderSelected bitrate : 1024 kBit/sQuality : HighAdd ID3 tag : NoCommand line compressor : C:\Program Files (x86)\Exact Audio Copy\Flac\flac.exeAdditional command line options : -8 -e -p -V -T "ARTIST=%artist%" -T "TITLE=%title%" -T "ALBUM=%albumtitle%" -T "DATE=%year%" -T "TRACKNUMBER=%tracknr%" -T "GENRE=%genre%" -T "PERFORMER=%albuminterpret%" -T "COMPOSER=%composer%" %haslyrics%--tag-from-file=LYRICS="%lyricsfile%"%haslyrics% -T "ALBUMARTIST=%albumartist%" -T "DISCNUMBER=%cdnumber%" -T "TOTALDISCS=%totalcds%" -T "TOTALTRACKS=%numtracks%" -T "COMMENT=%comment%" %source% -o %dest%
TOC of the extracted CD
Track | Start | Length | Start sector | End sector --------------------------------------------------------- 1 | 0:00.13 | 1:57.36 | 13 | 8823 2 | 1:57.49 | 1:49.74 | 8824 | 17072 3 | 3:47.48 | 2:15.06 | 17073 | 27203 4 | 6:02.54 | 2:46.45 | 27204 | 39698 5 | 8:49.24 | 2:40.14 | 39699 | 51712 6 | 11:29.38 | 1:33.34 | 51713 | 58721 7 | 13:02.72 | 3:06.20 | 58722 | 72691 8 | 16:09.17 | 2:56.44 | 72692 | 85935 9 | 19:05.61 | 1:55.15 | 85936 | 94575 10 | 21:01.01 | 1:41.39 | 94576 | 102189 11 | 22:42.40 | 2:10.30 | 102190 | 111969 12 | 24:52.70 | 0:48.31 | 111970 | 115600 13 | 25:41.26 | 1:49.42 | 115601 | 123817 14 | 27:30.68 | 3:12.17 | 123818 | 138234 15 | 30:43.10 | 2:01.67 | 138235 | 147376 16 | 32:45.02 | 1:50.67 | 147377 | 155693 17 | 34:35.69 | 1:20.13 | 155694 | 161706 18 | 35:56.07 | 1:39.51 | 161707 | 169182
Track 1
Filename H:\EAC Rips 2\Xxxtentacion - ?(2018) [CD FLAC)\01 - XXXTENTACION - Introduction (instructions).wav
Pre-gap length 0:00:02.17
Peak level 100.0 % Extraction speed 0.8 X Track quality 100.0 % Test CRC 7E8D7E60 Copy CRC 7E8D7E60 Accurately ripped (confidence 1) [595DDC51] (AR v2) Copy OK
Track 2
Filename H:\EAC Rips 2\Xxxtentacion - ?(2018) [CD FLAC)\02 - XXXTENTACION - ALONE, PART 3.wav
Peak level 100.0 % Extraction speed 0.9 X Track quality 100.0 % Test CRC D3B6B1BC Copy CRC D3B6B1BC Accurately ripped (confidence 1) [FCDEBFEA] (AR v2) Copy OK
Track 3
Filename H:\EAC Rips 2\Xxxtentacion - ?(2018) [CD FLAC)\03 - XXXTENTACION - Moonlight.wav
Peak level 100.0 % Extraction speed 0.8 X Track quality 99.9 % Test CRC 7EDC2C65 Copy CRC 7EDC2C65 Accurately ripped (confidence 1) [4F4B5A45] (AR v2) Copy OK
Track 4
Filename H:\EAC Rips 2\Xxxtentacion - ?(2018) [CD FLAC)\04 - XXXTENTACION - SAD!.wav
Peak level 100.0 % Extraction speed 1.1 X Track quality 100.0 % Test CRC AFD2D4E0 Copy CRC AFD2D4E0 Accurately ripped (confidence 1) [32662CCE] (AR v2) Copy OK
Track 5
Filename H:\EAC Rips 2\Xxxtentacion - ?(2018) [CD FLAC)\05 - XXXTENTACION - the remedy for a broken heart (why am I so in love).wav
Peak level 85.0 % Extraction speed 1.1 X Track quality 100.0 % Test CRC 85F99C37 Copy CRC 85F99C37 Accurately ripped (confidence 1) [60AB95CD] (AR v2) Copy OK
Track 6
Filename H:\EAC Rips 2\Xxxtentacion - ?(2018) [CD FLAC)\06 - XXXTENTACION - Floor 555.wav
Peak level 100.0 % Extraction speed 1.0 X Track quality 100.0 % Test CRC 7FBFEFF3 Copy CRC 7FBFEFF3 Accurately ripped (confidence 1) [68B640F1] (AR v2) Copy OK
Track 7
Filename H:\EAC Rips 2\Xxxtentacion - ?(2018) [CD FLAC)\07 - XXXTENTACION - numb.wav
Peak level 100.0 % Extraction speed 1.1 X Track quality 99.9 % Test CRC 75DF4B6F Copy CRC 75DF4B6F Accurately ripped (confidence 1) [C489EA1D] (AR v2) Copy OK
Track 8
Filename H:\EAC Rips 2\Xxxtentacion - ?(2018) [CD FLAC)\08 - XXXTENTACION feat. Joey Bada$$ - infinity (888).wav
Peak level 85.1 % Extraction speed 1.1 X Track quality 99.9 % Test CRC 00F9EA3B Copy CRC 00F9EA3B Accurately ripped (confidence 1) [F889654F] (AR v2) Copy OK
Track 9
Filename H:\EAC Rips 2\Xxxtentacion - ?(2018) [CD FLAC)\09 - XXXTENTACION - going down!.wav
Peak level 100.0 % Extraction speed 1.0 X Track quality 99.9 % Test CRC 2357367A Copy CRC 2357367A Accurately ripped (confidence 1) [2F18C51B] (AR v2) Copy OK
Track 10
Filename H:\EAC Rips 2\Xxxtentacion - ?(2018) [CD FLAC)\10 - XXXTENTACION feat. Travis Barker - Pain = BESTFRIEND.wav
Peak level 100.0 % Extraction speed 1.2 X Track quality 100.0 % Test CRC 987D4316 Copy CRC 987D4316 Accurately ripped (confidence 1) [3178F679] (AR v2) Copy OK
Track 11
Filename H:\EAC Rips 2\Xxxtentacion - ?(2018) [CD FLAC)\11 - XXXTENTACION & MATT OX - $$$.wav
Peak level 100.0 % Extraction speed 1.4 X Track quality 100.0 % Test CRC C345FA03 Copy CRC C345FA03 Accurately ripped (confidence 1) [5EBA1577] (AR v2) Copy OK
Track 12
Filename H:\EAC Rips 2\Xxxtentacion - ?(2018) [CD FLAC)\12 - XXXTENTACION - love yourself (interlude).wav
Peak level 100.0 % Extraction speed 1.0 X Track quality 100.0 % Test CRC F16CC3D4 Copy CRC F16CC3D4 Accurately ripped (confidence 1) [27170F62] (AR v2) Copy OK
Track 13
Filename H:\EAC Rips 2\Xxxtentacion - ?(2018) [CD FLAC)\13 - XXXTENTACION feat. PnB Rock - SMASH!.wav
Peak level 100.0 % Extraction speed 1.1 X Track quality 99.9 % Test CRC 1B864370 Copy CRC 1B864370 Accurately ripped (confidence 1) [2960E281] (AR v2) Copy OK
Track 14
Filename H:\EAC Rips 2\Xxxtentacion - ?(2018) [CD FLAC)\14 - XXXTENTACION feat. Rio Santana, Judah, Carlos Andrez - I don’t even speak spanish lol.wav
Peak level 100.0 % Extraction speed 1.4 X Track quality 99.9 % Test CRC C67D1DF2 Copy CRC C67D1DF2 Accurately ripped (confidence 1) [07C21E84] (AR v2) Copy OK
Track 15
Filename H:\EAC Rips 2\Xxxtentacion - ?(2018) [CD FLAC)\15 - XXXTENTACION - changes.wav
Peak level 95.1 % Extraction speed 1.5 X Track quality 100.0 % Test CRC E2404E0D Copy CRC E2404E0D Accurately ripped (confidence 1) [AC7E6361] (AR v2) Copy OK
Track 16
Filename H:\EAC Rips 2\Xxxtentacion - ?(2018) [CD FLAC)\16 - XXXTENTACION - hope.wav
Peak level 100.0 % Extraction speed 1.2 X Track quality 99.9 % Test CRC F8BBB239 Copy CRC F8BBB239 Accurately ripped (confidence 1) [C9CF45F9] (AR v2) Copy OK
Track 17
Filename H:\EAC Rips 2\Xxxtentacion - ?(2018) [CD FLAC)\17 - XXXTENTACION - schizophrenia.wav
Peak level 100.0 % Extraction speed 1.4 X Track quality 100.0 % Test CRC 2F1E43B8 Copy CRC 2F1E43B8 Accurately ripped (confidence 1) [DF4C034E] (AR v2) Copy OK
Track 18
Filename H:\EAC Rips 2\Xxxtentacion - ?(2018) [CD FLAC)\18 - XXXTENTACION - before i close my eyes.wav
Peak level 85.1 % Extraction speed 1.5 X Track quality 100.0 % Test CRC A6E816A4 Copy CRC A6E816A4 Accurately ripped (confidence 1) [1BEB39D3] (AR v2) Copy OK
All tracks accurately ripped
No errors occurred
End of status report
---- CUETools DB Plugin V2.1.6
[CTDB TOCID: PAgxLNRIZPpIafKRSbKa8LIc5q4-] foundSubmit result: PAgxLNRIZPpIafKRSbKa8LIc5q4- has been confirmedTrack | CTDB Status 1 | (10/10) Accurately ripped 2 | (10/10) Accurately ripped 3 | (10/10) Accurately ripped 4 | (10/10) Accurately ripped 5 | (10/10) Accurately ripped 6 | (10/10) Accurately ripped 7 | (10/10) Accurately ripped 8 | (10/10) Accurately ripped 9 | (10/10) Accurately ripped 10 | (10/10) Accurately ripped 11 | (10/10) Accurately ripped 12 | (10/10) Accurately ripped 13 | (10/10) Accurately ripped 14 | (10/10) Accurately ripped 15 | (10/10) Accurately ripped 16 | (10/10) Accurately ripped 17 | (10/10) Accurately ripped 18 | (10/10) Accurately ripped
==== Log checksum 4FD4C9CA44BF9DE698BF34B3071762BEE09875913F757800D4A9F8C0ACF92300 ====

Содержание индексной карты (.CUE)

REM GENRE Hip-HopREM DATE 2018REM DISCID 0208CF12REM COMMENT "ExactAudioCopy v1.3"FILE "01 - XXXTENTACION - Introduction (instructions).wav" WAVE  TRACK 01 AUDIO    PREGAP 00:00:13    INDEX 01 00:00:00FILE "02 - XXXTENTACION - ALONE, PART 3.wav" WAVE  TRACK 02 AUDIO    INDEX 01 00:00:00FILE "03 - XXXTENTACION - Moonlight.wav" WAVE  TRACK 03 AUDIO    INDEX 01 00:00:00FILE "04 - XXXTENTACION - SAD!.wav" WAVE  TRACK 04 AUDIO    INDEX 01 00:00:00FILE "05 - XXXTENTACION - the remedy for a broken heart (why am I so in love).wav" WAVE  TRACK 05 AUDIO    INDEX 01 00:00:00FILE "06 - XXXTENTACION - Floor 555.wav" WAVE  TRACK 06 AUDIO    INDEX 01 00:00:00FILE "07 - XXXTENTACION - numb.wav" WAVE  TRACK 07 AUDIO    INDEX 01 00:00:00FILE "08 - XXXTENTACION feat. Joey Bada$$ - infinity (888).wav" WAVE  TRACK 08 AUDIO    INDEX 01 00:00:00FILE "09 - XXXTENTACION - going down!.wav" WAVE  TRACK 09 AUDIO    INDEX 01 00:00:00FILE "10 - XXXTENTACION feat. Travis Barker - Pain = BESTFRIEND.wav" WAVE  TRACK 10 AUDIO    INDEX 01 00:00:00FILE "11 - XXXTENTACION & MATT OX - $$$.wav" WAVE  TRACK 11 AUDIO    INDEX 01 00:00:00FILE "12 - XXXTENTACION - love yourself (interlude).wav" WAVE  TRACK 12 AUDIO    INDEX 01 00:00:00FILE "13 - XXXTENTACION feat. PnB Rock - SMASH!.wav" WAVE  TRACK 13 AUDIO    INDEX 01 00:00:00FILE "14 - XXXTENTACION feat. Rio Santana, Judah, Carlos Andrez - I don’t even speak spanish lol.wav" WAVE  TRACK 14 AUDIO    INDEX 01 00:00:00FILE "15 - XXXTENTACION - changes.wav" WAVE  TRACK 15 AUDIO    INDEX 01 00:00:00FILE "16 - XXXTENTACION - hope.wav" WAVE  TRACK 16 AUDIO    INDEX 01 00:00:00FILE "17 - XXXTENTACION - schizophrenia.wav" WAVE  TRACK 17 AUDIO    INDEX 01 00:00:00FILE "18 - XXXTENTACION - before i close my eyes.wav" WAVE  TRACK 18 AUDIO    INDEX 01 00:00:00

[doutdess.info].t282981.torrent
Торрент: Зарегистрирован [ 2018-08-08 15:35 ] · D361BB11B8DC7FA12CECF8C7C4555DED575DCA68

17 KB

Статус: проверено
Скачан: 1 раз
Размер: 197 MB
(Hip-Hop) [CD] XXXTENTACION - ? - 2018, FLAC (tracks+.cue), lossless скачать торрент бесплатно и без регистрации

[Профиль] [ЛС]
Форум Тема Автор Размер
Зарубежный Рэп, Хип-Хоп lossless (Hip-Hop) $uicideboy$ / SuicideboyS - Полная дискография (30 релизов) - 2014-2016, FLAC, lossless Vi$itReal 3,34 GB
Зарубежный Рэп, Хип-Хоп lossy (Hip-Hop) ¡MAYDAY! - Search Party - 2017, MP3, 320 kbps RelizMAN 144 MB
Отечественный Рэп, Хип-Хоп lossy (Hip-Hop) 104, Truwer - Сафари - 2017, MP3, 320 kbps RelizMAN 102 MB
Зарубежный Рэп, Хип-Хоп lossy (Hip-Hop) 2 Bal 2 Neg\' - 3x Plus Efficace - 1996, MP3, 320 kbps RelizMAN 173 MB
Зарубежный Рэп, Хип-Хоп lossy (Hip-Hop) 21 Savage - Полная дискография (4 релиза), MP3, 256-320 kbps - 2015-2016, MP3, 192-320 kbps RelizMAN 314 MB
Зарубежный Рэп, Хип-Хоп lossy (Hip-Hop) 24K - 2 альбома / 2 Albums - 1990-1992, MP3, 96-192 kbps RelizMAN 100 MB
Отечественный Рэп, Хип-Хоп lossy (Hip-Hop) 25/17 - Ева едет в Вавилон - 2017, MP3, 320 kbps RelizMAN 111 MB
Зарубежный Рэп, Хип-Хоп lossy (Hip-Hop) 3 Deep - Sucker Free EP - 1994, MP3, 320 kbps RelizMAN 62 MB
Показать сообщения:    

Текущее время: 25-Мар 21:36

Часовой пояс: UTC + 3



Вы не можете начинать темы
Вы не можете отвечать на сообщения
Вы не можете редактировать свои сообщения
Вы не можете удалять свои сообщения
Вы не можете голосовать в опросах
Вы не можете прикреплять файлы к сообщениям
Вы можете скачивать файлы