Ответить на тему
Статистика раздачи [Обновить пиров]
Размер:  485 MB   |    Зарегистрирован:  7 месяцев 10 дней   |    Скачан:  1 раз
Сидов:  375  [  0 KB/s  ]   Личеров:  31  [  0 KB/s  ]  
 
     
 
 
Автор Сообщение

Vi$itReal ®

12

Создавать темы 08-Авг-2018 15:35

[Цитировать]

Drake / Scorpion Жанр: Hip-Hop
Носитель: CD
Страна-производитель диска (релиза): Canada
Год издания: 2018
Издатель (лейбл): Young Money / Cash Money
Номер по каталогу: B002882802
Страна исполнителя (группы): Canada
Аудиокодек: FLAC (*.flac)
Тип рипа: tracks+.cue
Битрейт аудио: lossless
Продолжительность: 01:30:01
Источник (релизер): Red
Наличие сканов в содержимом раздачи: нет

Disc 1 (41:12)

01. Survival (02:16)
02. Nonstop (03:58)
03. Elevate (03:04)
04. Emotionless (05:02)
05. God's Plan (03:18)
06. I'm Upset (03:34)
07. 8 Out Of 10 (03:15)
08. Mob Ties (03:25)
09. Can't Take a Joke (02:43)
10. Sandra's Rose (03:36)
11. Talk Up (feat. JAY-Z) (03:15)
12. Is There More (03:46)

Лог создания рипа

X Lossless Decoder version 20161007 (149.3)
XLD extraction logfile from 2018-07-15 12:37:46 -0700
Drake / Scorpion [Disc 1]
Used drive : Apple SuperDrive (revision 2.03)Media type : Pressed CD
Ripper mode : XLD Secure RipperDisable audio cache : OK for the drive with a cache less than 1375KiBMake use of C2 pointers : NORead offset correction : 6Max retry count : 100Gap status : Analyzed, Appended (except HTOA)
TOC of the extracted CD Track | Start | Length | Start sector | End sector --------------------------------------------------------- 1 | 00:00:00 | 02:16:14 | 0 | 10213 2 | 02:16:14 | 03:58:46 | 10214 | 28109 3 | 06:14:60 | 03:04:72 | 28110 | 41981 4 | 09:19:57 | 05:02:13 | 41982 | 64644 5 | 14:21:70 | 03:18:73 | 64645 | 79567 6 | 17:40:68 | 03:34:35 | 79568 | 95652 7 | 21:15:28 | 03:15:54 | 95653 | 110331 8 | 24:31:07 | 03:25:11 | 110332 | 125717 9 | 27:56:18 | 02:43:73 | 125718 | 138015 10 | 30:40:16 | 03:36:25 | 138016 | 154240 11 | 34:16:41 | 03:43:18 | 154241 | 170983 12 | 37:59:59 | 03:46:68 | 170984 | 188001
AccurateRip Summary Disc not found in AccurateRip DB.
All Tracks Album gain : -7.77 dB Peak : 1.000000 Statistics Read error : 0 Jitter error (maybe fixed) : 0 Retry sector count : 0 Damaged sector count : 0
Track 01 Filename : /rips/Drake - Scorpion [Disc 1] (2018) [FLAC (level 8)]/01 Survival.flac Pre-gap length : 00:02:00
Track gain : -5.72 dB Peak : 0.989655 CRC32 hash (test run) : 4DC0A6D3 CRC32 hash : 4DC0A6D3 CRC32 hash (skip zero) : 8C947F2F AccurateRip v1 signature : 380B597B AccurateRip v2 signature : 9C6BE2C5 ->Track not present in AccurateRip database. Statistics Read error : 0 Jitter error (maybe fixed) : 0 Retry sector count : 0 Damaged sector count : 0
Track 02 Filename : /rips/Drake - Scorpion [Disc 1] (2018) [FLAC (level 8)]/02 Nonstop.flac
Track gain : -6.81 dB Peak : 0.989655 CRC32 hash (test run) : 5BE8ECAB CRC32 hash : 5BE8ECAB CRC32 hash (skip zero) : FBF73832 AccurateRip v1 signature : 66064CD5 AccurateRip v2 signature : A1A11953 ->Track not present in AccurateRip database. Statistics Read error : 0 Jitter error (maybe fixed) : 0 Retry sector count : 0 Damaged sector count : 0
Track 03 Filename : /rips/Drake - Scorpion [Disc 1] (2018) [FLAC (level 8)]/03 Elevate.flac
Track gain : -4.54 dB Peak : 0.989655 CRC32 hash (test run) : BF8CF5D4 CRC32 hash : BF8CF5D4 CRC32 hash (skip zero) : E6AF7B13 AccurateRip v1 signature : E5B84BFA AccurateRip v2 signature : 38E61CBD ->Track not present in AccurateRip database. Statistics Read error : 0 Jitter error (maybe fixed) : 0 Retry sector count : 0 Damaged sector count : 0
Track 04 Filename : /rips/Drake - Scorpion [Disc 1] (2018) [FLAC (level 8)]/04 Emotionless.flac
Track gain : -8.87 dB Peak : 0.989655 CRC32 hash (test run) : 409F6169 CRC32 hash : 409F6169 CRC32 hash (skip zero) : 035A9749 AccurateRip v1 signature : 07DA8874 AccurateRip v2 signature : FD05F7D9 ->Track not present in AccurateRip database. Statistics Read error : 0 Jitter error (maybe fixed) : 0 Retry sector count : 0 Damaged sector count : 0
Track 05 Filename : /rips/Drake - Scorpion [Disc 1] (2018) [FLAC (level 8)]/05 God's Plan.flac
Track gain : -5.39 dB Peak : 0.989655 CRC32 hash (test run) : 431BB3CE CRC32 hash : 431BB3CE CRC32 hash (skip zero) : 5D5FB43B AccurateRip v1 signature : 60B90B0B AccurateRip v2 signature : A3067777 ->Track not present in AccurateRip database. Statistics Read error : 0 Jitter error (maybe fixed) : 0 Retry sector count : 0 Damaged sector count : 0
Track 06 Filename : /rips/Drake - Scorpion [Disc 1] (2018) [FLAC (level 8)]/06 I'm Upset.flac
Track gain : -7.66 dB Peak : 0.989655 CRC32 hash (test run) : B83581BE CRC32 hash : B83581BE CRC32 hash (skip zero) : F8F8A619 AccurateRip v1 signature : CD231078 AccurateRip v2 signature : 8C512B72 ->Track not present in AccurateRip database. Statistics Read error : 0 Jitter error (maybe fixed) : 0 Retry sector count : 0 Damaged sector count : 0
Track 07 Filename : /rips/Drake - Scorpion [Disc 1] (2018) [FLAC (level 8)]/07 8 Out Of 10.flac
Track gain : -7.43 dB Peak : 0.989655 CRC32 hash (test run) : 79A15AA2 CRC32 hash : 79A15AA2 CRC32 hash (skip zero) : F92FC58A AccurateRip v1 signature : 5612B17A AccurateRip v2 signature : AB8209FE ->Track not present in AccurateRip database. Statistics Read error : 0 Jitter error (maybe fixed) : 0 Retry sector count : 0 Damaged sector count : 0
Track 08 Filename : /rips/Drake - Scorpion [Disc 1] (2018) [FLAC (level 8)]/08 Mob Ties.flac
Track gain : -7.07 dB Peak : 1.000000 CRC32 hash (test run) : D3420294 CRC32 hash : D3420294 CRC32 hash (skip zero) : A39FF859 AccurateRip v1 signature : 850B6DBD AccurateRip v2 signature : 45E5BEE7 ->Track not present in AccurateRip database. Statistics Read error : 0 Jitter error (maybe fixed) : 0 Retry sector count : 0 Damaged sector count : 0
Track 09 Filename : /rips/Drake - Scorpion [Disc 1] (2018) [FLAC (level 8)]/09 Can't Take A Joke.flac
Track gain : -6.64 dB Peak : 1.000000 CRC32 hash (test run) : 8C65748E CRC32 hash : 8C65748E CRC32 hash (skip zero) : FDA80955 AccurateRip v1 signature : 5B70FD61 AccurateRip v2 signature : D61057D1 ->Track not present in AccurateRip database. Statistics Read error : 0 Jitter error (maybe fixed) : 0 Retry sector count : 0 Damaged sector count : 0
Track 10 Filename : /rips/Drake - Scorpion [Disc 1] (2018) [FLAC (level 8)]/10 Sandra's Rose.flac
Track gain : -8.55 dB Peak : 0.989655 CRC32 hash (test run) : 8FD5539A CRC32 hash : 8FD5539A CRC32 hash (skip zero) : 4A00F88B AccurateRip v1 signature : CBF29746 AccurateRip v2 signature : 11E82930 ->Track not present in AccurateRip database. Statistics Read error : 0 Jitter error (maybe fixed) : 0 Retry sector count : 0 Damaged sector count : 0
Track 11 Filename : /rips/Drake - Scorpion [Disc 1] (2018) [FLAC (level 8)]/11 Talk Up.flac
Track gain : -4.77 dB Peak : 0.989655 CRC32 hash (test run) : 5E308A99 CRC32 hash : 5E308A99 CRC32 hash (skip zero) : 72349F22 AccurateRip v1 signature : CC76F238 AccurateRip v2 signature : FB936285 ->Track not present in AccurateRip database. Statistics Read error : 0 Jitter error (maybe fixed) : 0 Retry sector count : 0 Damaged sector count : 0
Track 12 Filename : /rips/Drake - Scorpion [Disc 1] (2018) [FLAC (level 8)]/12 Is There More.flac
Track gain : -9.11 dB Peak : 0.989655 CRC32 hash (test run) : D202F915 CRC32 hash : D202F915 CRC32 hash (skip zero) : 4D6E6F1A AccurateRip v1 signature : 03788BF7 AccurateRip v2 signature : 1F9EBE6E ->Track not present in AccurateRip database. Statistics Read error : 0 Jitter error (maybe fixed) : 0 Retry sector count : 0 Damaged sector count : 0
No errors occurred
End of status report
-----BEGIN XLD SIGNATURE-----4DnjHsGNTYCpEmlEISWDyRIbt2qiECQ.nR7E4.J_li0xzwpx9qqhPTs9t7zhtFmHAB8M19CZIXnDzocjVBwTfOsAPInl0kmJBPSUSxq-----END XLD SIGNATURE-----

Содержание индексной карты (.CUE)

TITLE "Scorpion [Disc 1]"PERFORMER "Drake"CATALOG 0602567886242REM GENRE "Rap"REM DATE "2018"REM DISCNUMBER 1REM TOTALDISCS 2REM DISCID A509CA0CREM REPLAYGAIN_ALBUM_GAIN -7.77 dBREM REPLAYGAIN_ALBUM_PEAK 1.000000FILE "01 Survival.flac" WAVE  TRACK 01 AUDIO    TITLE "Survival"    ISRC USCM51800189    FLAGS DCP    REM REPLAYGAIN_TRACK_GAIN -5.72 dB    REM REPLAYGAIN_TRACK_PEAK 0.989655    INDEX 01 00:00:00FILE "02 Nonstop.flac" WAVE  TRACK 02 AUDIO    TITLE "Nonstop"    ISRC USCM51800191    FLAGS DCP    REM REPLAYGAIN_TRACK_GAIN -6.81 dB    REM REPLAYGAIN_TRACK_PEAK 0.989655    INDEX 01 00:00:00FILE "03 Elevate.flac" WAVE  TRACK 03 AUDIO    TITLE "Elevate"    ISRC USCM51800196    FLAGS DCP    REM REPLAYGAIN_TRACK_GAIN -4.54 dB    REM REPLAYGAIN_TRACK_PEAK 0.989655    INDEX 01 00:00:00FILE "04 Emotionless.flac" WAVE  TRACK 04 AUDIO    TITLE "Emotionless"    ISRC USCM51800199    FLAGS DCP    REM REPLAYGAIN_TRACK_GAIN -8.87 dB    REM REPLAYGAIN_TRACK_PEAK 0.989655    INDEX 01 00:00:00FILE "05 God's Plan.flac" WAVE  TRACK 05 AUDIO    TITLE "God's Plan"    ISRC USCM51800004    FLAGS DCP    REM REPLAYGAIN_TRACK_GAIN -5.39 dB    REM REPLAYGAIN_TRACK_PEAK 0.989655    INDEX 01 00:00:00FILE "06 I'm Upset.flac" WAVE  TRACK 06 AUDIO    TITLE "I'm Upset"    ISRC USCM51800121    FLAGS DCP    REM REPLAYGAIN_TRACK_GAIN -7.66 dB    REM REPLAYGAIN_TRACK_PEAK 0.989655    INDEX 01 00:00:00FILE "07 8 Out Of 10.flac" WAVE  TRACK 07 AUDIO    TITLE "8 Out Of 10"    ISRC USCM51800202    FLAGS DCP    REM REPLAYGAIN_TRACK_GAIN -7.43 dB    REM REPLAYGAIN_TRACK_PEAK 0.989655    INDEX 01 00:00:00FILE "08 Mob Ties.flac" WAVE  TRACK 08 AUDIO    TITLE "Mob Ties"    ISRC USCM51800211    FLAGS DCP    REM REPLAYGAIN_TRACK_GAIN -7.07 dB    REM REPLAYGAIN_TRACK_PEAK 1.000000    INDEX 01 00:00:00FILE "09 Can't Take A Joke.flac" WAVE  TRACK 09 AUDIO    TITLE "Can't Take A Joke"    ISRC USCM51800215    FLAGS DCP    REM REPLAYGAIN_TRACK_GAIN -6.64 dB    REM REPLAYGAIN_TRACK_PEAK 1.000000    INDEX 01 00:00:00FILE "10 Sandra's Rose.flac" WAVE  TRACK 10 AUDIO    TITLE "Sandra's Rose"    ISRC USCM51800218    FLAGS DCP    REM REPLAYGAIN_TRACK_GAIN -8.55 dB    REM REPLAYGAIN_TRACK_PEAK 0.989655    INDEX 01 00:00:00FILE "11 Talk Up.flac" WAVE  TRACK 11 AUDIO    TITLE "Talk Up"    ISRC USCM51800232    FLAGS DCP    REM REPLAYGAIN_TRACK_GAIN -4.77 dB    REM REPLAYGAIN_TRACK_PEAK 0.989655    INDEX 01 00:00:00FILE "12 Is There More.flac" WAVE  TRACK 12 AUDIO    TITLE "Is There More"    ISRC USCM51800209    FLAGS DCP    REM REPLAYGAIN_TRACK_GAIN -9.11 dB    REM REPLAYGAIN_TRACK_PEAK 0.989655    INDEX 01 00:00:00

Disc 2 (48:32)

01. Peak (03:26)
02. Summer Games (04:07)
03. Jaded (04:22)
04. Nice For What (03:30)
05. Finesse (03:02)
06. Ratchet Happy Birthday (03:27)
07. That's How You Feel (02:37)
08. Blue Tint (02:42)
09. In My Feelings (03:37)
10. Don't Matter To Me (feat. Michael Jackson) (04:05)
11. After Dark (feat. Static Major & Ty Dolla $ign) (04:49)
12. Final Fantasy (03:39)
13. March 14 (05:09)

Лог создания рипа

X Lossless Decoder version 20161007 (149.3)
XLD extraction logfile from 2018-07-15 13:10:30 -0700
Various Artists / Scorpion [Disc 2]
Used drive : Apple SuperDrive (revision 2.03)Media type : Pressed CD
Ripper mode : XLD Secure RipperDisable audio cache : OK for the drive with a cache less than 1375KiBMake use of C2 pointers : NORead offset correction : 6Max retry count : 100Gap status : Analyzed, Appended (except HTOA)
TOC of the extracted CD Track | Start | Length | Start sector | End sector --------------------------------------------------------- 1 | 00:00:00 | 03:26:02 | 0 | 15451 2 | 03:26:02 | 04:07:67 | 15452 | 34043 3 | 07:33:69 | 04:22:34 | 34044 | 53727 4 | 11:56:28 | 03:30:56 | 53728 | 69533 5 | 15:27:09 | 03:02:06 | 69534 | 83189 6 | 18:29:15 | 03:27:23 | 83190 | 98737 7 | 21:56:38 | 02:37:45 | 98738 | 110557 8 | 24:34:08 | 02:42:60 | 110558 | 122767 9 | 27:16:68 | 03:37:70 | 122768 | 139112 10 | 30:54:63 | 04:05:59 | 139113 | 157546 11 | 35:00:47 | 04:49:42 | 157547 | 179263 12 | 39:50:14 | 03:39:72 | 179264 | 195760 13 | 43:30:11 | 05:09:42 | 195761 | 218977
AccurateRip Summary Disc not found in AccurateRip DB.
All Tracks Album gain : -5.82 dB Peak : 1.000000 Statistics Read error : 0 Jitter error (maybe fixed) : 0 Retry sector count : 0 Damaged sector count : 0
Track 01 Filename : /rips/Compilations - Scorpion [Disc 2] (2018) [FLAC (level 8)]/01 Peak.flac Pre-gap length : 00:02:00
Track gain : -6.53 dB Peak : 0.989655 CRC32 hash (test run) : E9E1E04D CRC32 hash : E9E1E04D CRC32 hash (skip zero) : 00090624 AccurateRip v1 signature : DEBFA3B4 AccurateRip v2 signature : 3CF32126 ->Track not present in AccurateRip database. Statistics Read error : 0 Jitter error (maybe fixed) : 0 Retry sector count : 0 Damaged sector count : 0
Track 02 Filename : /rips/Compilations - Scorpion [Disc 2] (2018) [FLAC (level 8)]/02 Summer Games.flac
Track gain : -4.93 dB Peak : 0.989655 CRC32 hash (test run) : 380B6067 CRC32 hash : 380B6067 CRC32 hash (skip zero) : FE5C8C35 AccurateRip v1 signature : 52411E1B AccurateRip v2 signature : 5746F431 ->Track not present in AccurateRip database. Statistics Read error : 0 Jitter error (maybe fixed) : 0 Retry sector count : 0 Damaged sector count : 0
Track 03 Filename : /rips/Compilations - Scorpion [Disc 2] (2018) [FLAC (level 8)]/03 Jaded.flac
Track gain : -6.42 dB Peak : 1.000000 CRC32 hash (test run) : 8A09E096 CRC32 hash : 8A09E096 CRC32 hash (skip zero) : 7B4EFE45 AccurateRip v1 signature : 39A653E2 AccurateRip v2 signature : 66899A42 ->Track not present in AccurateRip database. Statistics Read error : 0 Jitter error (maybe fixed) : 0 Retry sector count : 0 Damaged sector count : 0
Track 04 Filename : /rips/Compilations - Scorpion [Disc 2] (2018) [FLAC (level 8)]/04 Nice For What.flac
Track gain : -7.21 dB Peak : 0.989655 CRC32 hash (test run) : 15D6C4C8 CRC32 hash : 15D6C4C8 CRC32 hash (skip zero) : F0BA2ACA AccurateRip v1 signature : 6B01C687 AccurateRip v2 signature : D26FC808 ->Track not present in AccurateRip database. Statistics Read error : 0 Jitter error (maybe fixed) : 0 Retry sector count : 0 Damaged sector count : 0
Track 05 Filename : /rips/Compilations - Scorpion [Disc 2] (2018) [FLAC (level 8)]/05 Finesse.flac
Track gain : -4.92 dB Peak : 0.989655 CRC32 hash (test run) : 54467307 CRC32 hash : 54467307 CRC32 hash (skip zero) : E7B36362 AccurateRip v1 signature : 4D0B3548 AccurateRip v2 signature : 54F636A9 ->Track not present in AccurateRip database. Statistics Read error : 0 Jitter error (maybe fixed) : 0 Retry sector count : 0 Damaged sector count : 0
Track 06 Filename : /rips/Compilations - Scorpion [Disc 2] (2018) [FLAC (level 8)]/06 Ratchet Happy Birthday.flac
Track gain : -5.96 dB Peak : 0.989655 CRC32 hash (test run) : BC682B2D CRC32 hash : BC682B2D CRC32 hash (skip zero) : 212E9538 AccurateRip v1 signature : C8859565 AccurateRip v2 signature : 6B6B4C1D ->Track not present in AccurateRip database. Statistics Read error : 0 Jitter error (maybe fixed) : 0 Retry sector count : 0 Damaged sector count : 0
Track 07 Filename : /rips/Compilations - Scorpion [Disc 2] (2018) [FLAC (level 8)]/07 That's How You Feel.flac
Track gain : -7.05 dB Peak : 0.989655 CRC32 hash (test run) : 27C20F47 CRC32 hash : 27C20F47 CRC32 hash (skip zero) : 9358FA06 AccurateRip v1 signature : 7106F79C AccurateRip v2 signature : 5612DFE5 ->Track not present in AccurateRip database. Statistics Read error : 0 Jitter error (maybe fixed) : 0 Retry sector count : 0 Damaged sector count : 0
Track 08 Filename : /rips/Compilations - Scorpion [Disc 2] (2018) [FLAC (level 8)]/08 Blue Tint.flac
Track gain : -7.25 dB Peak : 1.000000 CRC32 hash (test run) : B463010D CRC32 hash : B463010D CRC32 hash (skip zero) : 1A55B10B AccurateRip v1 signature : F123582B AccurateRip v2 signature : C71736AC ->Track not present in AccurateRip database. Statistics Read error : 0 Jitter error (maybe fixed) : 0 Retry sector count : 0 Damaged sector count : 0
Track 09 Filename : /rips/Compilations - Scorpion [Disc 2] (2018) [FLAC (level 8)]/09 In My Feelings.flac
Track gain : -7.38 dB Peak : 1.000000 CRC32 hash (test run) : 0FA9AF5E CRC32 hash : 0FA9AF5E CRC32 hash (skip zero) : 553386DB AccurateRip v1 signature : 5CAE01C9 AccurateRip v2 signature : F64470D3 ->Track not present in AccurateRip database. Statistics Read error : 0 Jitter error (maybe fixed) : 0 Retry sector count : 0 Damaged sector count : 0
Track 10 Filename : /rips/Compilations - Scorpion [Disc 2] (2018) [FLAC (level 8)]/10 Don't Matter To Me.flac
Track gain : -3.93 dB Peak : 0.995239 CRC32 hash (test run) : C4C3CC1B CRC32 hash : C4C3CC1B CRC32 hash (skip zero) : 6CA935EA AccurateRip v1 signature : C1553BE6 AccurateRip v2 signature : 29F66AE5 ->Track not present in AccurateRip database. Statistics Read error : 0 Jitter error (maybe fixed) : 0 Retry sector count : 0 Damaged sector count : 0
Track 11 Filename : /rips/Compilations - Scorpion [Disc 2] (2018) [FLAC (level 8)]/11 After Dark.flac
Track gain : -2.85 dB Peak : 1.000000 CRC32 hash (test run) : 70A6800E CRC32 hash : 70A6800E CRC32 hash (skip zero) : 73CBED35 AccurateRip v1 signature : 847F21C4 AccurateRip v2 signature : E2D55EB0 ->Track not present in AccurateRip database. Statistics Read error : 0 Jitter error (maybe fixed) : 0 Retry sector count : 0 Damaged sector count : 0
Track 12 Filename : /rips/Compilations - Scorpion [Disc 2] (2018) [FLAC (level 8)]/12 Final Fantasy.flac
Track gain : -6.97 dB Peak : 0.989655 CRC32 hash (test run) : 991CA2CF CRC32 hash : 991CA2CF CRC32 hash (skip zero) : 6E6EA6CB AccurateRip v1 signature : DBD67259 AccurateRip v2 signature : 18B045ED ->Track not present in AccurateRip database. Statistics Read error : 0 Jitter error (maybe fixed) : 0 Retry sector count : 0 Damaged sector count : 0
Track 13 Filename : /rips/Compilations - Scorpion [Disc 2] (2018) [FLAC (level 8)]/13 March 14.flac
Track gain : -6.31 dB Peak : 0.989655 CRC32 hash (test run) : 9243A9AD CRC32 hash : 9243A9AD CRC32 hash (skip zero) : 4220CA1F AccurateRip v1 signature : A0E1B602 AccurateRip v2 signature : B4E2C856 ->Track not present in AccurateRip database. Statistics Read error : 0 Jitter error (maybe fixed) : 0 Retry sector count : 0 Damaged sector count : 0
No errors occurred
End of status report
-----BEGIN XLD SIGNATURE-----JWZ1iW84mpqmfIsWsfSITQ5vdXSzKVdWXT5pWZhvgOVRwEEMalL5esKcnLV2uGcsXmE15UspNLHwhbEal6CHmll7zoPQR5rI0sBhxd8-----END XLD SIGNATURE-----

Содержание индексной карты (.CUE)

TITLE "Scorpion [Disc 2]"CATALOG 0602567886259REM GENRE "Rap"REM DATE "2018"REM DISCNUMBER 2REM TOTALDISCS 2REM DISCID A70B670DREM REPLAYGAIN_ALBUM_GAIN -5.82 dBREM REPLAYGAIN_ALBUM_PEAK 1.000000REM COMPILATION TRUEFILE "01 Peak.flac" WAVE  TRACK 01 AUDIO    TITLE "Peak"    PERFORMER "Drake"    ISRC USCM51800220    FLAGS DCP    REM REPLAYGAIN_TRACK_GAIN -6.53 dB    REM REPLAYGAIN_TRACK_PEAK 0.989655    INDEX 01 00:00:00FILE "02 Summer Games.flac" WAVE  TRACK 02 AUDIO    TITLE "Summer Games"    PERFORMER "Drake"    ISRC USCM51800224    FLAGS DCP    REM REPLAYGAIN_TRACK_GAIN -4.93 dB    REM REPLAYGAIN_TRACK_PEAK 0.989655    INDEX 01 00:00:00FILE "03 Jaded.flac" WAVE  TRACK 03 AUDIO    TITLE "Jaded"    PERFORMER "Drake"    ISRC USCM51800227    FLAGS DCP    REM REPLAYGAIN_TRACK_GAIN -6.42 dB    REM REPLAYGAIN_TRACK_PEAK 1.000000    INDEX 01 00:00:00FILE "04 Nice For What.flac" WAVE  TRACK 04 AUDIO    TITLE "Nice For What"    PERFORMER "Drake"    ISRC USCM51800077    FLAGS DCP    REM REPLAYGAIN_TRACK_GAIN -7.21 dB    REM REPLAYGAIN_TRACK_PEAK 0.989655    INDEX 01 00:00:00FILE "05 Finesse.flac" WAVE  TRACK 05 AUDIO    TITLE "Finesse"    PERFORMER "Drake"    ISRC USCM51800225    FLAGS DCP    REM REPLAYGAIN_TRACK_GAIN -4.92 dB    REM REPLAYGAIN_TRACK_PEAK 0.989655    INDEX 01 00:00:00FILE "06 Ratchet Happy Birthday.flac" WAVE  TRACK 06 AUDIO    TITLE "Ratchet Happy Birthday"    PERFORMER "Drake"    ISRC USCM51800188    FLAGS DCP    REM REPLAYGAIN_TRACK_GAIN -5.96 dB    REM REPLAYGAIN_TRACK_PEAK 0.989655    INDEX 01 00:00:00FILE "07 That's How You Feel.flac" WAVE  TRACK 07 AUDIO    TITLE "That's How You Feel"    PERFORMER "Drake"    ISRC USCM51800195    FLAGS DCP    REM REPLAYGAIN_TRACK_GAIN -7.05 dB    REM REPLAYGAIN_TRACK_PEAK 0.989655    INDEX 01 00:00:00FILE "08 Blue Tint.flac" WAVE  TRACK 08 AUDIO    TITLE "Blue Tint"    PERFORMER "Drake"    ISRC USCM51800201    FLAGS DCP    REM REPLAYGAIN_TRACK_GAIN -7.25 dB    REM REPLAYGAIN_TRACK_PEAK 1.000000    INDEX 01 00:00:00FILE "09 In My Feelings.flac" WAVE  TRACK 09 AUDIO    TITLE "In My Feelings"    PERFORMER "Drake"    ISRC USCM51800206    FLAGS DCP    REM REPLAYGAIN_TRACK_GAIN -7.38 dB    REM REPLAYGAIN_TRACK_PEAK 1.000000    INDEX 01 00:00:00FILE "10 Don't Matter To Me.flac" WAVE  TRACK 10 AUDIO    TITLE "Don't Matter To Me"    PERFORMER "Drake Feat. Michael Jackson"    ISRC USCM51800208    FLAGS DCP    REM REPLAYGAIN_TRACK_GAIN -3.93 dB    REM REPLAYGAIN_TRACK_PEAK 0.995239    INDEX 01 00:00:00FILE "11 After Dark.flac" WAVE  TRACK 11 AUDIO    TITLE "After Dark"    PERFORMER "Drake Feat. Static Major & Ty Dolla $Ign"    ISRC USCM51800213    FLAGS DCP    REM REPLAYGAIN_TRACK_GAIN -2.85 dB    REM REPLAYGAIN_TRACK_PEAK 1.000000    INDEX 01 00:00:00FILE "12 Final Fantasy.flac" WAVE  TRACK 12 AUDIO    TITLE "Final Fantasy"    PERFORMER "Drake"    ISRC USCM51800217    FLAGS DCP    REM REPLAYGAIN_TRACK_GAIN -6.97 dB    REM REPLAYGAIN_TRACK_PEAK 0.989655    INDEX 01 00:00:00FILE "13 March 14.flac" WAVE  TRACK 13 AUDIO    TITLE "March 14"    PERFORMER "Drake"    ISRC USCM51800222    FLAGS DCP    REM REPLAYGAIN_TRACK_GAIN -6.31 dB    REM REPLAYGAIN_TRACK_PEAK 0.989655    INDEX 01 00:00:00

[doutdess.info].t282982.torrent
Торрент: Зарегистрирован [ 2018-08-08 15:35 ] · 2C8E0CEEC03FB8E3331D9D3200768392EEA3A614

22 KB

Статус: проверено
Скачан: 1 раз
Размер: 485 MB
(Hip-Hop) [CD] Drake - Scorpion - 2018, FLAC (tracks+.cue), lossless скачать торрент бесплатно и без регистрации

[Профиль] [ЛС]
Форум Тема Автор Размер
Зарубежный Рэп, Хип-Хоп lossless (Hip-Hop) $uicideboy$ / SuicideboyS - Полная дискография (30 релизов) - 2014-2016, FLAC, lossless Vi$itReal 3,34 GB
Зарубежный Рэп, Хип-Хоп lossy (Hip-Hop) ¡MAYDAY! - Search Party - 2017, MP3, 320 kbps RelizMAN 144 MB
Отечественный Рэп, Хип-Хоп lossy (Hip-Hop) 104, Truwer - Сафари - 2017, MP3, 320 kbps RelizMAN 102 MB
Зарубежный Рэп, Хип-Хоп lossy (Hip-Hop) 2 Bal 2 Neg\' - 3x Plus Efficace - 1996, MP3, 320 kbps RelizMAN 173 MB
Зарубежный Рэп, Хип-Хоп lossy (Hip-Hop) 21 Savage - Полная дискография (4 релиза), MP3, 256-320 kbps - 2015-2016, MP3, 192-320 kbps RelizMAN 314 MB
Зарубежный Рэп, Хип-Хоп lossy (Hip-Hop) 24K - 2 альбома / 2 Albums - 1990-1992, MP3, 96-192 kbps RelizMAN 100 MB
Отечественный Рэп, Хип-Хоп lossy (Hip-Hop) 25/17 - Ева едет в Вавилон - 2017, MP3, 320 kbps RelizMAN 111 MB
Зарубежный Рэп, Хип-Хоп lossy (Hip-Hop) 3 Deep - Sucker Free EP - 1994, MP3, 320 kbps RelizMAN 62 MB
Показать сообщения:    

Текущее время: 18-Мар 20:41

Часовой пояс: UTC + 3



Вы не можете начинать темы
Вы не можете отвечать на сообщения
Вы не можете редактировать свои сообщения
Вы не можете удалять свои сообщения
Вы не можете голосовать в опросах
Вы не можете прикреплять файлы к сообщениям
Вы можете скачивать файлы