Reply to topic
DL-List and Torrent activity [Update пиров]
Size:  283 MB   |    Registered:  3 years 8 months   |    Completed:  1 time
Seeders:  253  [  0 KB/s  ]   Leechers:  38  [  0 KB/s  ]  
 
     
 
 
Author Message

RelizMAN ®

11

Post 05-Oct-2015 14:30

[Quote]

Jon Gomm - Live In The Acoustic Asylum
Жанр: Acoustic Guitar / New Age
Носитель: CD
Год издания: 2015
Издатель: Performing Chimp Records
Страна исполнителя: UK
Аудиокодек: FLAC (*.flac)
Тип рипа: tracks+.cue
Битрейт аудио: lossless
Продолжительность: 00:52:59
Источник: Scene Release (FLaKJaX)
Наличие сканов в содержимом раздачи: нет
Треклист:
01. Stupid Blues 04:31
02. Gloria 06:45
03. What's Left For You? 05:01
04. Afterglow 04:32
05. Hey Child 07:10
06. Temporary 04:49
07. Orville 05:56
08. The Weather Machine 08:15
09. High And Dry 05:59

Лог создания рипа

Exact Audio Copy V1.1 from 23. June 2015
EAC extraction logfile from 21. September 2015, 12:16
Jon Gomm / Live In The Acoustic Asylum
Used drive : ATAPI iHAS524 B Adapter: 1 ID: 0
Read mode : SecureUtilize accurate stream : YesDefeat audio cache : NoMake use of C2 pointers : Yes
Read offset correction : 6Overread into Lead-In and Lead-Out : NoFill up missing offset samples with silence : YesDelete leading and trailing silent blocks : NoNull samples used in CRC calculations : YesUsed interface : Native Win32 interface for Win NT & 2000Gap handling : Not detected, thus appended to previous track
Used output format : User Defined EncoderSelected bitrate : 896 kBit/sQuality : HighAdd ID3 tag : NoCommand line compressor : C:\Program Files (x86)\FLAC 1.2.1\flac.exeAdditional command line options : -8 -V -T "ARTIST=%artist%" -T "TITLE=%title%" -T "ALBUM=%albumtitle%" -T "DATE=%year%" -T "GENRE=%genre%" -T "COMMENT=%comment%" %source% -o %dest%
TOC of the extracted CD
Track | Start | Length | Start sector | End sector --------------------------------------------------------- 1 | 0:00.00 | 4:30.73 | 0 | 20322 2 | 4:30.73 | 6:45.10 | 20323 | 50707 3 | 11:16.08 | 5:00.65 | 50708 | 73272 4 | 16:16.73 | 4:32.35 | 73273 | 93707 5 | 20:49.33 | 7:10.24 | 93708 | 125981 6 | 27:59.57 | 4:48.70 | 125982 | 147651 7 | 32:48.52 | 5:55.46 | 147652 | 174322 8 | 38:44.23 | 8:15.26 | 174323 | 211473 9 | 46:59.49 | 5:59.17 | 211474 | 238415
Track 1
Filename D:\FLACDUMP\01-Jon Gomm-Stupid Blues.wav
Peak level 89.6 % Extraction speed 6.0 X Track quality 100.0 % Test CRC 472907B2 Copy CRC 472907B2 Track not present in AccurateRip database Copy OK
Track 2
Filename D:\FLACDUMP\02-Jon Gomm-Gloria.wav
Peak level 89.5 % Extraction speed 7.2 X Track quality 100.0 % Test CRC DC647B90 Copy CRC DC647B90 Track not present in AccurateRip database Copy OK
Track 3
Filename D:\FLACDUMP\03-Jon Gomm-What's Left For You.wav
Peak level 89.7 % Extraction speed 7.9 X Track quality 100.0 % Test CRC A84E36CC Copy CRC A84E36CC Track not present in AccurateRip database Copy OK
Track 4
Filename D:\FLACDUMP\04-Jon Gomm-Afterglow.wav
Peak level 89.5 % Extraction speed 7.5 X Track quality 99.9 % Test CRC B1438791 Copy CRC B1438791 Track not present in AccurateRip database Copy OK
Track 5
Filename D:\FLACDUMP\05-Jon Gomm-Hey Child.wav
Peak level 91.3 % Extraction speed 9.5 X Track quality 100.0 % Test CRC B6CC101F Copy CRC B6CC101F Track not present in AccurateRip database Copy OK
Track 6
Filename D:\FLACDUMP\06-Jon Gomm-Temporary.wav
Peak level 90.0 % Extraction speed 10.0 X Track quality 100.0 % Test CRC 53BC74A6 Copy CRC 53BC74A6 Track not present in AccurateRip database Copy OK
Track 7
Filename D:\FLACDUMP\07-Jon Gomm-Orville (The Secret Of Learning To Fly Is Forgetting To Hit The Ground).wav
Peak level 90.4 % Extraction speed 9.6 X Track quality 99.9 % Test CRC 09B8A0C2 Copy CRC 09B8A0C2 Track not present in AccurateRip database Copy OK
Track 8
Filename D:\FLACDUMP\08-Jon Gomm-The Weather Machine.wav
Peak level 89.5 % Extraction speed 11.5 X Track quality 100.0 % Test CRC 0633F480 Copy CRC 0633F480 Track not present in AccurateRip database Copy OK
Track 9
Filename D:\FLACDUMP\09-Jon Gomm-High And Dry.wav
Peak level 89.2 % Extraction speed 11.9 X Track quality 100.0 % Test CRC 8066A370 Copy CRC 8066A370 Track not present in AccurateRip database Copy OK
None of the tracks are present in the AccurateRip database
No errors occurred
End of status report
==== Log checksum 593C74F9402ADCF8C8D71CCEA5CC8A6E35ECF66B5DDE2C6BAB862BB0F8A454E2 ====

(.CUE)

REM GENRE AcousticREM DATE 2015REM COMMENT Scene Release FLaKJaXPERFORMER "Jon Gomm"TITLE "Live In The Acoustic Asylum"FILE "01 - Stupid Blues.flac" WAVE TRACK 01 AUDIO TITLE "Stupid Blues" PERFORMER "Jon Gomm" INDEX 01 00:00:00FILE "02 - Gloria.flac" WAVE TRACK 02 AUDIO TITLE "Gloria" PERFORMER "Jon Gomm" INDEX 01 00:00:00FILE "03 - What_s Left For You.flac" WAVE TRACK 03 AUDIO TITLE "What's Left For You?" PERFORMER "Jon Gomm" INDEX 01 00:00:00FILE "04 - Afterglow.flac" WAVE TRACK 04 AUDIO TITLE "Afterglow" PERFORMER "Jon Gomm" INDEX 01 00:00:00FILE "05 - Hey Child.flac" WAVE TRACK 05 AUDIO TITLE "Hey Child" PERFORMER "Jon Gomm" INDEX 01 00:00:00FILE "06 - Temporary.flac" WAVE TRACK 06 AUDIO TITLE "Temporary" PERFORMER "Jon Gomm" INDEX 01 00:00:00FILE "07 - Orville.flac" WAVE TRACK 07 AUDIO TITLE "Orville (The Secret Of Learning To Fly Is Forgetting To Hit The Ground)" PERFORMER "Jon Gomm" INDEX 01 00:00:00FILE "08 - The Weather Machine.flac" WAVE TRACK 08 AUDIO TITLE "The Weather Machine" PERFORMER "Jon Gomm" INDEX 01 00:00:00FILE "09 - High And Dry.flac" WAVE TRACK 09 AUDIO TITLE "High And Dry" PERFORMER "Jon Gomm" INDEX 01 00:00:00
Сводка 100,00% CDDA
111287428

Лог проверки качества

AUDIOCHECKER v2.0 beta (build 457) - by Dester - [email protected]~~~~~~~~~~~~~~~~~~~~~~~~~~~~~~~~~~-=== НЕ РЕДАКТИРУЙТЕ ЭТОТ ФАЙЛ! ===-
Путь: ...\Jon Gomm - Live In The Acoustic Asylum (2015)
1 -=- 01 - Stupid Blues.flac -=- CDDA (100%)2 -=- 02 - Gloria.flac -=- CDDA (100%)3 -=- 03 - What_s Left For You.flac -=- CDDA (100%)4 -=- 04 - Afterglow.flac -=- CDDA (100%)5 -=- 05 - Hey Child.flac -=- CDDA (100%)6 -=- 06 - Temporary.flac -=- CDDA (100%)7 -=- 07 - Orville.flac -=- CDDA (100%)8 -=- 08 - The Weather Machine.flac -=- CDDA (100%)9 -=- 09 - High And Dry.flac -=- CDDA (100%)
Сводка 100,00% CDDA
111287428

Об исполнителе

http://www.jongomm.com/

[doutdess.info].t81185.torrent
Torrent: Registered [ 2015-10-05 14:30 ] · 1705BD34D341230FA91AF0A1E01D67B9823E2D69

12 KB

Status: checked
Completed: 1 times
Size: 283 MB
(Acoustic Guitar / New Age) [CD] Jon Gomm - Live In The Acoustic Asylum - 2015, FLAC (tracks+.cue), lossless скачать торрент бесплатно и без регистрации

[Profile] [PM]
Forum Topic Author Size
Фламенко и акустическая гитара lossless (Acoustic / Classical Guitar) Joao Bastos - Viagens - 2007, FLAC (image+.cue), lossless RelizMAN 220 MB
Западноевропейский фолк в lossless (Acoustic / Contemporary Folk / Chamber Jazz / World Music) [WEB] Aurélié Dorzée [Aurelie Dorzee] & Tom Theuns ft. Michel Massot - Elixir - 2019, FLAC (tracks), lossless Vi$itReal 321 MB
Фламенко и акустическая гитара lossy (Acoustic / Flamenco / Classical Guitar) Rodrigo Y Gabriela - Mettavolution - 2019 - 2019, MP3 (tracks), 320 kbps Vi$itReal 107 MB
Западноевропейский фолк lossy (Acoustic / Indie / Folk-Rock) Amy Macdonald - Under Stars - 2017, MP3, 320 kbps RelizMAN 152 MB
Авторская песня lossy (Acoustic / Indie / Rock / Electronic) Sita G - Дискография (1 Album + 1 EP + 1 Single) - 2015-2017, MP3, 320 kbps Vi$itReal 157 MB
Фламенко и акустическая гитара lossy (Acoustic / New Age) Pierre Bensusan - Solilai - 1982, MP3, 128 kbps Vi$itReal 38 MB
Отечественный реггей, даб lossy и lossless (Acoustic / Reggae / Dub / Rock) VA - Это не рок-н-ролл: трибьют Олди и Комитету Охраны Тепла - 2013, MP3 (tracks) 320 kbps Vi$itReal 278 MB
Отечественный реггей, даб lossy и lossless (Acoustic / Reggae) Зарисовка - Дискография (4 альбома+сингл) - 2008-2014, MP3 (tracks), 256-320 kbps Vi$itReal 468 MB
Display posts:    

Current time is: 24-Jun 18:30

All times are UTC + 3



You cannot post new topics in this forum
You cannot reply to topics in this forum
You cannot edit your posts in this forum
You cannot delete your posts in this forum
You cannot vote in polls in this forum
You cannot attach files in this forum
You can download files in this forum