Ответить на тему
Статистика раздачи [Обновить пиров]
Размер:  3,49 GB   |    Зарегистрирован:  7 месяцев 11 дней   |    Скачан:  1 раз
Сидов:  537  [  0 KB/s  ]   Личеров:  11  [  0 KB/s  ]  
 
     
 
 
Автор Сообщение

RelizMAN ®

11

Создавать темы 08-Авг-2018 15:35

[Цитировать]

Rick Stotijn, Swedish Radio Orchestra / Basso Bailando
Формат записи/Источник записи: [SACD-R][OF]
Наличие водяных знаков: Нет
Год издания/переиздания диска: 2014
Жанр: Classical
Издатель (лейбл): Channel Classics Records
Продолжительность: 01:11:51
Наличие сканов в содержимом раздачи: Буклет PDF
Треклист:
Piazzólla: Cuarto Estaciones Porteñas 27:37
Swedish Radio Symphony Orchestra, Malin Broman, Rick Stotijn
01. Invierno Porteño 7:56
02. Otoño Porteño 7:21
03. Primavera Porteño 5:04
04. Verano Porteño 7:16
Rota, N: Divertimento concertante for double-bass and orchestra 25:28
Swedish Radio Symphony Orchestra, Rick Stotijn
05. I. Allegro 9:52
06. II. Aria 4:00
07. III. Marcia 6:25
08. IV. Finale 5:11
Falla: Siete Canciones populares españolas 12:50
Swedish Radio Symphony Orchestra, Lavinia Meijer, Rick Stotijn
09. El paño moruno 1:22
10. Asturiana 2:41
11. Jota 3:12
12. Nana 2:36
13. Canción 1:30
14. Polo 1:29
Контейнер: ISO (*.iso)
Тип рипа: image
Разрядность: 64(2,8 MHz/1 Bit)
Формат: DTS
Количество каналов: 5.1 + 2.0

BackCover

Лог проверки качества

foobar2000 1.3.17 / Dynamic Range Meter 1.1.1log date: 2018-05-18 16:28:51
--------------------------------------------------------------------------------Analyzed: Rick Stotijn, Swedish Radio Orchestra / Basso Bailando--------------------------------------------------------------------------------
DR Peak RMS Duration Track--------------------------------------------------------------------------------DR15 -7.14 dB -30.02 dB 7:50 01-Piazzolla - Otono PortenoDR15 -8.05 dB -30.11 dB 7:21 02-Piazzolla - Invierno PortenoDR15 -6.55 dB -28.47 dB 5:02 03-Piazzolla - Primavera PortenaDR13 -8.62 dB -28.30 dB 7:08 04-Piazzolla - Verano PortenoDR16 -8.83 dB -33.02 dB 9:48 05-Rota - AllegroDR14 -11.25 dB -32.95 dB 3:56 06-Rota - MarciaDR13 -14.45 dB -35.83 dB 6:21 07-Rota - AriaDR16 -8.72 dB -33.73 dB 5:08 08-Rota - FinaleDR13 -8.00 dB -28.36 dB 1:20 09-de Falla - El Pano MorunoDR13 -23.34 dB -42.50 dB 2:40 10-de Falla - AsturianaDR12 -8.45 dB -30.03 dB 3:08 11-de Falla - JotaDR12 -18.88 dB -40.07 dB 2:34 12-de Falla - NanaDR11 -10.95 dB -31.46 dB 1:29 13-de Falla - CancionDR13 -10.59 dB -29.38 dB 1:28 14-de Falla - Polo--------------------------------------------------------------------------------
Number of tracks: 14Official DR value: DR14
Samplerate: 2822400 Hz / PCM Samplerate: 88200 HzChannels: 5Bits per sample: 1Bitrate: 14112 kbpsCodec: DST64================================================================================
--------------------------------------------------------------------------------Analyzed: Rick Stotijn, Swedish Radio Orchestra / Basso Bailando--------------------------------------------------------------------------------
DR Peak RMS Duration Track--------------------------------------------------------------------------------DR16 -4.51 dB -26.55 dB 7:50 01-Piazzolla - Otono PortenoDR14 -6.50 dB -26.67 dB 7:22 02-Piazzolla - Invierno PortenoDR14 -5.39 dB -24.63 dB 5:02 03-Piazzolla - Primavera PortenaDR13 -4.88 dB -24.27 dB 7:09 04-Piazzolla - Verano PortenoDR16 -6.45 dB -29.89 dB 9:46 05-Rota - AllegroDR14 -9.16 dB -29.60 dB 3:55 06-Rota - MarciaDR13 -11.95 dB -32.41 dB 6:21 07-Rota - AriaDR17 -5.54 dB -30.39 dB 5:07 08-Rota - FinaleDR12 -8.06 dB -25.02 dB 1:20 09-de Falla - El Pano MorunoDR13 -19.62 dB -39.13 dB 2:38 10-de Falla - AsturianaDR12 -8.64 dB -27.59 dB 3:09 11-de Falla - JotaDR12 -18.33 dB -37.59 dB 2:35 12-de Falla - NanaDR11 -11.20 dB -28.49 dB 1:29 13-de Falla - CancionDR12 -7.77 dB -24.02 dB 1:28 14-de Falla - Polo--------------------------------------------------------------------------------
Number of tracks: 14Official DR value: DR13
Samplerate: 2822400 Hz / PCM Samplerate: 88200 HzChannels: 2Bits per sample: 1Bitrate: 5645 kbpsCodec: DST64================================================================================
Доп. информация:
https://www.amazon.com/Basso-Bailando-Double-Bass-Concertos/dp/B00GNM6S5K
https://www.prestoclassical.co.uk/classical/products/8038000--basso-bailando
Источник (релизер): собственный рип
Оркестр: Swedish Radio Orchestra
Композитор: Astor Piazzolla, Nino Rota, Manuel de Falla
Performers: Rick Stotijn (double bass), Malin Broman (violin) & Lavinia Meijer (harp)

[doutdess.info].t282980.torrent
Торрент: Зарегистрирован [ 2018-08-08 15:35 ] · FC635972772A634D1E690BCB12ABF06EF102B244

36 KB

Статус: проверено
Скачан: 1 раз
Размер: 3,49 GB
[SACD-R][OF] Basso Bailando (Rick Stotijn, Swedish Radio Orchestra) - 2014 (Classical) скачать торрент бесплатно и без регистрации

[Профиль] [ЛС]
Форум Тема Автор Размер
Hi-Res stereo классика и классика в современной обработке [SACD-R][OF] (Andre) André Cluytens, Orchestre de la Société des Concerts du Concervatoire - Georges Bizet: L\'Arlésienne Suites Nos. 1 & 2, Carmen Suite - 1965/2011... Vi$itReal 1,84 GB
Hi-Res stereo классика и классика в современной обработке [SACD-R][OF] (Classical, Double Bass, Organ) Gary Karr - Adagio D\'Albinoni - 2014 (Beethoven, Franck, Handel, J.S. Bach) - 2014 Vi$itReal 1,64 GB
Многоканальная музыка классика и классика в современной обработке [SACD-R][OF] (Parkanyi Quartet) Párkányi Quartet - Claude Debussy & Maurice Ravel: String Quartets - 2004 (Classical; Chamber; Strings) RelizMAN 2,92 GB
Многоканальная музыка классика и классика в современной обработке [SACD-R][OF] (Prazak) Pražák Quartet - Дмитрий Шостакович / Dmitri Shostakovich: String Quartets No. 14 & 15 - 2014 (Classical; Chamber; Strings) RelizMAN 3,88 GB
Многоканальная музыка классика и классика в современной обработке [SACD-R][OF] Alan Civil, Sir Neville Marriner, Academy St. Martin in The Fields - Mozart: The 4 Horn Concertos - 1972/2002 (Orchestral, Horn) RelizMAN 3,22 GB
Hi-Res stereo классика и классика в современной обработке [SACD-R][OF] Alban Berg Quartett - Haydn: Emperor Quartet, Mozart: Hunt Quartet - 2014 (Classical; Chamber) Vi$itReal 2,13 GB
Многоканальная музыка классика и классика в современной обработке [SACD-R][OF] Alexei & Michael Utkins / Алексей и Михаил Уткины, Hermitage Chamber Orchestra / Камерный Оркестр "Эрмитаж" - Dimitry Shostakovich: Preludes & Ballet Suites - 2006... RelizMAN 3,32 GB
Многоканальная музыка классика и классика в современной обработке [SACD-R][OF] Alexei Utkin / Алексей Уткин, Hermitage Chamber Orchestra / Камерный Оркестр "Эрмитаж" - Benjamin Britten: The Complete Works for Oboe - 2004 (Chamber) RelizMAN 2,62 GB
Показать сообщения:    

Текущее время: 20-Мар 14:08

Часовой пояс: UTC + 3



Вы не можете начинать темы
Вы не можете отвечать на сообщения
Вы не можете редактировать свои сообщения
Вы не можете удалять свои сообщения
Вы не можете голосовать в опросах
Вы не можете прикреплять файлы к сообщениям
Вы можете скачивать файлы