Ответить на тему
Статистика раздачи [Обновить пиров]
Размер:  1,02 GB   |    Зарегистрирован:  7 месяцев 11 дней   |    Скачан:  0 раз
Сидов:  558  [  0 KB/s  ]   Личеров:  11  [  0 KB/s  ]  
 
     
 
 
Автор Сообщение

Vi$itReal ®

12

Создавать темы 07-Авг-2018 17:55

[Цитировать]

Labirinti Armonici - Bonporti: Sonatas Nos. 1 - 10, Op. 2 for 2 violins and B.C.-- Формат записи/Источник записи: [TR24][OF]
Наличие водяных знаков: Нет
Год издания: 2018
Жанр: Classical, Baroque
Издатель (лейбл): Brilliant Classics
Продолжительность: 00:57:00
Наличие сканов в содержимом раздачи: Буклет PDF
Контейнер: FLAC (*.flac)
Тип рипа: tracks
Разрядность: 24/88,2
Формат: PCM
Количество каналов: 2.0
Источник (релизер): prestoclassical.co.uk

Треклист:

Sonata No.8 in C
1. I. Preludio
2. II. Allemanda
3. III. Adagio
4. IV. Gavotta
Sonata No.6 in A minor
5. I. Preludio
6. II. Corrente
7. III. Sarabanda
8. IV. Gavotta
Sonata No.3 in F
9. I. Preludio. Allemanda
10. II. Corrente
11. III. Grave
12. IV. Giga
Sonata No.9 in B flat
13. I. Preludio
14. II. Allemanda
15. III. Sarabanda
16. IV. Giga
Sonata No.2 in E minor
17. I. Preludio
18. II. Allemanda
19. III. Corrente
20. IV. Gavotta
Sonata No.7 in B minor
21. I. Preludio
22. II. Allemanda
23. III. Adagio
24. IV. Giga
Sonata No.5 in E
25. I. Preludio
26. II. Allemanda
27. III. Sarabanda
28. IV. Giga
Sonata No.4 in A
29. I. Preludio
30. II. Allemanda
31. III. Corrente
32. IV. Gavotta
Sonata No.1 in D
33. I. Preludio
34. II. Allemanda
35. III. Staccato e Adagissimo
36. IV. Giga
37. Sonata No.10 in G – Ciaccona

Исполнители:

LABIRINTI ARMONICI:
Andrea Ferroni - violin
Josef Höhn - violin
Ivo Brigadoi - cello
Andreas Benedikter - harpsichord and organ

Лог проверки качества

foobar2000 1.4 / Dynamic Range Meter 1.1.1log date: 2018-08-06 16:38:06
--------------------------------------------------------------------------------Analyzed: Labirinti Armonici / Bonporti: Sonatas, Op. 2 for 2 Violins and B.C.--------------------------------------------------------------------------------
DR Peak RMS Duration Track--------------------------------------------------------------------------------DR12 -5.17 dB -20.40 dB 1:21 01-Sonata No. 8 in C Major, Op. 2: I. PreludioDR11 -3.70 dB -19.39 dB 1:19 02-Sonata No. 8 in C Major, Op. 2: II. AllemandaDR10 -6.84 dB -20.77 dB 0:51 03-Sonata No. 8 in C Major, Op. 2: III. AdagioDR13 -3.70 dB -20.61 dB 1:11 04-Sonata No. 8 in C Major, Op. 2: IV. GavottaDR11 -1.26 dB -17.41 dB 1:16 05-Sonata No. 6 in A Minor, Op. 2: I. PreludioDR12 -3.54 dB -18.22 dB 1:29 06-Sonata No. 6 in A Minor, Op. 2: II. CorrenteDR12 -5.60 dB -21.50 dB 1:29 07-Sonata No. 6 in A Minor, Op. 2: III. SarabandaDR13 -4.09 dB -20.25 dB 1:16 08-Sonata No. 6 in A Minor, Op. 2: IV. GavottaDR12 -2.02 dB -17.51 dB 2:48 09-Sonata No. 3 in F Major, Op. 2: I. Preludio. AllemandaDR12 -1.36 dB -17.97 dB 1:45 10-Sonata No. 3 in F Major, Op. 2: II. CorrenteDR12 -1.61 dB -18.62 dB 0:59 11-Sonata No. 3 in F Major, Op. 2: III. GraveDR13 -1.79 dB -17.81 dB 1:28 12-Sonata No. 3 in F Major, Op. 2: IV. GigaDR11 -4.89 dB -19.11 dB 1:03 13-Sonata No. 9 in B-Flat Major, Op. 2: I. PreludioDR12 -4.14 dB -18.83 dB 1:43 14-Sonata No. 9 in B-Flat Major, Op. 2: II. AllemandaDR12 -4.07 dB -20.17 dB 1:18 15-Sonata No. 9 in B-Flat Major, Op. 2: III. SarabandaDR13 -3.09 dB -19.92 dB 1:51 16-Sonata No. 9 in B-Flat Major, Op. 2: IV. GigaDR11 -4.81 dB -19.83 dB 1:39 17-Sonata No. 2 in E Minor, Op. 2: I. PreludioDR12 -3.00 dB -18.79 dB 1:46 18-Sonata No. 2 in E Minor, Op. 2: II. AllemandaDR12 -2.72 dB -18.25 dB 1:37 19-Sonata No. 2 in E Minor, Op. 2: III. CorrenteDR12 -4.63 dB -19.67 dB 1:33 20-Sonata No. 2 in E Minor, Op. 2: IV. GavottaDR11 -1.75 dB -17.94 dB 1:26 21-Sonata No. 7 in B Minor, Op. 2: I. PreludioDR12 -2.95 dB -17.25 dB 2:30 22-Sonata No. 7 in B Minor, Op. 2: II. AllemandaDR11 -3.87 dB -19.04 dB 0:49 23-Sonata No. 7 in B Minor, Op. 2: III. AdagioDR12 -3.23 dB -18.38 dB 2:01 24-Sonata No. 7 in B Minor, Op. 2: IV. GigaDR11 -2.31 dB -19.70 dB 1:28 25-Sonata No. 5 in E Major, Op. 2: I. PreludioDR13 -3.25 dB -18.59 dB 1:59 26-Sonata No. 5 in E Major, Op. 2: II. AllemandaDR11 -7.10 dB -21.98 dB 1:21 27-Sonata No. 5 in E Major, Op. 2: III. SarabandaDR13 -2.20 dB -19.20 dB 1:51 28-Sonata No. 5 in E Major, Op. 2: IV. GigaDR12 -1.19 dB -17.06 dB 0:50 29-Sonata No. 4 in A Major, Op. 2: I. PreludioDR12 -2.02 dB -17.38 dB 1:33 30-Sonata No. 4 in A Major, Op. 2: II. AllemandaDR12 -1.84 dB -17.73 dB 1:35 31-Sonata No. 4 in A Major, Op. 2: III. CorrenteDR12 -3.82 dB -19.62 dB 0:47 32-Sonata No. 4 in A Major, Op. 2: IV. GavottaDR12 -3.77 dB -18.89 dB 1:12 33-Sonata No. 1 in D Major, Op. 2: I. PreludioDR12 -3.28 dB -18.21 dB 2:13 34-Sonata No. 1 in D Major, Op. 2: II. AllemandaDR14 -2.18 dB -24.35 dB 1:25 35-Sonata No. 1 in D Major, Op. 2: III. Staccato e adagissimoDR13 -3.20 dB -18.65 dB 1:52 36-Sonata No. 1 in D Major, Op. 2: IV. GigaDR12 -3.47 dB -18.80 dB 3:27 37-Sonata No. 10 in G Major, Op. 2: I. Ciaccona--------------------------------------------------------------------------------
Number of tracks: 37Official DR value: DR12Samplerate: 88200 HzChannels: 2Bits per sample: 24Bitrate: 2510 kbpsCodec: FLAC================================================================================

Об альбоме (сборнике)

Francesco Bonporti (1672-1749) lived for the largest part of his life in Trento, his native town. He studied in Rome, and was influenced by Arcangelo Corelli, whose style of imitative counterpoint he invests with dramatic elements. His fame spread over Europe and the great Johann Sebastian Bach transcribed for harpsichord some of his violin sonatas.
The complete Sonatas for 2 Violins & B.C. Op. 2 consist of 4 dance movements, the allemande, corrente, sarabande and gigue or gavotte. The first violin is mainly predominant, the other two instruments usually providing the accompaniment. The faster movements require virtuoso skills from the performers while the slow movements flow in sensitive and slightly melancholy melodic lines.
The Italian group Labirinti Armonici specializes in the performance of undiscovered Baroque music, it consists of two violins, cello and harpsichord/organ.

[doutdess.info].t282871.torrent
Торрент: Зарегистрирован [ 2018-08-07 17:55 ] · 6391154C6B552C58DFFA44619E97CB21424C726D

14 KB

Статус: проверено
Скачан: 0 раз
Размер: 1,02 GB
[TR24][OF] Bonporti - Sonatas Op. 2 for 2 violins and B.C. (Labirinti Armonici) - 2018 (Classical, Baroque) скачать торрент бесплатно и без регистрации

[Профиль] [ЛС]
Форум Тема Автор Размер
Классика в современной обработке, Classical Crossover lossy и lossless [TR24][OF] (Hi-Res)Marion Treupel-Franck - Voice of the Soul - Flute Music by Jean Daniel Braun - 2017, FLAC (tracks) lossless, (Classical, Baroque Era) Vi$itReal 678 MB
Этническая музыка Индии lossless [TR24][OF] (Indian Classical, Sitar, World Music) [WEB] Anoushka Shankar - Home - 2015, FLAC (tracks), lossless RelizMAN 598 MB
Саундтреки к играм lossless [TR24][OF] (Score) [WEB] Sudden Strike 4 (Original Game Soundtrack) (by Peter Antovszki) - 2017, FLAC (tracks), lossless RelizMAN 424 MB
Hi-Res stereo и Многоканальная музыка Саундтреки [TR24][OF] 2Cellos - Score - 2017 (Symphonic Rock) RelizMAN 608 MB
Hi-Res stereo классика и классика в современной обработке [TR24][OF] A French Baroque Diva: Arias for Marie Fel by Rameau, Lacoste, Lalande, Rousseau, Fiocco, Mondonville (Carolyn Sampson, Ex Cathedra & Jeffrey Skidmore) - 2014 (Baroque, Opera, Vocal,... Vi$itReal 1,37 GB
Hi-Res stereo классика и классика в современной обработке [TR24][OF] A Sousa Celebration - Royal Scottish National Orchestra, Kristjan Jarvi - 2017 (Classical) Vi$itReal 1,21 GB
Hi-Res stereo классика и классика в современной обработке [TR24][OF] A Vaughan Williams Christmas - Chapel Choir Of The Royal Hospital Chelsea, William Vann - 2018 (Classical) Vi$itReal 1,18 GB
Hi-Res stereo классика и классика в современной обработке [TR24][OF] A. Vivaldi: Dorilla in Tempe, RV 709 (Romina Basso, Serena Malfi, Marina de Liso, Lucia Cirillo, Sonia Prina|Coro della Radiotelevisione Svizzera I Barocchisti, Diego Fasolis) - 2017... Vi$itReal 2,88 GB
Показать сообщения:    

Текущее время: 18-Мар 21:06

Часовой пояс: UTC + 3



Вы не можете начинать темы
Вы не можете отвечать на сообщения
Вы не можете редактировать свои сообщения
Вы не можете удалять свои сообщения
Вы не можете голосовать в опросах
Вы не можете прикреплять файлы к сообщениям
Вы можете скачивать файлы