Ответить на тему
Статистика раздачи [Обновить пиров]
Размер:  1,1 GB   |    Зарегистрирован:  7 месяцев 16 дней   |    Скачан:  1 раз
Сидов:  548  [  0 KB/s  ]   Личеров:  48  [  0 KB/s  ]  
 
     
 
 
Автор Сообщение

Vi$itReal ®

12

Создавать темы 09-Авг-2018 05:45

[Цитировать]

Svjatoslav Richter, Leningrad Philharmonic Orchestra, Yevgeny Mravinsky / Brahms - Piano Concerto No. 2 & Symphony No. 3
Формат записи/Источник записи: [SACD-R][OF]
Наличие водяных знаков: Нет
Год издания/переиздания диска: 2014
Жанр: Classical
Издатель (лейбл): Praga Digitals
Продолжительность: 01:17:51
Наличие сканов в содержимом раздачи: Только обложка альбома
Треклист:
Brahms: Piano Concerto No. 2 in B flat major, Op. 83
Leningrad Philharmonic Orchestra, Yevgeny Mravinsky, Svjatoslav Richter (piano)
recorded live in the Great Hall of the Leningrad Phiharmonic, December 27, 1961
01. I.Allegro non troppo
02. II.Allegro appassionato
03. III.Andante
04. IV.Allegretto grazioso
Brahms: Symphony No. 3 in F major, Op. 90
Leningrad Philharmonic Orchestra, Yevgeny Mravinsky
recorded live in the Great Hall of the Moscow Conservatory, January 27, 1972 - Gostelradiofond, Russian Federation
05. I.Allegro con brio
06. II.Andante
07. III.Poco allegretto
08. IV.Finale.Allegro
Контейнер: ISO (*.iso)
Тип рипа: image
Разрядность: 64(2,8 MHz/1 Bit)
Формат: DTS
Количество каналов: 2.0

BackCover

Лог проверки качества

foobar2000 1.3.17 / Dynamic Range Meter 1.1.1log date: 2018-05-18 19:30:03
--------------------------------------------------------------------------------Analyzed: Svjatoslav Richter, Leningrad Philharmonic, E.Mravinsky / Johannes Brahms:Piano Concerto No.2,Op.83 - Symphony No.3,Op.90--------------------------------------------------------------------------------
DR Peak RMS Duration Track--------------------------------------------------------------------------------DR12 -6.46 dB -23.82 dB 16:16 01-J. BRAHMS:Piano Concerto No.2 in B flat major, Op.83-I.Allegro non troppoDR11 -7.40 dB -22.17 dB 8:17 02-II.Allegro appassionatoDR14 -7.43 dB -28.36 dB 11:28 03-III.AndanteDR12 -6.99 dB -23.73 dB 8:56 04-IV.Allegretto graziosoDR13 -6.24 dB -25.31 dB 9:30 05-J. Brahms:Symphony No.3 in F major, Op.90-I.Allegro con brioDR15 -6.99 dB -28.36 dB 8:06 06-II.AndanteDR14 -7.67 dB -29.39 dB 6:01 07-III.Poco allegrettoDR12 -6.44 dB -23.56 dB 9:17 08-IV.Finale.Allegro--------------------------------------------------------------------------------
Number of tracks: 8Official DR value: DR13
Samplerate: 2822400 Hz / PCM Samplerate: 88200 HzChannels: 2Bits per sample: 1Bitrate: 5645 kbpsCodec: DST64================================================================================
Доп. информация:
http://www.pragadigitals.com/Svjatoslav-RICHTER-Yevgeny-MRAVINSKY-play-Brahms-pia...Symphony-no-3/en
https://www.amazon.com/Brahms-Piano-Concerto-No-2-Symphony/dp/B00FEMGCJW
https://www.prestoclassical.co.uk/classical/products/8036737--brahms-piano-concer...-2-symphony-no-3
Источник (релизер): собственный рип
Оркестр: Leningrad Philharmonic Orchestra
Композитор: Johannes Brahms
Дирижер: Yevgeny Mravinsky

[doutdess.info].t283183.torrent
Торрент: Зарегистрирован [ 2018-08-09 05:45 ] · B92958DFA5F3775D29E53699E14A502CC7270CC2

45 KB

Статус: проверено
Скачан: 1 раз
Размер: 1,1 GB
[SACD-R][OF] Brahms - Piano Concerto No. 2 & Symphony No. 3 (Svjatoslav Richter, Leningrad Philharmonic Orchestra, Yevgeny Mravinsky) - 2014 (Classical) скачать торрент бесплатно и без регистрации

[Профиль] [ЛС]
Форум Тема Автор Размер
Hi-Res stereo классика и классика в современной обработке [SACD-R][OF] (Andre) André Cluytens, Orchestre de la Société des Concerts du Concervatoire - Georges Bizet: L\'Arlésienne Suites Nos. 1 & 2, Carmen Suite - 1965/2011... Vi$itReal 1,84 GB
Hi-Res stereo классика и классика в современной обработке [SACD-R][OF] (Classical, Double Bass, Organ) Gary Karr - Adagio D\'Albinoni - 2014 (Beethoven, Franck, Handel, J.S. Bach) - 2014 Vi$itReal 1,64 GB
Многоканальная музыка классика и классика в современной обработке [SACD-R][OF] (Parkanyi Quartet) Párkányi Quartet - Claude Debussy & Maurice Ravel: String Quartets - 2004 (Classical; Chamber; Strings) RelizMAN 2,92 GB
Многоканальная музыка классика и классика в современной обработке [SACD-R][OF] (Prazak) Pražák Quartet - Дмитрий Шостакович / Dmitri Shostakovich: String Quartets No. 14 & 15 - 2014 (Classical; Chamber; Strings) RelizMAN 3,88 GB
Многоканальная музыка классика и классика в современной обработке [SACD-R][OF] Alan Civil, Sir Neville Marriner, Academy St. Martin in The Fields - Mozart: The 4 Horn Concertos - 1972/2002 (Orchestral, Horn) RelizMAN 3,22 GB
Hi-Res stereo классика и классика в современной обработке [SACD-R][OF] Alban Berg Quartett - Haydn: Emperor Quartet, Mozart: Hunt Quartet - 2014 (Classical; Chamber) Vi$itReal 2,13 GB
Многоканальная музыка классика и классика в современной обработке [SACD-R][OF] Alexei & Michael Utkins / Алексей и Михаил Уткины, Hermitage Chamber Orchestra / Камерный Оркестр "Эрмитаж" - Dimitry Shostakovich: Preludes & Ballet Suites - 2006... RelizMAN 3,32 GB
Многоканальная музыка классика и классика в современной обработке [SACD-R][OF] Alexei Utkin / Алексей Уткин, Hermitage Chamber Orchestra / Камерный Оркестр "Эрмитаж" - Benjamin Britten: The Complete Works for Oboe - 2004 (Chamber) RelizMAN 2,62 GB
Показать сообщения:    

Текущее время: 25-Мар 21:13

Часовой пояс: UTC + 3



Вы не можете начинать темы
Вы не можете отвечать на сообщения
Вы не можете редактировать свои сообщения
Вы не можете удалять свои сообщения
Вы не можете голосовать в опросах
Вы не можете прикреплять файлы к сообщениям
Вы можете скачивать файлы