Ответить на тему
Статистика раздачи [Обновить пиров]
Размер:  1,11 GB   |    Зарегистрирован:  7 месяцев 18 дней   |    Скачан:  1 раз
Сидов:  566  [  0 KB/s  ]   Личеров:  24  [  0 KB/s  ]  
 
     
 
 
Автор Сообщение

Vi$itReal ®

12

Создавать темы 07-Авг-2018 17:55

[Цитировать]

Leningrad Philharmonic Orchestra, Yevgeny Mravinsky / The Accomplishment Of The Romantic Symphony
Формат записи/Источник записи: [SACD-R][OF]
Наличие водяных знаков: Нет
Год издания/переиздания диска: 2015
Жанр: Classical
Издатель (лейбл): Praga Digitals
Продолжительность: 01:18:36
Наличие сканов в содержимом раздачи: Только обложка альбома
Треклист:
Brahms: Symphony No. 4 in E minor, Op. 98
Leningrad Philharmonic Orchestra, Yevgeny Mravinsky
1. Allegro non troppo
2. Andante moderato
3. Allegro giocoso
4. Allegro energico e passionato
Tchaikovsky: Symphony No. 5 in E minor, Op. 64
Leningrad Philharmonic Orchestra, Yevgeny Mravinsky
5. Andante - Allegro con anima
6. Andante cantabile
7. Valse
8. Finale. Andante maestoso
Контейнер: ISO (*.iso)
Тип рипа: image
Разрядность: 64(2,8 MHz/1 Bit)
Формат: DTS
Количество каналов: 2.0

BackCover

Лог проверки качества

foobar2000 1.3.17 / Dynamic Range Meter 1.1.1log date: 2018-05-18 18:32:01
--------------------------------------------------------------------------------Analyzed: Leningrad Philharmonic Orchestra,Yevgeny Mravinsky / THE TRIUMPH OF THE ROMANTIC SYMPHONY--------------------------------------------------------------------------------
DR Peak RMS Duration Track--------------------------------------------------------------------------------DR13 -6.62 dB -24.93 dB 12:10 01-J.BRAHMS:Symphony No.4 in E minor,Op.98-I.Allegro non troppoDR12 -7.39 dB -25.16 dB 9:51 02-II.Andante moderatoDR11 -6.67 dB -22.38 dB 5:54 03-III.Allegro giocoso-Poco meno presto-Tempo primoDR13 -6.74 dB -24.38 dB 9:43 04-IV.Allegro energico e passionato-Piu allegroDR12 -8.75 dB -26.32 dB 13:06 05-P.I.TCHAIKOVSKY:Symphony No.5 in E minor,Op.64-I.Andante-Allegro con animaDR11 -9.87 dB -26.82 dB 11:31 06-II.Andante cantabile, con alcuna licenzaDR13 -9.65 dB -28.78 dB 5:25 07-III.Valse:Allegro moderatoDR11 -7.94 dB -23.68 dB 10:55 08-IV.Finale:Andante maestoso--------------------------------------------------------------------------------
Number of tracks: 8Official DR value: DR12
Samplerate: 2822400 Hz / PCM Samplerate: 88200 HzChannels: 2Bits per sample: 1Bitrate: 5645 kbpsCodec: DST64================================================================================
Доп. информация:
http://www.pragadigitals.com/epages/265941.sf/en_US/?ObjectPath=/Shops/265941/Products/350111
https://www.amazon.com/Brahms-Symphony-No-4-Tchaikovsky-No-5/dp/B00Y3MP1SM/ref=sr...ky+brahms+4+sacd
https://www.prestoclassical.co.uk/classical/products/8077493--yevgeny-mravinsky-t...symphony-1885-88
Источник (релизер): собственный рип
Оркестр: Leningrad Philharmonic Orchestra
Композитор: Johannes Brahms, Pyotr Ilyich Tchaikovsky
Дирижер: Yevgeny Mravinsky

[doutdess.info].t282870.torrent
Торрент: Зарегистрирован [ 2018-08-07 17:55 ] · 017F6748529758B3A8E6FBCE7FEB8730F835D689

45 KB

Статус: проверено
Скачан: 1 раз
Размер: 1,11 GB
[SACD-R][OF] Brahms, Tchaikovsky - The Accomplishment Of The Romantic Symphony (Leningrad Philharmonic Orchestra, Yevgeny Mravinsky) - 2015 (Classical) скачать торрент бесплатно и без регистрации

[Профиль] [ЛС]
Форум Тема Автор Размер
Hi-Res stereo классика и классика в современной обработке [SACD-R][OF] (Andre) André Cluytens, Orchestre de la Société des Concerts du Concervatoire - Georges Bizet: L\'Arlésienne Suites Nos. 1 & 2, Carmen Suite - 1965/2011... Vi$itReal 1,84 GB
Hi-Res stereo классика и классика в современной обработке [SACD-R][OF] (Classical, Double Bass, Organ) Gary Karr - Adagio D\'Albinoni - 2014 (Beethoven, Franck, Handel, J.S. Bach) - 2014 Vi$itReal 1,64 GB
Многоканальная музыка классика и классика в современной обработке [SACD-R][OF] (Parkanyi Quartet) Párkányi Quartet - Claude Debussy & Maurice Ravel: String Quartets - 2004 (Classical; Chamber; Strings) RelizMAN 2,92 GB
Многоканальная музыка классика и классика в современной обработке [SACD-R][OF] (Prazak) Pražák Quartet - Дмитрий Шостакович / Dmitri Shostakovich: String Quartets No. 14 & 15 - 2014 (Classical; Chamber; Strings) RelizMAN 3,88 GB
Многоканальная музыка классика и классика в современной обработке [SACD-R][OF] Alan Civil, Sir Neville Marriner, Academy St. Martin in The Fields - Mozart: The 4 Horn Concertos - 1972/2002 (Orchestral, Horn) RelizMAN 3,22 GB
Hi-Res stereo классика и классика в современной обработке [SACD-R][OF] Alban Berg Quartett - Haydn: Emperor Quartet, Mozart: Hunt Quartet - 2014 (Classical; Chamber) Vi$itReal 2,13 GB
Многоканальная музыка классика и классика в современной обработке [SACD-R][OF] Alexei & Michael Utkins / Алексей и Михаил Уткины, Hermitage Chamber Orchestra / Камерный Оркестр "Эрмитаж" - Dimitry Shostakovich: Preludes & Ballet Suites - 2006... RelizMAN 3,32 GB
Многоканальная музыка классика и классика в современной обработке [SACD-R][OF] Alexei Utkin / Алексей Уткин, Hermitage Chamber Orchestra / Камерный Оркестр "Эрмитаж" - Benjamin Britten: The Complete Works for Oboe - 2004 (Chamber) RelizMAN 2,62 GB
Показать сообщения:    

Текущее время: 25-Мар 20:52

Часовой пояс: UTC + 3



Вы не можете начинать темы
Вы не можете отвечать на сообщения
Вы не можете редактировать свои сообщения
Вы не можете удалять свои сообщения
Вы не можете голосовать в опросах
Вы не можете прикреплять файлы к сообщениям
Вы можете скачивать файлы