Reply to topic
DL-List and Torrent activity [Update пиров]
Size:  402 MB   |    Registered:  1 year 3 months   |    Completed:  0 times
Seeders:  401  [  0 KB/s  ]   Leechers:  48  [  0 KB/s  ]  
 
     
 
 
Author Message

RelizMAN ®

11

Post 20-Apr-2018 02:00

[Quote]

Buxtehude - Opera Omnia XIX - Vocal Works 9
Жанр: Classical sacred vocal
Страна-производитель диска: Made in the Netherlands
Год издания диска: 2014
Издатель (лейбл): Challenge Classics
Номер по каталогу: CC 72258
Дата записи: 2013
Аудиокодек: FLAC
Тип рипа: image+.cue
Битрейт аудио: lossless
Продолжительность: 79'01
Источник: релизер
сайт-источник/ник/другое: Bodtje, подарок; Хосе - работа с cue; Caterina Sforza - работа с cue, доп. сканы
Наличие сканов в содержимом раздачи: да
Треклист:
1 Was frag’ ich nach der Welt BuxWV 104 08:49
2 Salve Jesu BuxWV 94 09:12
3 Welt, packe dich BuxWV 106 07:39
4 Was mich auf dieser Welt betrübt BuxWV 105 04:36
5 Pange lingua gloriosi BuxWV 91 07:30
6 Accedite gentes, accurrite populi BuxWV 1
7 Fürchtet euch nicht, siehe ich verkündige euch große Freude BuxWV 30 08:11
8 Ich habe Lust abzuscheiden BuxWV 46 11:06
9 Schaffe in mir Gott, ein rein Herz BuxWV 95 05:12
10 O dulcis Jesu, o amor cordis mei BuxWV 83 10:10

Исполнители

Opera Omnia XIX - Vocal Works 9
Miriam Feuersinger, Dorothee Wohlgemuth, Bettina Pahn, Amaryllis Dieltiens - sopranoMaarten Engeltjes - altoTilman Lichdi - tenorKlaus Mertens - bass
Amsterdam Baroque Orchestra / Ton KoopmanCatherine Manson, David Rabinovich - violinJane Rogers, John Wilson Meyer - viola (BuxWV 91)Alberto Rasi - violoneMichele Zeoli - violone (BuxWV 83 and 95)Wouter Verschuren - dulcianMike Fentross - luteTon Koopman - organKathryn Cok - organ (BuxWV 1)
Amsterdam Baroque Choir (BuxWV 1)Gela Birckenstaedt, Maria Goetze, Susan Jonkers, Maria Valdmaa - -first sopranoAndrea van Beek, Els Bongers, Isabel Delamarre, Vera Lansink - second sopranoAnnemieke Cantor, Stephen Carter, Harm Huson, Hugo Naessens - altoGuido Groenland, Henk Gunneman, Jörg Krause, Joost van der Linden - tenorDonald Bentvelsen, Johan Lippens, Michiel Meijer, Hans Wijers - bassFrank Markowitsch - choir masterAmsterdam Baroque Orchestra & ChoirTon Koopman, conductor
Release date: 15 August 2014

Лог создания рипа

Exact Audio Copy V1.3 from 2. September 2016
EAC extraction logfile from 19. April 2018, 18:56
Ton Koopman: Amsterdam Baroque Orchestra & Choir / Opera Omnia XIX - Vocal Works 9
Used drive : TSSTcorpDVDWBD SE-406AB Adapter: 1 ID: 2
Read mode : SecureUtilize accurate stream : YesDefeat audio cache : YesMake use of C2 pointers : No
Read offset correction : 6Overread into Lead-In and Lead-Out : NoFill up missing offset samples with silence : YesDelete leading and trailing silent blocks : NoNull samples used in CRC calculations : YesUsed interface : Native Win32 interface for Win NT & 2000
Used output format : User Defined EncoderSelected bitrate : 768 kBit/sQuality : HighAdd ID3 tag : NoCommand line compressor : C:\Program Files (x86)\Exact Audio Copy\FLAC\FLAC.EXEAdditional command line options : -8 -e -p -V -T "ARTIST=%artist%" -T "TITLE=%title%" -T "ALBUM=%albumtitle%" -T "DATE=%year%" -T "TRACKNUMBER=%tracknr%" -T "GENRE=%genre%" -T "PERFORMER=%albuminterpret%" -T "COMPOSER=%composer%" %haslyrics%--tag-from-file=LYRICS="%lyricsfile%"%haslyrics% -T "ALBUMARTIST=%albumartist%" -T "DISCNUMBER=%cdnumber%" -T "TOTALDISCS=%totalcds%" -T "TOTALTRACKS=%numtracks%" -T "COMMENT=%comment%" %source% -o %dest%
TOC of the extracted CD
Track | Start | Length | Start sector | End sector --------------------------------------------------------- 1 | 0:00.00 | 8:49.58 | 0 | 39732 2 | 8:49.58 | 9:12.59 | 39733 | 81191 3 | 18:02.42 | 7:39.46 | 81192 | 115662 4 | 25:42.13 | 4:36.55 | 115663 | 136417 5 | 30:18.68 | 7:30.60 | 136418 | 170227 6 | 37:49.53 | 6:28.37 | 170228 | 199364 7 | 44:18.15 | 8:11.34 | 199365 | 236223 8 | 52:29.49 | 11:06.61 | 236224 | 286234 9 | 63:36.35 | 5:12.39 | 286235 | 309673 10 | 68:48.74 | 10:10.63 | 309674 | 355486
Range status and errors
Selected range
Filename K:\Rips\Buxtehude - Opera Omnia XIX - Vocal Works 9\Ton Koopman- Amsterdam Baroque Orchestra & Choir - Opera Omnia XIX - Vocal Works 9.wav
Peak level 94.4 % Extraction speed 3.7 X Range quality 100.0 % Test CRC 161FE3FF Copy CRC 161FE3FF Copy OK
No errors occurred
AccurateRip summary
Track 1 accurately ripped (confidence 4) [4B666A5F] (AR v2)Track 2 accurately ripped (confidence 4) [446DEE08] (AR v2)Track 3 accurately ripped (confidence 4) [DD2C170D] (AR v2)Track 4 accurately ripped (confidence 4) [27B237E4] (AR v2)Track 5 accurately ripped (confidence 4) [8BDD8175] (AR v2)Track 6 accurately ripped (confidence 4) [E5CE2748] (AR v2)Track 7 accurately ripped (confidence 4) [51DB8BFD] (AR v2)Track 8 accurately ripped (confidence 4) [95FF77BC] (AR v2)Track 9 accurately ripped (confidence 4) [0FC781DF] (AR v2)Track 10 accurately ripped (confidence 4) [8012D0E7] (AR v2)
All tracks accurately ripped
End of status report
---- CUETools DB Plugin V2.1.6
[CTDB TOCID: xvq3ECR_yuYLhQGwL3hDKDZZeAc-] foundSubmit result: xvq3ECR_yuYLhQGwL3hDKDZZeAc- has been confirmedTrack | CTDB Status 1 | (8/8) Accurately ripped 2 | (8/8) Accurately ripped 3 | (8/8) Accurately ripped 4 | (8/8) Accurately ripped 5 | (8/8) Accurately ripped 6 | (7/8) Accurately ripped 7 | (7/8) Accurately ripped 8 | (8/8) Accurately ripped 9 | (8/8) Accurately ripped 10 | (7/8) Accurately ripped
==== Log checksum E111CD7ACF0C5BD6588836744F92A4E4FD8F83EDDF9D22D6FFF1AE767355C637 ====

Содержание индексной карты (.CUE)

REM GENRE ClassicalREM DATE 2014REM DISCID 7112830AREM COMMENT "ExactAudioCopy v1.3"PERFORMER "Amsterdam Baroque Choir, Frank Markowitsch (choir master) / Amsterdam Baroque Orchestra, Ton Koopman (conductor) / Miriam Feuersinger, Dorothee Wohlgemuth, Bettina Pahn, Amaryllis Dieltiens - soprano, Maarten Engeltjes - alto, Tilman Lichdi - tenor, Klaus Mertens - bass"TITLE "Opera Omnia XIX - Vocal Works 9"REM COMPOSER "Dieterich Buxtehude"FILE "Dieterich Buxtehude - Opera Omnia XIX - Vocal Works 9.flac" WAVE  TRACK 01 AUDIO    TITLE "Was frag’ ich nach der Welt, BuxWV 104"    PERFORMER "Amsterdam Baroque Orchestra, Ton Koopman & Miriam Feuersinger - soprano, Maarten Engeltjes - alto, Klaus Mertens - bass"    REM COMPOSER "Dieterich Buxtehude"    FLAGS DCP    INDEX 01 00:00:00  TRACK 02 AUDIO    TITLE "Salve Jesu, BuxWV 94"    PERFORMER "Amsterdam Baroque Orchestra, Ton Koopman & Miriam Feuersinger, Dorothee Wohlgemuth - soprano"    REM COMPOSER "Dieterich Buxtehude"    FLAGS DCP    INDEX 01 08:49:58  TRACK 03 AUDIO    TITLE "Welt, packe dich, BuxWV 106"    PERFORMER "Amsterdam Baroque Orchestra, Ton Koopman & Miriam Feuersinger, Dorothee Wohlgemuth - soprano, Klaus Mertens - bass"    REM COMPOSER "Dieterich Buxtehude"    FLAGS DCP    INDEX 01 18:02:42  TRACK 04 AUDIO    TITLE "Was mich auf dieser Welt betrübt, BuxWV 105"    PERFORMER "Amsterdam Baroque Orchestra, Ton Koopman & Amaryllis Dieltiens - soprano"    REM COMPOSER "Dieterich Buxtehude"    FLAGS DCP    INDEX 01 25:42:13  TRACK 05 AUDIO    TITLE "Pange lingua gloriosi, BuxWV 91"    PERFORMER "Amsterdam Baroque Orchestra, Ton Koopman & Amaryllis Dieltiens, Dorothee Wohlgemuth - soprano, Maarten Engeltjes - alto, Klaus Mertens - bass"    REM COMPOSER "Dieterich Buxtehude"    FLAGS DCP    INDEX 01 30:18:68  TRACK 06 AUDIO    TITLE "Accedite gentes, accurrite populi, BuxWV 1"    PERFORMER "Amsterdam Baroque Choir, Frank Markowitsch / Amsterdam Baroque Orchestra, Ton Koopman & Miriam Feuersinger, Dorothee Wohlgemuth - soprano, Maarten Engeltjes - alto, Tilman Lichdi - tenor, Klaus Mertens bass"    REM COMPOSER "Dieterich Buxtehude"    FLAGS DCP    INDEX 01 37:49:53  TRACK 07 AUDIO    TITLE "Fürchtet euch nicht, siehe ich verkündige euch große Freude, BuxWV 30"    PERFORMER "Amsterdam Baroque Orchestra, Ton Koopman & Miriam Feuersinger - soprano, Klaus Mertens - bass"    REM COMPOSER "Dieterich Buxtehude"    FLAGS DCP    INDEX 01 44:18:15  TRACK 08 AUDIO    TITLE "Ich habe Lust abzuscheiden, BuxWV 46"    PERFORMER "Amsterdam Baroque Orchestra, Ton Koopman & Miriam Feuersinger, Dorothee Wohlgemuth - soprano, Klaus Mertens - bass"    REM COMPOSER "Dieterich Buxtehude"    FLAGS DCP    INDEX 01 52:29:49  TRACK 09 AUDIO    TITLE "Schaffe in mir Gott, ein rein Herz, BuxWV 95"    PERFORMER "Amsterdam Baroque Orchestra, Ton Koopman & Bettina Pahn - soprano"    REM COMPOSER "Dieterich Buxtehude"    FLAGS DCP    INDEX 01 63:36:35  TRACK 10 AUDIO    TITLE "O dulcis Jesu, o amor cordis mei, BuxWV 83"    PERFORMER "Amsterdam Baroque Orchestra, Ton Koopman & Bettina Pahn - soprano"    REM COMPOSER "Dieterich Buxtehude"    FLAGS DCP    INDEX 01 68:48:74

About the album

The principal venue for the performance of Dieterich Buxtehude’s vocal music was not the regular Lutheran worship service on the Sundays and feast days of the ecclesiastical year but the series of evening concerts presented at St. Mary’s Church in Lübeck yearly on the five Sundays after St. Martin’s Day (November 11). This annual series of “Abendmusiken” took place from 4 to 5 o’clock immediately following the afternoon vesper’s service. The vocal music performed during the regular services under the direction of the cantor generally followed the structure of the liturgy and the seasons of the ecclesiastical year. In contrast, the programs of the Abendmusiken were in no way restricted to any liturgical requirements and, therefore, could add a new dimension to the spiritual function of sacred music. Buxtehude used to exercise a free hand in this regard and chose for his compositions in the form of arias, concertos, and cantatas texts from a variety of origins including biblical texts, medieval lyrics, church hymns, and modern poetry in both German and Latin languages. As the recorded pieces of the present album indicate, they reflect a wide-ranging repertoire of different types. The majority of texts feature psalm texts, general themes of Christian theology, and even include topics. excluded from the Lutheran canon of texts such as the Corpus Christi hymn by St. Thomas Aquinas, “Pange lingua gloriosi corporis mysterium” (BuxWV 91). Of particular prominence are devotional and mystic poetic texts that relate to the Pietist movement of the later 17th century. Its emphasis on individualism made religion and the love of Jesus more an affair of the heart and of life rather than of the intellect.In general, the audience of the Abendmusiken was exposed to a broad spectrum of edifying spiritual texts set in great variety of musical forms and styles. The compositions of this CD album are representative of Buxtehude’s interest in responding to the needs and desires of his listeners as well as his true mastership in developing innovative approaches to sacred music and in shaping and consolidating new genres and types of vocal composition.
[doutdess.info].t262352.torrent
Torrent: Registered [ 2018-04-20 02:00 ] · 155B43C7301B10B2F7B5BE779310F48BFF8E26CE

17 KB

Status: checked
Completed: 0 times
Size: 402 MB
(Classical sacred vocal) Buxtehude - Opera Omnia XIX - Vocal Works 9 - Sacred Concertos, Arias and Cantatas (Amsterdam Baroque Orchestra & Choir, Ton Koopman, conductor) - 2014, FLAC (image+.cue) lossless скачать торрент бесплатно и без регистрации

[Profile] [PM]
Forum Topic Author Size
Вокальная музыка в lossless ((classical/operetta)) Schönes bleibt. Unvergessene Tenöre bei WDR 4 / Прекрасное остаётся - 2000, FLAC (image+.cue) lossless Vi$itReal 401 MB
Вокальная и хоровая музыка lossy (Classical (Lieder)) (Lieder) Norman Bailey - Songs of Hugo Wolf - 1979, MP3 (tracks) 320 kbps RelizMAN 120 MB
Концерт для инструмента с оркестром в lossless (Classical ) Top 20 CDs for your Classical Music Collection - ClassicalCDguide.com: 02 - W. A. Mozart - Great Piano Concertos N 20 - 25 (1997) APE (tracks), 450-566 kb/s RelizMAN 582 MB
Концерт для инструмента с оркестром в lossless (Classical ) Top 20 CDs for your Classical Music Collection - ClassicalCDguide.com: 04 - Bach: Die Brandenburgische Konzerte - Orchestra of the Age of Enlightenment 2 CD (1999) APE (tracks), 610-769... RelizMAN 462 MB
Оркестровая музыка в lossless (Classical ) Top 20 CDs for your Classical Music Collection - ClassicalCDguide.com: 06 - Igor Stravinsky; Petroushka, Le Sacre du Printemps - Columbia Symphony Orchestra (Sony 1990) APE (tracks),... Vi$itReal 274 MB
Камерная инструментальная музыка в lossless (Classical ) Top 20 CDs for your Classical Music Collection - ClassicalCDguide.com: 07 - Franz Schubert - \'Trout\' Quintet & \'Death and the Maiden\' - Amadeus Quartet (DG ... Vi$itReal 343 MB
Камерная инструментальная музыка в lossless (Classical ) Top 20 CDs for your Classical Music Collection - ClassicalCDguide.com: 10 - Georges Bizet; Carmen - Sir Thomas Beecham, de Los Angeles, Gedda, Michau, Blanc (EMI 2000) аре (по-треково),... Vi$itReal 745 MB
Камерная инструментальная музыка в lossless (Classical ) Top 20 CDs for your Classical Music Collection - ClassicalCDguide.com: 12 - Франц Шуберт - Симфония No. 3, Unfinished 39; - Carlos Kleiber и Wiener Philharmoniker (DG 1... Vi$itReal 186 MB
Display posts:    

Current time is: 22-Jul 09:26

All times are UTC + 3



You cannot post new topics in this forum
You cannot reply to topics in this forum
You cannot edit your posts in this forum
You cannot delete your posts in this forum
You cannot vote in polls in this forum
You cannot attach files in this forum
You can download files in this forum