Ответить на тему
Статистика раздачи [Обновить пиров]
Размер:  231 MB   |    Зарегистрирован:  7 месяцев 10 дней   |    Скачан:  0 раз
Сидов:  425  [  0 KB/s  ]   Личеров:  44  [  0 KB/s  ]  
 
     
 
 
Автор Сообщение

RelizMAN ®

11

Создавать темы 09-Авг-2018 16:35

[Цитировать]

Chopin - Mad About Chopin
Жанр: Classical, Piano
Страна-производитель диска: Germany
Год издания диска: 1996
Издатель (лейбл): Deutsche Grammophon ‎
Номер по каталогу: 439 519-2
Аудиокодек: FLAC
Тип рипа: tracks+.cue
Битрейт аудио: lossless
Продолжительность: 01:15:01
Источник: скачано с
сайт-источник/ник/другое: what.cd
Наличие сканов в содержимом раздачи: да
Треклист:
1 Minuten-Walzer, Des-Dur, Op. 64 1:56
2 Walzer, Cis-Moll, Op. 64 3:27
3 Revolutions-Etüde, Op. 10 2:35
4 Fantaisie-Impromtu, Cis-Moll, Op. Post 66 4:56
5 Mazurka Cis-Moll, Op. 41 3:49
6 Grande Valse Brillante, Es-Dur, Op. 18 5:35
7 Mazurka, A-Moll, Op. 17 3:59
8 Ballade, As-Dur, Op. 47 7:26
9 Mazurka, Dis-Moll, Op. 63 2:07
10 Walzer, As-Dur, Op. 42 4:01
11 Mazurka, A-Moll, Op. 68 3:05
12 Mazurka, B-Dur, Op. 7 2:35
13 Mazurka, H-Moll, Op. 33 4:54
14 Barcacole, Fis-Dur, WoO 8:55
15 Walzer, As-Dur, Op.69 3:40
16 Walzer, Ges-Dur, Op. Post 70 2:49
17 Sonate Nr. 2, 'Trauermarsch', WoO 9:14
Исполнители:
Composed By – Frédéric Chopin
Piano – Andrei Gavrilov (tracks: 17), Jean-Marc Luisada (tracks: 1, 2, 4, 6, 7, 10 to 13, 15, 16), Krystian Zimerman (tracks: 8, 14), Stanislav Bunin (tracks: 3, 5, 9)

Лог создания рипа

EAC extraction logfile from 8. February 2008, 15:16 for CDChopin / Mad About Chopin
Used drive : CD-RW CDR-7S52 Adapter: 2 ID: 0Read mode : Secure with NO C2, accurate stream, disable cacheRead offset correction : 6Overread into Lead-In and Lead-Out : No
Used output format : E:\Program Files\Exact Audio Copy 2\FLAC\FLAC.EXE (User Defined Encoder)
Additional command line options : -8 -V -T "ARTIST=%a" -T "TITLE=%t" -T "ALBUM=%g" -T "DATE=%y" -T "TRACKNUMBER=%n" -T "GENRE=%m" -T "COMMENT=%e" %s -o %d
Other options : Fill up missing offset samples with silence : Yes Delete leading and trailing silent blocks : No Native Win32 interface for Win NT & 2000
Track 1 Filename D:\EAC\01 - 'Minute' Waltz.wav
Pre-gap length 0:00:02.42
Peak level 49.5 % Track quality 100.0 % Test CRC C18C5517 Copy CRC C18C5517 Copy OK
Track 2 Filename D:\EAC\02 - Waltz in C-Sharp Minor.wav
Peak level 39.3 % Track quality 100.0 % Test CRC 2EDA5274 Copy CRC 2EDA5274 Copy OK
Track 3 Filename D:\EAC\03 - 'Revolutionary' Etude.wav
Peak level 87.3 % Track quality 100.0 % Test CRC 978EDF70 Copy CRC 978EDF70 Copy OK
Track 4 Filename D:\EAC\04 - Fantaisie-Impromptu.wav
Peak level 100.0 % Track quality 100.0 % Test CRC 3FC19DC3 Copy CRC 3FC19DC3 Copy OK
Track 5 Filename D:\EAC\05 - Mazurka in C-Sharp Minor.wav
Peak level 83.9 % Track quality 100.0 % Test CRC 96E3A73C Copy CRC 96E3A73C Copy OK
Track 6 Filename D:\EAC\06 - Ballade No. 3 in A-Flat.wav
Peak level 89.3 % Track quality 100.0 % Test CRC E2149066 Copy CRC E2149066 Copy OK
Track 7 Filename D:\EAC\07 - Mazurka in A-Minor.wav
Peak level 78.3 % Track quality 100.0 % Test CRC D8F145BD Copy CRC D8F145BD Copy OK
Track 8 Filename D:\EAC\08 - Ballade No. 3 in A-Flat.wav
Peak level 94.0 % Track quality 100.0 % Test CRC D13DF0D8 Copy CRC D13DF0D8 Copy OK
Track 9 Filename D:\EAC\09 - Mazurka in C-Sharp Minor.wav
Peak level 61.3 % Track quality 100.0 % Test CRC 5F116CDD Copy CRC 5F116CDD Copy OK
Track 10 Filename D:\EAC\10 - Waltz in A-Flat.wav
Peak level 75.5 % Track quality 100.0 % Test CRC DF390627 Copy CRC DF390627 Copy OK
Track 11 Filename D:\EAC\11 - Mazurka in A-Minor.wav
Peak level 55.9 % Track quality 100.0 % Test CRC BD69798C Copy CRC BD69798C Copy OK
Track 12 Filename D:\EAC\12 - Mazurka in B-Flat.wav
Peak level 69.0 % Track quality 100.0 % Test CRC 6E047973 Copy CRC 6E047973 Copy OK
Track 13 Filename D:\EAC\13 - Mazurka in B-Minor.wav
Peak level 77.5 % Track quality 100.0 % Test CRC 4322B208 Copy CRC 4322B208 Copy OK
Track 14 Filename D:\EAC\14 - Barcarolle.wav
Peak level 100.0 % Track quality 100.0 % Test CRC A664C12A Copy CRC A664C12A Copy OK
Track 15 Filename D:\EAC\15 - Waltz in A-Flat.wav
Peak level 44.3 % Track quality 100.0 % Test CRC 90D2AACB Copy CRC 90D2AACB Copy OK
Track 16 Filename D:\EAC\16 - Waltz in G-Flat.wav
Peak level 60.9 % Track quality 99.9 % Test CRC 4537B3C0 Copy CRC 4537B3C0 Copy OK
Track 17 Filename D:\EAC\17 - Sonata No. 2 - Funeral March.wav
Peak level 96.5 % Track quality 100.0 % Test CRC C5F986D9 Copy CRC C5F986D9 Copy OK
No errors occured
End of status report

Содержание индексной карты (.CUE)

REM GENRE ClassicalREM DATE 1993REM DISCID E5119611REM COMMENT "ExactAudioCopy v0.95b4"PERFORMER "Chopin"TITLE "Mad About Chopin"FILE "01 - 'Minute' Waltz.wav" WAVE  TRACK 01 AUDIO    TITLE "'Minute' Waltz"    PERFORMER "Chopin"    PREGAP 00:00:32    INDEX 01 00:00:00FILE "02 - Waltz in C-Sharp Minor.wav" WAVE  TRACK 02 AUDIO    TITLE "Waltz in C-Sharp Minor"    PERFORMER "Chopin"    INDEX 01 00:00:00FILE "03 - 'Revolutionary' Etude.wav" WAVE  TRACK 03 AUDIO    TITLE "'Revolutionary' Etude"    PERFORMER "Chopin"    INDEX 01 00:00:00FILE "04 - Fantaisie-Impromptu.wav" WAVE  TRACK 04 AUDIO    TITLE "Fantaisie-Impromptu"    PERFORMER "Chopin"    INDEX 01 00:00:00FILE "05 - Mazurka in C-Sharp Minor.wav" WAVE  TRACK 05 AUDIO    TITLE "Mazurka in C-Sharp Minor"    PERFORMER "Chopin"    INDEX 01 00:00:00FILE "06 - Ballade No. 3 in A-Flat.wav" WAVE  TRACK 06 AUDIO    TITLE "Ballade No. 3 in A-Flat"    PERFORMER "Chopin"    INDEX 01 00:00:00FILE "07 - Mazurka in A-Minor.wav" WAVE  TRACK 07 AUDIO    TITLE "Mazurka in A-Minor"    PERFORMER "Chopin"    INDEX 01 00:00:00FILE "08 - Ballade No. 3 in A-Flat.wav" WAVE  TRACK 08 AUDIO    TITLE "Ballade No. 3 in A-Flat"    PERFORMER "Chopin"    INDEX 01 00:00:00FILE "09 - Mazurka in C-Sharp Minor.wav" WAVE  TRACK 09 AUDIO    TITLE "Mazurka in C-Sharp Minor"    PERFORMER "Chopin"    INDEX 01 00:00:00FILE "10 - Waltz in A-Flat.wav" WAVE  TRACK 10 AUDIO    TITLE "Waltz in A-Flat"    PERFORMER "Chopin"    INDEX 01 00:00:00FILE "11 - Mazurka in A-Minor.wav" WAVE  TRACK 11 AUDIO    TITLE "Mazurka in A-Minor"    PERFORMER "Chopin"    INDEX 01 00:00:00FILE "12 - Mazurka in B-Flat.wav" WAVE  TRACK 12 AUDIO    TITLE "Mazurka in B-Flat"    PERFORMER "Chopin"    INDEX 01 00:00:00FILE "13 - Mazurka in B-Minor.wav" WAVE  TRACK 13 AUDIO    TITLE "Mazurka in B-Minor"    PERFORMER "Chopin"    INDEX 01 00:00:00FILE "14 - Barcarolle.wav" WAVE  TRACK 14 AUDIO    TITLE "Barcarolle"    PERFORMER "Chopin"    INDEX 01 00:00:00FILE "15 - Waltz in A-Flat.wav" WAVE  TRACK 15 AUDIO    TITLE "Waltz in A-Flat"    PERFORMER "Chopin"    INDEX 01 00:00:00FILE "16 - Waltz in G-Flat.wav" WAVE  TRACK 16 AUDIO    TITLE "Waltz in G-Flat"    PERFORMER "Chopin"    INDEX 01 00:00:00FILE "17 - Sonata No. 2 - Funeral March.wav" WAVE  TRACK 17 AUDIO    TITLE "Sonata No. 2 - Funeral March"    PERFORMER "Chopin"    INDEX 01 00:00:00

Лог проверки качества

AUDIOCHECKER v2.0 beta (build 457) - by Dester - [email protected]~~~~~~~~~~~~~~~~~~~~~~~~~~~~~~~~~~-=== DO NOT EDIT THIS FILE! ===-
Path: ...\Chopin - Mad About Chopin (1993) [FLAC]
01 -=- 01 - 'Minute' Waltz.flac -=- CDDA (100%)02 -=- 02 - Waltz in C-Sharp Minor.flac -=- CDDA (87%)03 -=- 03 - 'Revolutionary' Etude.flac -=- CDDA (100%)04 -=- 04 - Fantaisie-Impromptu.flac -=- CDDA (49%)05 -=- 05 - Mazurka in C-Sharp Minor.flac -=- CDDA (85%)06 -=- 06 - Ballade No. 3 in A-Flat.flac -=- CDDA (76%)07 -=- 07 - Mazurka in A-Minor.flac -=- CDDA (100%)08 -=- 08 - Ballade No. 3 in A-Flat.flac -=- CDDA (87%)09 -=- 09 - Mazurka in C-Sharp Minor.flac -=- CDDA (85%)10 -=- 10 - Waltz in A-Flat.flac -=- CDDA (100%)11 -=- 11 - Mazurka in A-Minor.flac -=- CDDA (42%)12 -=- 12 - Mazurka in B-Flat.flac -=- CDDA (99%)13 -=- 13 - Mazurka in B-Minor.flac -=- CDDA (100%)14 -=- 14 - Barcarolle.flac -=- CDDA (58%)15 -=- 15 - Waltz in A-Flat.flac -=- CDDA (85%)16 -=- 16 - Waltz in G-Flat.flac -=- CDDA (87%)17 -=- 17 - Sonata No. 2 - Funeral March.flac -=- ERROR
Summary 83,75% CDDA
109233236

[doutdess.info].t283291.torrent
Торрент: Зарегистрирован [ 2018-08-09 16:35 ] · D6964AD3CBEE6260580E1155AA6CF23E5ED23FF3

20 KB

Статус: проверено
Скачан: 0 раз
Размер: 231 MB
(Classical, Piano) Chopin - Mad About Chopin - 1996, FLAC (tracks+.cue) lossless скачать торрент бесплатно и без регистрации

[Профиль] [ЛС]
Форум Тема Автор Размер
Вокальная музыка в lossless ((classical/operetta)) Schönes bleibt. Unvergessene Tenöre bei WDR 4 / Прекрасное остаётся - 2000, FLAC (image+.cue) lossless Vi$itReal 401 MB
Вокальная и хоровая музыка lossy (Classical (Lieder)) (Lieder) Norman Bailey - Songs of Hugo Wolf - 1979, MP3 (tracks) 320 kbps RelizMAN 120 MB
Концерт для инструмента с оркестром в lossless (Classical ) Top 20 CDs for your Classical Music Collection - ClassicalCDguide.com: 02 - W. A. Mozart - Great Piano Concertos N 20 - 25 (1997) APE (tracks), 450-566 kb/s RelizMAN 582 MB
Концерт для инструмента с оркестром в lossless (Classical ) Top 20 CDs for your Classical Music Collection - ClassicalCDguide.com: 04 - Bach: Die Brandenburgische Konzerte - Orchestra of the Age of Enlightenment 2 CD (1999) APE (tracks), 610-769... RelizMAN 462 MB
Оркестровая музыка в lossless (Classical ) Top 20 CDs for your Classical Music Collection - ClassicalCDguide.com: 06 - Igor Stravinsky; Petroushka, Le Sacre du Printemps - Columbia Symphony Orchestra (Sony 1990) APE (tracks),... Vi$itReal 274 MB
Камерная инструментальная музыка в lossless (Classical ) Top 20 CDs for your Classical Music Collection - ClassicalCDguide.com: 07 - Franz Schubert - \'Trout\' Quintet & \'Death and the Maiden\' - Amadeus Quartet (DG ... Vi$itReal 343 MB
Камерная инструментальная музыка в lossless (Classical ) Top 20 CDs for your Classical Music Collection - ClassicalCDguide.com: 10 - Georges Bizet; Carmen - Sir Thomas Beecham, de Los Angeles, Gedda, Michau, Blanc (EMI 2000) аре (по-треково),... Vi$itReal 745 MB
Камерная инструментальная музыка в lossless (Classical ) Top 20 CDs for your Classical Music Collection - ClassicalCDguide.com: 12 - Франц Шуберт - Симфония No. 3, Unfinished 39; - Carlos Kleiber и Wiener Philharmoniker (DG 1... Vi$itReal 186 MB
Показать сообщения:    

Текущее время: 20-Мар 13:54

Часовой пояс: UTC + 3



Вы не можете начинать темы
Вы не можете отвечать на сообщения
Вы не можете редактировать свои сообщения
Вы не можете удалять свои сообщения
Вы не можете голосовать в опросах
Вы не можете прикреплять файлы к сообщениям
Вы можете скачивать файлы