Reply to topic
DL-List and Torrent activity [Update пиров]
Size:  2.98 GB   |    Registered:  3 years 8 months   |    Completed:  2 times
Seeders:  847  [  0 KB/s  ]   Leechers:  50  [  0 KB/s  ]  
 
     
 
 
Author Message

RelizMAN ®

11

Post 05-Oct-2015 14:30

[Quote]

Dan Young & Lawson Rollins - Discography (9 albums) - (2000-2015) Исполнитель: Dan Young & Lawson Rollins
Альбом: Discography
Год Выпуска: 2000-2015
Жанр: New-Age, new-flamenco, world-music, jazz
Аудио: FLAC, Lossless
Продолжительность: 06:14:19
Наличие сканов: Да
Источник: What.cd & AZote
Описание: Композитор и гитарист Лоусон Роллинз (Lawson Rollins) с восьми лет приобщился к музыке. Первый инструмент — ударная установка. Позже, будучи уже старшим школьником, Лоусон прослушивает записи испанского маэстро Андреаса Сеговии. Вдохновленный виртуозным исполнением мэтра, молодой человек начинает брать частные уроки гитарного мастерства и посещать профильные мастер-классы. Довольно быстро Лоусон вырабатывает собственный экспрессивный стиль игры, основой которого является скоростная техника пальцев. Обостренное чувство ритма, любовь к импровизации, склонность к сочинительству побудили двадцатилетнего музыканта к изучению обжигающих мотивов испанского фолка, импровизационной свободы латино-джаз и южно-американских стилей. Испанцы в адрес плохого танцора дипломатично сообщат — No tiene duende! (в вас нет огня!). Взрывной потенциал молодого гитариста раскрывается в 1998 году, когда Роллинз и его партнер, гитарист Ден Янг образуют группу Янг и Роллинз (Young & Rollins) исполняющей, преимущественно, испанский фьюжн. Великолепно сочетая классические мотивы с импровизацией, гитаристы выступают с эклектичными композициями только собственного сочинения, представляя слушателям внутренне противоречивую смесь сальсы, латино-джаза, блюза, самбы, босса-новы, фламенко и хрестоматийных ритмов. Свежее звучание еще более усиливается утонченным импровизаторским чутьем гитаристов, филигранным взаимодействием участников дуэта и перкусионной ритм-секции. Янг и Роллинг быстро обрели масштабную популярность в музыкальной среде, выпустив 4 студийных альбома, воосторженно встреченных критикой. Записи дуэта широко транслировались на ТВ, в составе квинтета музыканты выступали на известнейших сценах планеты — от Сидней Опера Хаус до Вашингтонского Центра Кеннеди. В 2008 году Лоусон Роллинз выпустил сольный альбом "Infinita" (бесконечность).

Young & Rollins - 2000 - Salsa Flamenca

01. Scorpion (4:50)
02. Twilight (5:36)
03. Midnight Rendezvous (3:51)
04. Last Year (5:06)
05. Running of the Bulls (3:51)
06. Salsa Flamenca (4:12)
07. Julio's Song (4:13)
08. Serendipity (3:33)
09. Foreign Affair (4:12)
10. Recuerdos (2:49)

EAC LOG

Exact Audio Copy V0.99 prebeta 5 from 4. May 2009
EAC extraction logfile from 23. February 2010, 8:09
Young & Rollins / Salsa Flamenca
Used drive : TSSTcorpCDDVDW SH-S223L Adapter: 0 ID: 3
Read mode : SecureUtilize accurate stream : YesDefeat audio cache : YesMake use of C2 pointers : No
Read offset correction : 6Overread into Lead-In and Lead-Out : NoFill up missing offset samples with silence : YesDelete leading and trailing silent blocks : NoNull samples used in CRC calculations : YesUsed interface : Native Win32 interface for Win NT & 2000Gap handling : Appended to previous track
Used output format : User Defined EncoderSelected bitrate : 1024 kBit/sQuality : HighAdd ID3 tag : NoCommand line compressor : E:\My Music\FLAC\flac.exeAdditional command line options : -V -8 -b 4096 -T "artist=%a" -T "title=%t" -T "album=%g" -T "date=%y" -T "tracknumber=%n" -T "genre=%m" %s -A tukey(0.25) -A gauss(0.1875)
TOC of the extracted CD
Track | Start | Length | Start sector | End sector --------------------------------------------------------- 1 | 0:00.00 | 4:50.37 | 0 | 21786 2 | 4:50.37 | 5:36.50 | 21787 | 47036 3 | 10:27.12 | 3:51.18 | 47037 | 64379 4 | 14:18.30 | 5:06.25 | 64380 | 87354 5 | 19:24.55 | 3:51.62 | 87355 | 104741 6 | 23:16.42 | 4:12.13 | 104742 | 123654 7 | 27:28.55 | 4:13.47 | 123655 | 142676 8 | 31:42.27 | 3:33.73 | 142677 | 158724 9 | 35:16.25 | 4:12.00 | 158725 | 177624 10 | 39:28.25 | 2:49.20 | 177625 | 190319
Track 1
Filename I:\EAC Rips\Young & Rollins - Salsa Flamenca\01. Scorpion.wav
Pre-gap length 0:00:02.00
Peak level 98.8 % Track quality 100.0 % Test CRC A7173AF9 Copy CRC A7173AF9 Accurately ripped (confidence 4) [932D7944] Copy OK
Track 2
Filename I:\EAC Rips\Young & Rollins - Salsa Flamenca\02. Twilight.wav
Pre-gap length 0:00:01.40
Peak level 98.8 % Track quality 100.0 % Test CRC EC0F795E Copy CRC EC0F795E Accurately ripped (confidence 4) [40B29E9C] Copy OK
Track 3
Filename I:\EAC Rips\Young & Rollins - Salsa Flamenca\03. Midnight Rendezvous.wav
Pre-gap length 0:00:01.29
Peak level 98.8 % Track quality 100.0 % Test CRC 22329136 Copy CRC 22329136 Accurately ripped (confidence 4) [9C746BCE] Copy OK
Track 4
Filename I:\EAC Rips\Young & Rollins - Salsa Flamenca\04. Last Year.wav
Pre-gap length 0:00:01.24
Peak level 98.8 % Track quality 100.0 % Test CRC 61A6D8AC Copy CRC 61A6D8AC Accurately ripped (confidence 4) [31FA5E1A] Copy OK
Track 5
Filename I:\EAC Rips\Young & Rollins - Salsa Flamenca\05. Running of the Bulls.wav
Pre-gap length 0:00:01.53
Peak level 98.8 % Track quality 100.0 % Test CRC 53E2FAB7 Copy CRC 53E2FAB7 Accurately ripped (confidence 4) [7244ACD3] Copy OK
Track 6
Filename I:\EAC Rips\Young & Rollins - Salsa Flamenca\06. Salsa Flamenca.wav
Pre-gap length 0:00:01.36
Peak level 98.8 % Track quality 100.0 % Test CRC D85366CC Copy CRC D85366CC Accurately ripped (confidence 4) [41BF6E3C] Copy OK
Track 7
Filename I:\EAC Rips\Young & Rollins - Salsa Flamenca\07. Julio's Song.wav
Pre-gap length 0:00:01.70
Peak level 98.8 % Track quality 100.0 % Test CRC 65DD7CCC Copy CRC 65DD7CCC Accurately ripped (confidence 4) [4FC59939] Copy OK
Track 8
Filename I:\EAC Rips\Young & Rollins - Salsa Flamenca\08. Serendipity.wav
Pre-gap length 0:00:00.82
Peak level 98.8 % Track quality 100.0 % Test CRC E563A980 Copy CRC E563A980 Accurately ripped (confidence 4) [34775D51] Copy OK
Track 9
Filename I:\EAC Rips\Young & Rollins - Salsa Flamenca\09. Foreign Affair.wav
Pre-gap length 0:00:01.77
Peak level 98.8 % Track quality 99.9 % Test CRC 7F447ECC Copy CRC 7F447ECC Accurately ripped (confidence 4) [AB2CE16D] Copy OK
Track 10
Filename I:\EAC Rips\Young & Rollins - Salsa Flamenca\10. Recuerdos.wav
Pre-gap length 0:00:01.37
Peak level 98.8 % Track quality 100.0 % Test CRC 7B59B7A4 Copy CRC 7B59B7A4 Accurately ripped (confidence 4) [2035CE09] Copy OK
All tracks accurately ripped
No errors occurred
End of status report

CUE

REM GENRE "New Age"REM DISCID 8309E90AREM COMMENT "ExactAudioCopy v0.99pb5"PERFORMER "Young & Rollins"TITLE "Salsa Flamenca"FILE "01. Scorpion.wav" WAVE TRACK 01 AUDIO TITLE "Scorpion" PERFORMER "Young & Rollins" INDEX 01 00:00:00 TRACK 02 AUDIO TITLE "Twilight" PERFORMER "Young & Rollins" INDEX 00 04:49:07FILE "02. Twilight.wav" WAVE INDEX 01 00:00:00 TRACK 03 AUDIO TITLE "Midnight Rendezvous" PERFORMER "Young & Rollins" INDEX 00 05:35:28FILE "03. Midnight Rendezvous.wav" WAVE INDEX 01 00:00:00 TRACK 04 AUDIO TITLE "Last Year" PERFORMER "Young & Rollins" INDEX 00 03:50:00FILE "04. Last Year.wav" WAVE INDEX 01 00:00:00 TRACK 05 AUDIO TITLE "Running of the Bulls" PERFORMER "Young & Rollins" INDEX 00 05:04:60FILE "05. Running of the Bulls.wav" WAVE INDEX 01 00:00:00 TRACK 06 AUDIO TITLE "Salsa Flamenca" PERFORMER "Young & Rollins" INDEX 00 03:50:35FILE "06. Salsa Flamenca.wav" WAVE INDEX 01 00:00:00 TRACK 07 AUDIO TITLE "Julio's Song" PERFORMER "Young & Rollins" INDEX 00 04:10:35FILE "07. Julio's Song.wav" WAVE INDEX 01 00:00:00 TRACK 08 AUDIO TITLE "Serendipity" PERFORMER "Young & Rollins" INDEX 00 04:12:60FILE "08. Serendipity.wav" WAVE INDEX 01 00:00:00 TRACK 09 AUDIO TITLE "Foreign Affair" PERFORMER "Young & Rollins" INDEX 00 03:32:15FILE "09. Foreign Affair.wav" WAVE INDEX 01 00:00:00 TRACK 10 AUDIO TITLE "Recuerdos" PERFORMER "Young & Rollins" INDEX 00 04:10:47FILE "10. Recuerdos.wav" WAVE INDEX 01 00:00:00

auCDtect

[img][/img]

Young & Rollins - 2001 - Sevilla

01. Cactus (3:39)
02. Afternoon Cha Cha (4:14)
03. Intro for Solo Guitar (0:43)
04. Sevilla (3:20)
05. Stay With Me (3:20)
06. Melancholy (1:27)
07. In the Moment (3:35)
08. Come & Go (3:38)
09. Desert Heat (3:29)
10. Fiesta (4:19)
11. Spanish Sun (3:23)
12. Nightfall (1:40)
13. Carino Mio (4:23)
14. Cactus - Spice Mix (Bonus Track) (3:37)

EAC LOG

Exact Audio Copy V1.0 beta 2 from 29. April 2011
EAC extraction logfile from 28. June 2011, 9:30
Young & Rollins / Sevilla
Used drive : PIONEER DVD-RW DVR-115D Adapter: 0 ID: 0
Read mode : SecureUtilize accurate stream : YesDefeat audio cache : YesMake use of C2 pointers : No
Read offset correction : 48Overread into Lead-In and Lead-Out : NoFill up missing offset samples with silence : YesDelete leading and trailing silent blocks : NoNull samples used in CRC calculations : YesUsed interface : Native Win32 interface for Win NT & 2000Gap handling : Appended to previous track
Used output format : User Defined EncoderSelected bitrate : 1024 kBit/sQuality : HighAdd ID3 tag : NoCommand line compressor : C:\Program Files\FLAC\flac.exeAdditional command line options : -8 -V -T "ARTIST=%artist%" -T "TITLE=%title%" -T "ALBUM=%albumtitle%" -T "DATE=%year%" -T "TRACKNUMBER=%tracknr%" -T "GENRE=%genre%" -T "PERFORMER=%albuminterpret%" -T "COMPOSER=%composer%" %haslyrics%--tag-from-file=LYRICS
TOC of the extracted CD
Track | Start | Length | Start sector | End sector --------------------------------------------------------- 1 | 0:00.00 | 3:39.45 | 0 | 16469 2 | 3:39.45 | 4:14.52 | 16470 | 35571 3 | 7:54.22 | 0:43.34 | 35572 | 38830 4 | 8:37.56 | 3:20.52 | 38831 | 53882 5 | 11:58.33 | 3:20.46 | 53883 | 68928 6 | 15:19.04 | 1:27.16 | 68929 | 75469 7 | 16:46.20 | 3:35.29 | 75470 | 91623 8 | 20:21.49 | 3:38.39 | 91624 | 108012 9 | 24:00.13 | 3:29.11 | 108013 | 123698 10 | 27:29.24 | 4:19.51 | 123699 | 143174 11 | 31:49.00 | 3:23.20 | 143175 | 158419 12 | 35:12.20 | 1:40.55 | 158420 | 165974 13 | 36:53.00 | 4:23.33 | 165975 | 185732 14 | 41:16.33 | 3:37.64 | 185733 | 202071
Track 1
Filename D:\MUSIC\Young & Rollins\Lossless\Young & Rollins - 2001 - Sevilla\01 - Cactus.wav
Pre-gap length 0:00:02.00
Peak level 98.8 % Extraction speed 4.2 X Track quality 100.0 % Test CRC 3E9B1F24 Copy CRC 3E9B1F24 Accurately ripped (confidence 4) [1AF38F2F] (AR v1) Copy OK
Track 2
Filename D:\MUSIC\Young & Rollins\Lossless\Young & Rollins - 2001 - Sevilla\02 - Afternoon Cha Cha.wav
Pre-gap length 0:00:01.09
Peak level 98.8 % Extraction speed 4.7 X Track quality 100.0 % Test CRC 707AD700 Copy CRC 707AD700 Accurately ripped (confidence 4) [508FDD68] (AR v1) Copy OK
Track 3
Filename D:\MUSIC\Young & Rollins\Lossless\Young & Rollins - 2001 - Sevilla\03 - Intro for Solo Guitar.wav
Pre-gap length 0:00:01.78
Peak level 93.2 % Extraction speed 2.1 X Track quality 99.7 % Test CRC E9346485 Copy CRC E9346485 Accurately ripped (confidence 4) [AF20F025] (AR v1) Copy OK
Track 4
Filename D:\MUSIC\Young & Rollins\Lossless\Young & Rollins - 2001 - Sevilla\04 - Sevilla.wav
Peak level 98.8 % Extraction speed 5.0 X Track quality 100.0 % Test CRC 5434AE98 Copy CRC 5434AE98 Accurately ripped (confidence 4) [BA4406B6] (AR v1) Copy OK
Track 5
Filename D:\MUSIC\Young & Rollins\Lossless\Young & Rollins - 2001 - Sevilla\05 - Stay With Me.wav
Pre-gap length 0:00:01.93
Peak level 98.8 % Extraction speed 5.3 X Track quality 100.0 % Test CRC C9AE41E5 Copy CRC C9AE41E5 Accurately ripped (confidence 4) [0D05B9B7] (AR v1) Copy OK
Track 6
Filename D:\MUSIC\Young & Rollins\Lossless\Young & Rollins - 2001 - Sevilla\06 - Melancholy.wav
Pre-gap length 0:00:01.37
Peak level 97.1 % Extraction speed 4.5 X Track quality 100.0 % Test CRC 65C0BF33 Copy CRC 65C0BF33 Accurately ripped (confidence 4) [6261EAEF] (AR v1) Copy OK
Track 7
Filename D:\MUSIC\Young & Rollins\Lossless\Young & Rollins - 2001 - Sevilla\07 - In the Moment.wav
Peak level 98.8 % Extraction speed 4.5 X Track quality 99.9 % Test CRC 3FC8D398 Copy CRC 3FC8D398 Accurately ripped (confidence 4) [B579BD63] (AR v1) Copy OK
Track 8
Filename D:\MUSIC\Young & Rollins\Lossless\Young & Rollins - 2001 - Sevilla\08 - Come & Go.wav
Pre-gap length 0:00:01.38
Peak level 98.8 % Extraction speed 6.0 X Track quality 100.0 % Test CRC 88271273 Copy CRC 88271273 Accurately ripped (confidence 4) [CB4D8F25] (AR v1) Copy OK
Track 9
Filename D:\MUSIC\Young & Rollins\Lossless\Young & Rollins - 2001 - Sevilla\09 - Desert Heat.wav
Pre-gap length 0:00:01.97
Peak level 98.8 % Extraction speed 5.4 X Track quality 99.9 % Test CRC 20327711 Copy CRC 20327711 Accurately ripped (confidence 4) [0BCCD3AD] (AR v1) Copy OK
Track 10
Filename D:\MUSIC\Young & Rollins\Lossless\Young & Rollins - 2001 - Sevilla\10 - Fiesta.wav
Pre-gap length 0:00:01.08
Peak level 98.8 % Extraction speed 6.7 X Track quality 100.0 % Test CRC 091844CD Copy CRC 091844CD Accurately ripped (confidence 4) [8924FE87] (AR v1) Copy OK
Track 11
Filename D:\MUSIC\Young & Rollins\Lossless\Young & Rollins - 2001 - Sevilla\11 - Spanish Sun.wav
Pre-gap length 0:00:01.32
Peak level 98.8 % Extraction speed 6.7 X Track quality 100.0 % Test CRC B9969097 Copy CRC B9969097 Accurately ripped (confidence 4) [0DFC1D8F] (AR v1) Copy OK
Track 12
Filename D:\MUSIC\Young & Rollins\Lossless\Young & Rollins - 2001 - Sevilla\12 - Nightfall.wav
Pre-gap length 0:00:00.64
Peak level 98.8 % Extraction speed 4.7 X Track quality 99.8 % Test CRC 7ECA7723 Copy CRC 7ECA7723 Accurately ripped (confidence 4) [B974768D] (AR v1) Copy OK
Track 13
Filename D:\MUSIC\Young & Rollins\Lossless\Young & Rollins - 2001 - Sevilla\13 - Carino Mio.wav
Pre-gap length 0:00:00.94
Peak level 98.8 % Extraction speed 7.3 X Track quality 100.0 % Test CRC C2AED7FC Copy CRC C2AED7FC Accurately ripped (confidence 4) [803607C4] (AR v1) Copy OK
Track 14
Filename D:\MUSIC\Young & Rollins\Lossless\Young & Rollins - 2001 - Sevilla\14 - Cactus - Spice Mix (Bonus Track).wav
Pre-gap length 0:00:04.96
Peak level 98.8 % Extraction speed 7.3 X Track quality 100.0 % Test CRC 2EE97C39 Copy CRC 2EE97C39 Accurately ripped (confidence 4) [F9CC39D1] (AR v1) Copy OK
All tracks accurately ripped
No errors occurred
End of status report
==== Log checksum 46D9A7144668445F083ECDFFD2BF38BFC9F229A8C4CB0A91F26B842B9C32133D ====

CUE

REM GENRE "New Age"REM DATE 2001REM DISCID 980A860EREM COMMENT "ExactAudioCopy v1.0b2"CATALOG 0000000000540PERFORMER "Young & Rollins"TITLE "Sevilla"FILE "01 - Cactus.wav" WAVE TRACK 01 AUDIO TITLE "Cactus" PERFORMER "Young & Rollins" INDEX 01 00:00:00 TRACK 02 AUDIO TITLE "Afternoon Cha Cha" PERFORMER "Young & Rollins" INDEX 00 03:38:38FILE "02 - Afternoon Cha Cha.wav" WAVE INDEX 01 00:00:00 TRACK 03 AUDIO TITLE "Intro for Solo Guitar" PERFORMER "Young & Rollins" INDEX 00 04:12:68FILE "03 - Intro for Solo Guitar.wav" WAVE INDEX 01 00:00:00FILE "04 - Sevilla.wav" WAVE TRACK 04 AUDIO TITLE "Sevilla" PERFORMER "Young & Rollins" INDEX 01 00:00:00 TRACK 05 AUDIO TITLE "Stay With Me" PERFORMER "Young & Rollins" INDEX 00 03:18:57FILE "05 - Stay With Me.wav" WAVE INDEX 01 00:00:00 TRACK 06 AUDIO TITLE "Melancholy" PERFORMER "Young & Rollins" INDEX 00 03:19:18FILE "06 - Melancholy.wav" WAVE INDEX 01 00:00:00FILE "07 - In the Moment.wav" WAVE TRACK 07 AUDIO TITLE "In the Moment" PERFORMER "Young & Rollins" INDEX 01 00:00:00 TRACK 08 AUDIO TITLE "Come & Go" PERFORMER "Young & Rollins" INDEX 00 03:34:00FILE "08 - Come & Go.wav" WAVE INDEX 01 00:00:00 TRACK 09 AUDIO TITLE "Desert Heat" PERFORMER "Young & Rollins" INDEX 00 03:36:42FILE "09 - Desert Heat.wav" WAVE INDEX 01 00:00:00 TRACK 10 AUDIO TITLE "Fiesta" PERFORMER "Young & Rollins" INDEX 00 03:28:05FILE "10 - Fiesta.wav" WAVE INDEX 01 00:00:00 TRACK 11 AUDIO TITLE "Spanish Sun" PERFORMER "Young & Rollins" INDEX 00 04:18:27FILE "11 - Spanish Sun.wav" WAVE INDEX 01 00:00:00 TRACK 12 AUDIO TITLE "Nightfall" PERFORMER "Young & Rollins" INDEX 00 03:22:47FILE "12 - Nightfall.wav" WAVE INDEX 01 00:00:00 TRACK 13 AUDIO TITLE "Carino Mio" PERFORMER "Young & Rollins" INDEX 00 01:39:59FILE "13 - Carino Mio.wav" WAVE INDEX 01 00:00:00 TRACK 14 AUDIO TITLE "Cactus - Spice Mix (Bonus Track)" PERFORMER "Young & Rollins" INDEX 00 04:18:36FILE "14 - Cactus - Spice Mix (Bonus Track).wav" WAVE INDEX 01 00:00:00

auCDtect

[img][/img]

Young & Rollins - 2005 - Esperanza

01. Firedancer (4:18)
02. Spanish Nights (4:57)
03. Twanee (2:32)
04. Esperanza (3:48)
05. Sandstorm (4:30)
06. Ritual (5:55)
07. Play On (3:50)
08. Nowhere To Be Found (3:35)
09. Mirage (6:00)
10. Cottonwood Canyon (4:43)
11. Esperanza (Reprise) (1:07)

EAC LOG

Exact Audio Copy V0.99 prebeta 5 from 4. May 2009
EAC extraction logfile from 13. May 2011, 19:32
Young & Rollins / Esperanza
Used drive : PIONEER DVD-RW DVR-115D Adapter: 0 ID: 0
Read mode : SecureUtilize accurate stream : YesDefeat audio cache : YesMake use of C2 pointers : No
Read offset correction : 48Overread into Lead-In and Lead-Out : NoFill up missing offset samples with silence : YesDelete leading and trailing silent blocks : NoNull samples used in CRC calculations : NoUsed interface : Native Win32 interface for Win NT & 2000Gap handling : Appended to previous track
Used output format : User Defined EncoderSelected bitrate : 768 kBit/sQuality : HighAdd ID3 tag : NoCommand line compressor : C:\Program Files\Exact Audio Copy\FLAC\FLAC.EXEAdditional command line options : -8 -V -T "ARTIST=%a" -T "TITLE=%t" -T "ALBUM=%g" -T "DATE=%y" -T "TRACKNUMBER=%n" -T "GENRE=%m" -T "COMMENT=EAC FLAC -8" %s
TOC of the extracted CD
Track | Start | Length | Start sector | End sector --------------------------------------------------------- 1 | 0:00.00 | 4:18.10 | 0 | 19359 2 | 4:18.10 | 4:57.26 | 19360 | 41660 3 | 9:15.36 | 2:32.55 | 41661 | 53115 4 | 11:48.16 | 3:48.33 | 53116 | 70248 5 | 15:36.49 | 4:30.18 | 70249 | 90516 6 | 20:06.67 | 5:55.28 | 90517 | 117169 7 | 26:02.20 | 3:50.27 | 117170 | 134446 8 | 29:52.47 | 3:35.37 | 134447 | 150608 9 | 33:28.09 | 6:00.67 | 150609 | 177675 10 | 39:29.01 | 4:43.64 | 177676 | 198964 11 | 44:12.65 | 1:07.21 | 198965 | 204010
Track 1
Filename D:\MUSIC\Young & Rollins\Lossless\Young & Rollins - 2005 - Esperanza\01. Firedancer.wav
Pre-gap length 0:00:02.00
Peak level 98.8 % Track quality 100.0 % Test CRC 5FCD1F87 Copy CRC 5FCD1F87 Cannot be verified as accurate (confidence 2) [9DD4D43A], AccurateRip returned [EA7D28D6] Copy OK
Track 2
Filename D:\MUSIC\Young & Rollins\Lossless\Young & Rollins - 2005 - Esperanza\02. Spanish Nights.wav
Peak level 98.8 % Track quality 100.0 % Test CRC 33FF98AD Copy CRC 33FF98AD Cannot be verified as accurate (confidence 2) [D1E2687A], AccurateRip returned [406796EA] Copy OK
Track 3
Filename D:\MUSIC\Young & Rollins\Lossless\Young & Rollins - 2005 - Esperanza\03. Twanee.wav
Peak level 98.8 % Track quality 99.9 % Test CRC DE855278 Copy CRC DE855278 Cannot be verified as accurate (confidence 2) [123587FB], AccurateRip returned [C631017B] Copy OK
Track 4
Filename D:\MUSIC\Young & Rollins\Lossless\Young & Rollins - 2005 - Esperanza\04. Esperanza.wav
Peak level 98.8 % Track quality 99.9 % Test CRC 3F232634 Copy CRC 3F232634 Cannot be verified as accurate (confidence 2) [11C91F7D], AccurateRip returned [4092F139] Copy OK
Track 5
Filename D:\MUSIC\Young & Rollins\Lossless\Young & Rollins - 2005 - Esperanza\05. Sandstorm.wav
Peak level 98.8 % Track quality 100.0 % Test CRC 93A94409 Copy CRC 93A94409 Cannot be verified as accurate (confidence 2) [C683A336], AccurateRip returned [F7FD3F82] Copy OK
Track 6
Filename D:\MUSIC\Young & Rollins\Lossless\Young & Rollins - 2005 - Esperanza\06. Ritual.wav
Peak level 98.8 % Track quality 100.0 % Test CRC 9743C9A1 Copy CRC 9743C9A1 Cannot be verified as accurate (confidence 2) [60B0A9A6], AccurateRip returned [DFD7362E] Copy OK
Track 7
Filename D:\MUSIC\Young & Rollins\Lossless\Young & Rollins - 2005 - Esperanza\07. Play On.wav
Peak level 98.8 % Track quality 100.0 % Test CRC 18545174 Copy CRC 18545174 Cannot be verified as accurate (confidence 2) [9FA3F96D], AccurateRip returned [783B3E19] Copy OK
Track 8
Filename D:\MUSIC\Young & Rollins\Lossless\Young & Rollins - 2005 - Esperanza\08. Nowhere To Be Found.wav
Peak level 98.8 % Track quality 99.9 % Test CRC ABBAD4B4 Copy CRC ABBAD4B4 Cannot be verified as accurate (confidence 2) [53267A16], AccurateRip returned [B8E19F66] Copy OK
Track 9
Filename D:\MUSIC\Young & Rollins\Lossless\Young & Rollins - 2005 - Esperanza\09. Mirage.wav
Peak level 98.8 % Track quality 100.0 % Test CRC 26D23FFE Copy CRC 26D23FFE Cannot be verified as accurate (confidence 2) [A277F7E4], AccurateRip returned [C854E060] Copy OK
Track 10
Filename D:\MUSIC\Young & Rollins\Lossless\Young & Rollins - 2005 - Esperanza\10. Cottonwood Canyon.wav
Peak level 98.8 % Track quality 100.0 % Test CRC 26B35D69 Copy CRC 26B35D69 Cannot be verified as accurate (confidence 2) [555A5FFF], AccurateRip returned [0C716BEB] Copy OK
Track 11
Filename D:\MUSIC\Young & Rollins\Lossless\Young & Rollins - 2005 - Esperanza\11. Esperanza (Reprise).wav
Peak level 98.3 % Track quality 100.0 % Test CRC EA15E5B6 Copy CRC EA15E5B6 Cannot be verified as accurate (confidence 2) [0F16553A], AccurateRip returned [DED6C9DE] Copy OK
No tracks could be verified as accurateYou may have a different pressing from the one(s) in the database
No errors occurred
End of status report

CUE

REM GENRE "New Age, Flamenco"REM DATE 2005REM DISCID 880AA00BREM COMMENT "ExactAudioCopy v0.99pb5"PERFORMER "Young & Rollins"TITLE "Esperanza"FILE "Young & Rollins - 2005 - Esperanza\01. Firedancer.wav" WAVE TRACK 01 AUDIO TITLE "Firedancer" PERFORMER "Young & Rollins" INDEX 01 00:00:00FILE "Young & Rollins - 2005 - Esperanza\02. Spanish Nights.wav" WAVE TRACK 02 AUDIO TITLE "Spanish Nights" PERFORMER "Young & Rollins" INDEX 01 00:00:00FILE "Young & Rollins - 2005 - Esperanza\03. Twanee.wav" WAVE TRACK 03 AUDIO TITLE "Twanee" PERFORMER "Young & Rollins" INDEX 01 00:00:00FILE "Young & Rollins - 2005 - Esperanza\04. Esperanza.wav" WAVE TRACK 04 AUDIO TITLE "Esperanza" PERFORMER "Young & Rollins" INDEX 01 00:00:00FILE "Young & Rollins - 2005 - Esperanza\05. Sandstorm.wav" WAVE TRACK 05 AUDIO TITLE "Sandstorm" PERFORMER "Young & Rollins" INDEX 01 00:00:00FILE "Young & Rollins - 2005 - Esperanza\06. Ritual.wav" WAVE TRACK 06 AUDIO TITLE "Ritual" PERFORMER "Young & Rollins" INDEX 01 00:00:00FILE "Young & Rollins - 2005 - Esperanza\07. Play On.wav" WAVE TRACK 07 AUDIO TITLE "Play On" PERFORMER "Young & Rollins" INDEX 01 00:00:00FILE "Young & Rollins - 2005 - Esperanza\08. Nowhere To Be Found.wav" WAVE TRACK 08 AUDIO TITLE "Nowhere To Be Found" PERFORMER "Young & Rollins" INDEX 01 00:00:00FILE "Young & Rollins - 2005 - Esperanza\09. Mirage.wav" WAVE TRACK 09 AUDIO TITLE "Mirage" PERFORMER "Young & Rollins" INDEX 01 00:00:00FILE "Young & Rollins - 2005 - Esperanza\10. Cottonwood Canyon.wav" WAVE TRACK 10 AUDIO TITLE "Cottonwood Canyon" PERFORMER "Young & Rollins" INDEX 01 00:00:00FILE "Young & Rollins - 2005 - Esperanza\11. Esperanza (Reprise).wav" WAVE TRACK 11 AUDIO TITLE "Esperanza (Reprise)" PERFORMER "Young & Rollins" INDEX 01 00:00:00

auCDtect

[img][/img]

Young & Rollins - 2006 - Mosaic

01. Mosaic (4:19)
02. Mediterranean Romance (4:56)
03. Mistral (4:23)
04. Madrugada (5:14)
05. Mi Tierra (4:48)
06. Torero (3:59)
07. Fuego Gitano (4:11)
08. Coming Home (4:11)
09. Amorosa (4:28)
10. Ocho Rios (3:16)

EAC LOG

Exact Audio Copy V0.99 prebeta 5 from 4. May 2009
EAC extraction logfile from 13. May 2011, 19:52
Young & Rollins / Mosaic
Used drive : PIONEER DVD-RW DVR-115D Adapter: 0 ID: 0
Read mode : SecureUtilize accurate stream : YesDefeat audio cache : YesMake use of C2 pointers : No
Read offset correction : 48Overread into Lead-In and Lead-Out : NoFill up missing offset samples with silence : YesDelete leading and trailing silent blocks : NoNull samples used in CRC calculations : NoUsed interface : Native Win32 interface for Win NT & 2000Gap handling : Appended to previous track
Used output format : User Defined EncoderSelected bitrate : 768 kBit/sQuality : HighAdd ID3 tag : NoCommand line compressor : C:\Program Files\Exact Audio Copy\FLAC\FLAC.EXEAdditional command line options : -8 -V -T "ARTIST=%a" -T "TITLE=%t" -T "ALBUM=%g" -T "DATE=%y" -T "TRACKNUMBER=%n" -T "GENRE=%m" -T "COMMENT=EAC FLAC -8" %s
TOC of the extracted CD
Track | Start | Length | Start sector | End sector --------------------------------------------------------- 1 | 0:00.00 | 4:19.69 | 0 | 19493 2 | 4:19.69 | 4:56.22 | 19494 | 41715 3 | 9:16.16 | 4:23.05 | 41716 | 61445 4 | 13:39.21 | 5:14.67 | 61446 | 85062 5 | 18:54.13 | 4:48.07 | 85063 | 106669 6 | 23:42.20 | 3:59.58 | 106670 | 124652 7 | 27:42.03 | 4:11.29 | 124653 | 143506 8 | 31:53.32 | 4:11.41 | 143507 | 162372 9 | 36:04.73 | 4:28.10 | 162373 | 182482 10 | 40:33.08 | 3:16.27 | 182483 | 197209
Track 1
Filename D:\MUSIC\Young & Rollins\Lossless\Young & Rollins - 2006 - Mosaic\01. Mosaic.wav
Pre-gap length 0:00:02.00
Peak level 98.8 % Track quality 100.0 % Test CRC BC3A10F3 Copy CRC BC3A10F3 Cannot be verified as accurate (confidence 1) [E39F6110], AccurateRip returned [C15FC9BE] Copy OK
Track 2
Filename D:\MUSIC\Young & Rollins\Lossless\Young & Rollins - 2006 - Mosaic\02. Mediterranean Romance.wav
Peak level 98.8 % Track quality 100.0 % Test CRC AF23BB6C Copy CRC AF23BB6C Cannot be verified as accurate (confidence 1) [BB851A86], AccurateRip returned [71BF3A72] Copy OK
Track 3
Filename D:\MUSIC\Young & Rollins\Lossless\Young & Rollins - 2006 - Mosaic\03. Mistral.wav
Peak level 98.8 % Track quality 100.0 % Test CRC 21D4C792 Copy CRC 21D4C792 Cannot be verified as accurate (confidence 1) [F6B43804], AccurateRip returned [E322F86E] Copy OK
Track 4
Filename D:\MUSIC\Young & Rollins\Lossless\Young & Rollins - 2006 - Mosaic\04. Madrugada.wav
Peak level 98.8 % Track quality 100.0 % Test CRC 98A19BF5 Copy CRC 98A19BF5 Cannot be verified as accurate (confidence 1) [53D3078F], AccurateRip returned [AFD750CB] Copy OK
Track 5
Filename D:\MUSIC\Young & Rollins\Lossless\Young & Rollins - 2006 - Mosaic\05. Mi Tierra.wav
Peak level 98.8 % Track quality 100.0 % Test CRC B7BE9ACB Copy CRC B7BE9ACB Cannot be verified as accurate (confidence 1) [57AD5974], AccurateRip returned [55B0B750] Copy OK
Track 6
Filename D:\MUSIC\Young & Rollins\Lossless\Young & Rollins - 2006 - Mosaic\06. Torero.wav
Peak level 98.8 % Track quality 100.0 % Test CRC 2F825101 Copy CRC 2F825101 Cannot be verified as accurate (confidence 1) [DFA3743B], AccurateRip returned [E517B8B9] Copy OK
Track 7
Filename D:\MUSIC\Young & Rollins\Lossless\Young & Rollins - 2006 - Mosaic\07. Fuego Gitano.wav
Peak level 98.8 % Track quality 99.9 % Test CRC 17556F0D Copy CRC 17556F0D Cannot be verified as accurate (confidence 1) [9AC6C2B1], AccurateRip returned [88AE946F] Copy OK
Track 8
Filename D:\MUSIC\Young & Rollins\Lossless\Young & Rollins - 2006 - Mosaic\08. Coming Home.wav
Peak level 98.8 % Track quality 100.0 % Test CRC 540F300E Copy CRC 540F300E Cannot be verified as accurate (confidence 1) [7A4E9CC2], AccurateRip returned [2E0B241E] Copy OK
Track 9
Filename D:\MUSIC\Young & Rollins\Lossless\Young & Rollins - 2006 - Mosaic\09. Amorosa.wav
Peak level 98.8 % Track quality 100.0 % Test CRC DF43C907 Copy CRC DF43C907 Cannot be verified as accurate (confidence 1) [9DD0FC9C], AccurateRip returned [D81F3EBA] Copy OK
Track 10
Filename D:\MUSIC\Young & Rollins\Lossless\Young & Rollins - 2006 - Mosaic\10. Ocho Rios.wav
Peak level 98.8 % Track quality 100.0 % Test CRC E6C301C3 Copy CRC E6C301C3 Cannot be verified as accurate (confidence 1) [2A39EC74], AccurateRip returned [62CA3C42] Copy OK
No tracks could be verified as accurateYou may have a different pressing from the one(s) in the database
No errors occurred
End of status report

CUE

REM GENRE "Latin, Flamenco, Salsa"REM DATE 2006REM DISCID 7C0A450AREM COMMENT "ExactAudioCopy v0.99pb5"PERFORMER "Young & Rollins"TITLE "Mosaic"FILE "Young & Rollins - 2006 - Mosaic\01. Mosaic.wav" WAVE TRACK 01 AUDIO TITLE "Mosaic" PERFORMER "Young & Rollins" INDEX 01 00:00:00FILE "Young & Rollins - 2006 - Mosaic\02. Mediterranean Romance.wav" WAVE TRACK 02 AUDIO TITLE "Mediterranean Romance" PERFORMER "Young & Rollins" INDEX 01 00:00:00FILE "Young & Rollins - 2006 - Mosaic\03. Mistral.wav" WAVE TRACK 03 AUDIO TITLE "Mistral" PERFORMER "Young & Rollins" INDEX 01 00:00:00FILE "Young & Rollins - 2006 - Mosaic\04. Madrugada.wav" WAVE TRACK 04 AUDIO TITLE "Madrugada" PERFORMER "Young & Rollins" INDEX 01 00:00:00FILE "Young & Rollins - 2006 - Mosaic\05. Mi Tierra.wav" WAVE TRACK 05 AUDIO TITLE "Mi Tierra" PERFORMER "Young & Rollins" INDEX 01 00:00:00FILE "Young & Rollins - 2006 - Mosaic\06. Torero.wav" WAVE TRACK 06 AUDIO TITLE "Torero" PERFORMER "Young & Rollins" INDEX 01 00:00:00FILE "Young & Rollins - 2006 - Mosaic\07. Fuego Gitano.wav" WAVE TRACK 07 AUDIO TITLE "Fuego Gitano" PERFORMER "Young & Rollins" INDEX 01 00:00:00FILE "Young & Rollins - 2006 - Mosaic\08. Coming Home.wav" WAVE TRACK 08 AUDIO TITLE "Coming Home" PERFORMER "Young & Rollins" INDEX 01 00:00:00FILE "Young & Rollins - 2006 - Mosaic\09. Amorosa.wav" WAVE TRACK 09 AUDIO TITLE "Amorosa" PERFORMER "Young & Rollins" INDEX 01 00:00:00FILE "Young & Rollins - 2006 - Mosaic\10. Ocho Rios.wav" WAVE TRACK 10 AUDIO TITLE "Ocho Rios" PERFORMER "Young & Rollins" INDEX 01 00:00:00

auCDtect

[img][/img]

Lawson Rollins - 2008 - Infinita

01. Cafe Jobim (with Flora Purim) (4:39)
02. Echoes of Madrid (4:50)
03. In Motion (6:07)
04. The Awakening (4:27)
05. Infinita (with Flora Purim) (6:59)
06. Southwind (4:20)
07. Through the Night (5:27)
08. Ceremony (4:51)
09. New World Raga (5:12)
10. Streets of San Miguel (6:11)
11. For JoAnn (4:40)

EAC LOG

Exact Audio Copy V0.99 prebeta 5 from 4. May 2009
EAC extraction logfile from 15. November 2010, 18:25
Lawson Rollins / Infinita
Used drive : PLDS DVD+-RW DL-8ATS Adapter: 1 ID: 0
Read mode : SecureUtilize accurate stream : YesDefeat audio cache : YesMake use of C2 pointers : No
Read offset correction : 6Overread into Lead-In and Lead-Out : NoFill up missing offset samples with silence : YesDelete leading and trailing silent blocks : NoNull samples used in CRC calculations : YesUsed interface : Native Win32 interface for Win NT & 2000Gap handling : Appended to previous track
Used output format : User Defined EncoderSelected bitrate : 1024 kBit/sQuality : HighAdd ID3 tag : NoCommand line compressor : C:\Program Files (x86)\Exact Audio Copy\FLAC\FLAC.EXEAdditional command line options : -8 -T "artist=%a" -T "title=%t" -T "album=%g" -T "date=%y" -T "tracknumber=%n" -T "genre=%m" %s
TOC of the extracted CD
Track | Start | Length | Start sector | End sector --------------------------------------------------------- 1 | 0:00.00 | 4:39.05 | 0 | 20929 2 | 4:39.05 | 4:50.03 | 20930 | 42682 3 | 9:29.08 | 6:07.43 | 42683 | 70250 4 | 15:36.51 | 4:27.49 | 70251 | 90324 5 | 20:04.25 | 6:59.46 | 90325 | 121795 6 | 27:03.71 | 4:20.61 | 121796 | 141356 7 | 31:24.57 | 5:27.22 | 141357 | 165903 8 | 36:52.04 | 4:51.49 | 165904 | 187777 9 | 41:43.53 | 5:12.63 | 187778 | 211240 10 | 46:56.41 | 6:11.07 | 211241 | 239072 11 | 53:07.48 | 4:40.50 | 239073 | 260122
Track 1
Filename G:\CD Encode\EAC\Lawson Rollins\Infinita\01 - Cafe Jobim (with Flora Purim).wav
Pre-gap length 0:00:02.00
Peak level 98.8 % Track quality 100.0 % Test CRC A939856C Copy CRC A939856C Accurately ripped (confidence 2) [6EACABDD] Copy OK
Track 2
Filename G:\CD Encode\EAC\Lawson Rollins\Infinita\02 - Echoes of Madrid.wav
Pre-gap length 0:00:00.86
Peak level 98.8 % Track quality 100.0 % Test CRC 80241CF7 Copy CRC 80241CF7 Accurately ripped (confidence 2) [6777CB11] Copy OK
Track 3
Filename G:\CD Encode\EAC\Lawson Rollins\Infinita\03 - In Motion.wav
Pre-gap length 0:00:01.40
Peak level 98.8 % Track quality 99.9 % Test CRC 97DD22B2 Copy CRC 97DD22B2 Accurately ripped (confidence 2) [DA258252] Copy OK
Track 4
Filename G:\CD Encode\EAC\Lawson Rollins\Infinita\04 - The Awakening.wav
Pre-gap length 0:00:01.26
Peak level 98.8 % Track quality 99.9 % Test CRC AC83824A Copy CRC AC83824A Accurately ripped (confidence 2) [F4879ADE] Copy OK
Track 5
Filename G:\CD Encode\EAC\Lawson Rollins\Infinita\05 - Infinita (with Flora Purim).wav
Pre-gap length 0:00:00.26
Peak level 98.8 % Track quality 100.0 % Test CRC 3BECE1E1 Copy CRC 3BECE1E1 Accurately ripped (confidence 2) [7E1FA14F] Copy OK
Track 6
Filename G:\CD Encode\EAC\Lawson Rollins\Infinita\06 - Southwind.wav
Pre-gap length 0:00:01.26
Peak level 98.8 % Track quality 100.0 % Test CRC 69FE1EE2 Copy CRC 69FE1EE2 Accurately ripped (confidence 2) [48DFCA9B] Copy OK
Track 7
Filename G:\CD Encode\EAC\Lawson Rollins\Infinita\07 - Through the Night.wav
Pre-gap length 0:00:01.49
Peak level 98.8 % Track quality 100.0 % Test CRC EAFAC1EF Copy CRC EAFAC1EF Accurately ripped (confidence 2) [97B1D7BE] Copy OK
Track 8
Filename G:\CD Encode\EAC\Lawson Rollins\Infinita\08 - Ceremony.wav
Pre-gap length 0:00:01.26
Peak level 98.8 % Track quality 100.0 % Test CRC 9530DEC7 Copy CRC 9530DEC7 Accurately ripped (confidence 2) [2F7A9AB1] Copy OK
Track 9
Filename G:\CD Encode\EAC\Lawson Rollins\Infinita\09 - New World Raga.wav
Pre-gap length 0:00:01.13
Peak level 98.8 % Track quality 100.0 % Test CRC 98E8E624 Copy CRC 98E8E624 Accurately ripped (confidence 2) [56ED6F61] Copy OK
Track 10
Filename G:\CD Encode\EAC\Lawson Rollins\Infinita\10 - Streets of San Miguel.wav
Peak level 98.8 % Track quality 100.0 % Test CRC 4F77A78D Copy CRC 4F77A78D Accurately ripped (confidence 2) [CA61CE97] Copy OK
Track 11
Filename G:\CD Encode\EAC\Lawson Rollins\Infinita\11 - For JoAnn.wav
Pre-gap length 0:00:02.00
Peak level 98.8 % Track quality 100.0 % Test CRC BFB01DC2 Copy CRC BFB01DC2 Accurately ripped (confidence 2) [5E2A4FCE] Copy OK
All tracks accurately ripped
No errors occurred
End of status report

CUE

auCDtect

[img][/img]

Lawson Rollins - 2010 - Espirito

01. Rumba Del Sol (4:33)
02. Midnight Samba (5:38)
03. Havana Heat (4:16)
04. Cafe La Martinique (6:09)
05. Return To Rio (4:50)
06. Blue Mountain Bolero (4:38)
07. Santa Lucia Waltz (4:32)
08. Espirito (5:45)
09. Cape Town Sky (6:05)
10. Footprints (2:28)
11. Migration (6:45)
12. Shadowland (6:35)
13. Into The Light (4:20)

EAC LOG

Exact Audio Copy V0.99 prebeta 5 from 4. May 2009
EAC extraction logfile from 15. November 2010, 17:01
Lawson Rollins / Espirito
Used drive : PLDS DVD+-RW DL-8ATS Adapter: 1 ID: 0
Read mode : SecureUtilize accurate stream : YesDefeat audio cache : YesMake use of C2 pointers : No
Read offset correction : 6Overread into Lead-In and Lead-Out : NoFill up missing offset samples with silence : YesDelete leading and trailing silent blocks : NoNull samples used in CRC calculations : YesUsed interface : Native Win32 interface for Win NT & 2000Gap handling : Appended to previous track
Used output format : User Defined EncoderSelected bitrate : 1024 kBit/sQuality : HighAdd ID3 tag : NoCommand line compressor : C:\Program Files (x86)\Exact Audio Copy\FLAC\FLAC.EXEAdditional command line options : -8 -T "artist=%a" -T "title=%t" -T "album=%g" -T "date=%y" -T "tracknumber=%n" -T "genre=%m" %s
TOC of the extracted CD
Track | Start | Length | Start sector | End sector --------------------------------------------------------- 1 | 0:00.00 | 4:33.49 | 0 | 20523 2 | 4:33.49 | 5:38.57 | 20524 | 45930 3 | 10:12.31 | 4:16.53 | 45931 | 65183 4 | 14:29.09 | 6:09.51 | 65184 | 92909 5 | 20:38.60 | 4:50.57 | 92910 | 114716 6 | 25:29.42 | 4:38.31 | 114717 | 135597 7 | 30:07.73 | 4:32.46 | 135598 | 156043 8 | 34:40.44 | 5:45.20 | 156044 | 181938 9 | 40:25.64 | 6:05.35 | 181939 | 209348 10 | 46:31.24 | 2:28.70 | 209349 | 220518 11 | 49:00.19 | 6:45.73 | 220519 | 250966 12 | 55:46.17 | 6:35.27 | 250967 | 280618 13 | 62:21.44 | 4:20.59 | 280619 | 300177
Track 1
Filename G:\CD Encode\EAC\Lawson Rollins\Espirito\01 - Rumba Del Sol.wav
Pre-gap length 0:00:02.00
Peak level 98.8 % Track quality 100.0 % Test CRC 1898ECA9 Copy CRC 1898ECA9 Track not present in AccurateRip database Copy OK
Track 2
Filename G:\CD Encode\EAC\Lawson Rollins\Espirito\02 - Midnight Samba.wav
Pre-gap length 0:00:00.66
Peak level 98.8 % Track quality 100.0 % Test CRC 28B83850 Copy CRC 28B83850 Track not present in AccurateRip database Copy OK
Track 3
Filename G:\CD Encode\EAC\Lawson Rollins\Espirito\03 - Havana Heat.wav
Pre-gap length 0:00:00.49
Peak level 98.8 % Track quality 99.9 % Test CRC 664956D0 Copy CRC 664956D0 Track not present in AccurateRip database Copy OK
Track 4
Filename G:\CD Encode\EAC\Lawson Rollins\Espirito\04 - Cafe La Martinique.wav
Pre-gap length 0:00:00.26
Peak level 98.8 % Track quality 100.0 % Test CRC 4D113054 Copy CRC 4D113054 Track not present in AccurateRip database Copy OK
Track 5
Filename G:\CD Encode\EAC\Lawson Rollins\Espirito\05 - Return To Rio.wav
Pre-gap length 0:00:01.00
Peak level 98.8 % Track quality 100.0 % Test CRC 1D50C50C Copy CRC 1D50C50C Track not present in AccurateRip database Copy OK
Track 6
Filename G:\CD Encode\EAC\Lawson Rollins\Espirito\06 - Blue Mountain Bolero.wav
Pre-gap length 0:00:01.26
Peak level 98.8 % Track quality 100.0 % Test CRC BB75343C Copy CRC BB75343C Track not present in AccurateRip database Copy OK
Track 7
Filename G:\CD Encode\EAC\Lawson Rollins\Espirito\07 - Santa Lucia Waltz.wav
Pre-gap length 0:00:00.66
Peak level 98.8 % Track quality 99.9 % Test CRC 074F178B Copy CRC 074F178B Track not present in AccurateRip database Copy OK
Track 8
Filename G:\CD Encode\EAC\Lawson Rollins\Espirito\08 - Espirito.wav
Pre-gap length 0:00:01.40
Peak level 98.8 % Track quality 100.0 % Test CRC 811BDA45 Copy CRC 811BDA45 Track not present in AccurateRip database Copy OK
Track 9
Filename G:\CD Encode\EAC\Lawson Rollins\Espirito\09 - Cape Town Sky.wav
Peak level 98.8 % Track quality 100.0 % Test CRC 9FE54257 Copy CRC 9FE54257 Track not present in AccurateRip database Copy OK
Track 10
Filename G:\CD Encode\EAC\Lawson Rollins\Espirito\10 - Footprints.wav
Pre-gap length 0:00:01.80
Peak level 98.8 % Track quality 100.0 % Test CRC 367F09F9 Copy CRC 367F09F9 Track not present in AccurateRip database Copy OK
Track 11
Filename G:\CD Encode\EAC\Lawson Rollins\Espirito\11 - Migration.wav
Pre-gap length 0:00:02.34
Peak level 98.8 % Track quality 100.0 % Test CRC B2E6CE6E Copy CRC B2E6CE6E Track not present in AccurateRip database Copy OK
Track 12
Filename G:\CD Encode\EAC\Lawson Rollins\Espirito\12 - Shadowland.wav
Peak level 98.8 % Track quality 100.0 % Test CRC 8271AA6B Copy CRC 8271AA6B Track not present in AccurateRip database Copy OK
Track 13
Filename G:\CD Encode\EAC\Lawson Rollins\Espirito\13 - Into The Light.wav
Peak level 98.8 % Track quality 100.0 % Test CRC CBCD4590 Copy CRC CBCD4590 Track not present in AccurateRip database Copy OK
None of the tracks are present in the AccurateRip database
No errors occurred
End of status report

CUE

Lawson Rollins - 2011 - Elevation

01. Elevation (05:22)
02. Voyager's Tale (05:43)
03. Persian Night (05:28)
04. Parisian Rhapsody (05:31)
05. Santa Barbara Song (04:37)
06. Daybreak (04:57)
07. Shadows of Life (05:49)
08. Himalayan Blue (05:55)
09. The Wind at Dawn (05:57)
10. Francisco's Dance (05:48)
11. Slow Ascent (05:11)
12. The Diamond Path (06:55)
13. Ghost of Alcazar (06:14)

EAC LOG

Exact Audio Copy V1.0 beta 2 from 29. April 2011
EAC extraction logfile from 8. November 2011, 21:19
Lawson Rollins / Elevation
Used drive : PIONEER DVD-RW DVR-115D Adapter: 0 ID: 0
Read mode : SecureUtilize accurate stream : YesDefeat audio cache : YesMake use of C2 pointers : No
Read offset correction : 48Overread into Lead-In and Lead-Out : NoFill up missing offset samples with silence : YesDelete leading and trailing silent blocks : NoNull samples used in CRC calculations : YesUsed interface : Native Win32 interface for Win NT & 2000Gap handling : Appended to previous track
Used output format : User Defined EncoderSelected bitrate : 1024 kBit/sQuality : HighAdd ID3 tag : NoCommand line compressor : C:\Program Files\FLAC\flac.exeAdditional command line options : -8 -V -T "ARTIST=%artist%" -T "TITLE=%title%" -T "ALBUM=%albumtitle%" -T "DATE=%year%" -T "TRACKNUMBER=%tracknr%" -T "GENRE=%genre%" -T "PERFORMER=%albuminterpret%" -T "COMPOSER=%composer%" %haslyrics%--tag-from-file=LYRICS
TOC of the extracted CD
Track | Start | Length | Start sector | End sector --------------------------------------------------------- 1 | 0:00.00 | 5:22.11 | 0 | 24160 2 | 5:22.11 | 5:43.27 | 24161 | 49912 3 | 11:05.38 | 5:28.23 | 49913 | 74535 4 | 16:33.61 | 5:31.37 | 74536 | 99397 5 | 22:05.23 | 4:37.65 | 99398 | 120237 6 | 26:43.13 | 4:57.65 | 120238 | 142577 7 | 31:41.03 | 5:49.53 | 142578 | 168805 8 | 37:30.56 | 5:55.05 | 168806 | 195435 9 | 43:25.61 | 5:57.74 | 195436 | 222284 10 | 49:23.60 | 5:48.42 | 222285 | 248426 11 | 55:12.27 | 5:11.15 | 248427 | 271766 12 | 60:23.42 | 6:55.72 | 271767 | 302963 13 | 67:19.39 | 6:14.58 | 302964 | 331071
Track 1
Filename D:\MUSIC\Young & Rollins\Lossless\Lawson Rollins - 2011 - Elevation\01 - Elevation.wav
Pre-gap length 0:00:02.00
Peak level 97.7 % Extraction speed 5.0 X Track quality 100.0 % Test CRC 574C187E Copy CRC 574C187E Track not present in AccurateRip database Copy OK
Track 2
Filename D:\MUSIC\Young & Rollins\Lossless\Lawson Rollins - 2011 - Elevation\02 - Voyager's Tale.wav
Peak level 97.7 % Extraction speed 5.6 X Track quality 100.0 % Test CRC C8DA8F24 Copy CRC C8DA8F24 Track not present in AccurateRip database Copy OK
Track 3
Filename D:\MUSIC\Young & Rollins\Lossless\Lawson Rollins - 2011 - Elevation\03 - Persian Night.wav
Peak level 97.7 % Extraction speed 5.6 X Track quality 99.9 % Test CRC AA071CA0 Copy CRC AA071CA0 Track not present in AccurateRip database Copy OK
Track 4
Filename D:\MUSIC\Young & Rollins\Lossless\Lawson Rollins - 2011 - Elevation\04 - Parisian Rhapsody.wav
Peak level 97.7 % Extraction speed 6.6 X Track quality 100.0 % Test CRC C6967E5B Copy CRC C6967E5B Track not present in AccurateRip database Copy OK
Track 5
Filename D:\MUSIC\Young & Rollins\Lossless\Lawson Rollins - 2011 - Elevation\05 - Santa Barbara Song.wav
Peak level 97.7 % Extraction speed 6.2 X Track quality 99.9 % Test CRC 0DE28275 Copy CRC 0DE28275 Track not present in AccurateRip database Copy OK
Track 6
Filename D:\MUSIC\Young & Rollins\Lossless\Lawson Rollins - 2011 - Elevation\06 - Daybreak.wav
Peak level 97.7 % Extraction speed 7.3 X Track quality 100.0 % Test CRC 9A225777 Copy CRC 9A225777 Track not present in AccurateRip database Copy OK
Track 7
Filename D:\MUSIC\Young & Rollins\Lossless\Lawson Rollins - 2011 - Elevation\07 - Shadows of Life.wav
Peak level 97.7 % Extraction speed 7.7 X Track quality 100.0 % Test CRC 9F1CB06A Copy CRC 9F1CB06A Track not present in AccurateRip database Copy OK
Track 8
Filename D:\MUSIC\Young & Rollins\Lossless\Lawson Rollins - 2011 - Elevation\08 - Himalayan Blue.wav
Peak level 97.7 % Extraction speed 8.1 X Track quality 100.0 % Test CRC 14D086B5 Copy CRC 14D086B5 Track not present in AccurateRip database Copy OK
Track 9
Filename D:\MUSIC\Young & Rollins\Lossless\Lawson Rollins - 2011 - Elevation\09 - The Wind at Dawn.wav
Peak level 97.7 % Extraction speed 8.5 X Track quality 100.0 % Test CRC B0B9278A Copy CRC B0B9278A Track not present in AccurateRip database Copy OK
Track 10
Filename D:\MUSIC\Young & Rollins\Lossless\Lawson Rollins - 2011 - Elevation\10 - Francisco's Dance.wav
Peak level 97.7 % Extraction speed 8.0 X Track quality 99.9 % Test CRC E63606D2 Copy CRC E63606D2 Track not present in AccurateRip database Copy OK
Track 11
Filename D:\MUSIC\Young & Rollins\Lossless\Lawson Rollins - 2011 - Elevation\11 - Slow Ascent.wav
Peak level 97.7 % Extraction speed 9.0 X Track quality 100.0 % Test CRC 32704DB2 Copy CRC 32704DB2 Track not present in AccurateRip database Copy OK
Track 12
Filename D:\MUSIC\Young & Rollins\Lossless\Lawson Rollins - 2011 - Elevation\12 - The Diamond Path.wav
Peak level 97.7 % Extraction speed 8.8 X Track quality 99.9 % Test CRC A84DB691 Copy CRC A84DB691 Track not present in AccurateRip database Copy OK
Track 13
Filename D:\MUSIC\Young & Rollins\Lossless\Lawson Rollins - 2011 - Elevation\13 - Ghost of Alcazar.wav
Peak level 97.7 % Extraction speed 9.7 X Track quality 100.0 % Test CRC 69C3DC53 Copy CRC 69C3DC53 Track not present in AccurateRip database Copy OK
None of the tracks are present in the AccurateRip database
No errors occurred
End of status report
==== Log checksum FB74D2ED4990F2CE3691DFFC7AAB68AF1D73B47705FAE6AA077AC62C6906D2E3 ====

CUE

REM GENRE "flamenco, new-age, jazz"REM DATE 2011REM DISCID AF113E0DREM COMMENT "ExactAudioCopy v1.0b2"PERFORMER "Lawson Rollins"TITLE "Elevation"FILE "01 - Elevation.wav" WAVE TRACK 01 AUDIO TITLE "Elevation" PERFORMER "Lawson Rollins" ISRC USMNT1152238 INDEX 01 00:00:00FILE "02 - Voyager's Tale.wav" WAVE TRACK 02 AUDIO TITLE "Voyager's Tale" PERFORMER "Lawson Rollins" ISRC USMNT1152239 INDEX 01 00:00:00FILE "03 - Persian Night.wav" WAVE TRACK 03 AUDIO TITLE "Persian Night" PERFORMER "Lawson Rollins" ISRC USMNT1152240 INDEX 01 00:00:00FILE "04 - Parisian Rhapsody.wav" WAVE TRACK 04 AUDIO TITLE "Parisian Rhapsody" PERFORMER "Lawson Rollins" ISRC USMNT1152241 INDEX 01 00:00:00FILE "05 - Santa Barbara Song.wav" WAVE TRACK 05 AUDIO TITLE "Santa Barbara Song" PERFORMER "Lawson Rollins" ISRC USMNT1152242 INDEX 01 00:00:00FILE "06 - Daybreak.wav" WAVE TRACK 06 AUDIO TITLE "Daybreak" PERFORMER "Lawson Rollins" ISRC USMNT1152243 INDEX 01 00:00:00FILE "07 - Shadows of Life.wav" WAVE TRACK 07 AUDIO TITLE "Shadows of Life" PERFORMER "Lawson Rollins" ISRC USMNT1152244 INDEX 01 00:00:00FILE "08 - Himalayan Blue.wav" WAVE TRACK 08 AUDIO TITLE "Himalayan Blue" PERFORMER "Lawson Rollins" ISRC USMNT1152245 INDEX 01 00:00:00FILE "09 - The Wind at Dawn.wav" WAVE TRACK 09 AUDIO TITLE "The Wind at Dawn" PERFORMER "Lawson Rollins" ISRC USMNT1152246 INDEX 01 00:00:00FILE "10 - Francisco's Dance.wav" WAVE TRACK 10 AUDIO TITLE "Francisco's Dance" PERFORMER "Lawson Rollins" ISRC USMNT1152247 INDEX 01 00:00:00FILE "11 - Slow Ascent.wav" WAVE TRACK 11 AUDIO TITLE "Slow Ascent" PERFORMER "Lawson Rollins" ISRC USMNT1152248 INDEX 01 00:00:00FILE "12 - The Diamond Path.wav" WAVE TRACK 12 AUDIO TITLE "The Diamond Path" PERFORMER "Lawson Rollins" ISRC USMNT1152249 INDEX 01 00:00:00FILE "13 - Ghost of Alcazar.wav" WAVE TRACK 13 AUDIO TITLE "Ghost of Alcazar" PERFORMER "Lawson Rollins" ISRC USMNT1152250 INDEX 01 00:00:00

Lawson Rollins - 2013 - Full Circle

01. Momentum (03:48)
02. Point of Attraction (04:03)
03. Pursuit (03:35)
04. Flight (03:25)
05. Horizon (04:50)
06. Bloom (04:24)
07. Full Circle (03:41)
08. Serpent's Tale (04:23)
09. The Offering (04:45)
10. Gone From Here (08:49)
11. Shifting Seasons (06:27)
12. Promise (03:48)

EAC LOG

X Lossless Decoder version 20130720 (144.0)
XLD extraction logfile from 2013-08-19 16:30:57 -0400
Lawson Rollins / Full Circle
Used drive : HL-DT-ST DVDRW GS31N (revision TA17)Media type : Pressed CD
Ripper mode : XLD Secure RipperDisable audio cache : OK for the drive with a cache less than 1375KiBMake use of C2 pointers : NORead offset correction : 667Max retry count : 20Gap status : Analyzed, Appended
TOC of the extracted CD Track | Start | Length | Start sector | End sector --------------------------------------------------------- 1 | 00:00:00 | 03:48:55 | 0 | 17154 2 | 03:48:55 | 04:03:65 | 17155 | 35444 3 | 07:52:45 | 03:35:11 | 35445 | 51580 4 | 11:27:56 | 03:25:51 | 51581 | 67006 5 | 14:53:32 | 04:50:58 | 67007 | 88814 6 | 19:44:15 | 04:24:02 | 88815 | 108616 7 | 24:08:17 | 03:41:20 | 108617 | 125211 8 | 27:49:37 | 04:23:22 | 125212 | 144958 9 | 32:12:59 | 04:45:17 | 144959 | 166350 10 | 36:58:01 | 08:49:49 | 166351 | 206074 11 | 45:47:50 | 06:27:66 | 206075 | 235165 12 | 52:15:41 | 03:48:33 | 235166 | 252298
AccurateRip Summary Disc not found in AccurateRip DB.
All Tracks Album gain : -7.72 dB Peak : 1.000000 Statistics Read error : 0 Jitter error (maybe fixed) : 0 Retry sector count : 0 Damaged sector count : 0
Track 01 Filename : /Users/aford/Desktop/Transcodes/Lawson Rollins - Full Circle (2013) [FLAC]/01 Momentum.flac /Users/aford/Desktop/Transcodes/Lawson Rollins - Full Circle (2013) [V0]/01 Momentum.mp3 /Users/aford/Desktop/Transcodes/Lawson Rollins - Full Circle (2013) [320 MP3]/01 Momentum.mp3 Pre-gap length : 00:02:00
Track gain : -8.10 dB Peak : 0.988617 CRC32 hash (test run) : 01074F3F CRC32 hash : 01074F3F CRC32 hash (skip zero) : EF6270B7 AccurateRip v1 signature : 40CC8B05 AccurateRip v2 signature : A73AD670 ->Track not present in AccurateRip database. Statistics Read error : 0 Jitter error (maybe fixed) : 0 Retry sector count : 0 Damaged sector count : 0
Track 02 Filename : /Users/aford/Desktop/Transcodes/Lawson Rollins - Full Circle (2013) [FLAC]/02 Point of Attraction.flac /Users/aford/Desktop/Transcodes/Lawson Rollins - Full Circle (2013) [V0]/02 Point of Attraction.mp3 /Users/aford/Desktop/Transcodes/Lawson Rollins - Full Circle (2013) [320 MP3]/02 Point of Attraction.mp3
Track gain : -7.99 dB Peak : 0.988586 CRC32 hash (test run) : 6B9FF0EF CRC32 hash : 6B9FF0EF CRC32 hash (skip zero) : 28FDD822 AccurateRip v1 signature : 16966342 AccurateRip v2 signature : 985FE495 ->Track not present in AccurateRip database. Statistics Read error : 0 Jitter error (maybe fixed) : 0 Retry sector count : 0 Damaged sector count : 0
Track 03 Filename : /Users/aford/Desktop/Transcodes/Lawson Rollins - Full Circle (2013) [FLAC]/03 Pursuit.flac /Users/aford/Desktop/Transcodes/Lawson Rollins - Full Circle (2013) [V0]/03 Pursuit.mp3 /Users/aford/Desktop/Transcodes/Lawson Rollins - Full Circle (2013) [320 MP3]/03 Pursuit.mp3
Track gain : -8.57 dB Peak : 0.988617 CRC32 hash (test run) : 88844DE8 CRC32 hash : 88844DE8 CRC32 hash (skip zero) : 20F891B4 AccurateRip v1 signature : 7872CE3C AccurateRip v2 signature : BB063A14 ->Track not present in AccurateRip database. Statistics Read error : 0 Jitter error (maybe fixed) : 0 Retry sector count : 0 Damaged sector count : 0
Track 04 Filename : /Users/aford/Desktop/Transcodes/Lawson Rollins - Full Circle (2013) [FLAC]/04 Flight.flac /Users/aford/Desktop/Transcodes/Lawson Rollins - Full Circle (2013) [V0]/04 Flight.mp3 /Users/aford/Desktop/Transcodes/Lawson Rollins - Full Circle (2013) [320 MP3]/04 Flight.mp3
Track gain : -7.47 dB Peak : 0.988617 CRC32 hash (test run) : C4A56EEB CRC32 hash : C4A56EEB CRC32 hash (skip zero) : C4F589D3 AccurateRip v1 signature : FDA378CF AccurateRip v2 signature : 344AD8F3 ->Track not present in AccurateRip database. Statistics Read error : 0 Jitter error (maybe fixed) : 0 Retry sector count : 0 Damaged sector count : 0
Track 05 Filename : /Users/aford/Desktop/Transcodes/Lawson Rollins - Full Circle (2013) [FLAC]/05 Horizon.flac /Users/aford/Desktop/Transcodes/Lawson Rollins - Full Circle (2013) [V0]/05 Horizon.mp3 /Users/aford/Desktop/Transcodes/Lawson Rollins - Full Circle (2013) [320 MP3]/05 Horizon.mp3
Track gain : -8.16 dB Peak : 1.000000 CRC32 hash (test run) : 546F91BD CRC32 hash : 546F91BD CRC32 hash (skip zero) : EB079378 AccurateRip v1 signature : 1655C5C2 AccurateRip v2 signature : 78122ACD ->Track not present in AccurateRip database. Statistics Read error : 0 Jitter error (maybe fixed) : 0 Retry sector count : 0 Damaged sector count : 0
Track 06 Filename : /Users/aford/Desktop/Transcodes/Lawson Rollins - Full Circle (2013) [FLAC]/06 Bloom.flac /Users/aford/Desktop/Transcodes/Lawson Rollins - Full Circle (2013) [V0]/06 Bloom.mp3 /Users/aford/Desktop/Transcodes/Lawson Rollins - Full Circle (2013) [320 MP3]/06 Bloom.mp3
Track gain : -6.67 dB Peak : 0.988586 CRC32 hash (test run) : 34C1E6B2 CRC32 hash : 34C1E6B2 CRC32 hash (skip zero) : 95D4CF19 AccurateRip v1 signature : A609CFB9 AccurateRip v2 signature : 0E6125A8 ->Track not present in AccurateRip database. Statistics Read error : 0 Jitter error (maybe fixed) : 0 Retry sector count : 0 Damaged sector count : 0
Track 07 Filename : /Users/aford/Desktop/Transcodes/Lawson Rollins - Full Circle (2013) [FLAC]/07 Full Circle.flac /Users/aford/Desktop/Transcodes/Lawson Rollins - Full Circle (2013) [V0]/07 Full Circle.mp3 /Users/aford/Desktop/Transcodes/Lawson Rollins - Full Circle (2013) [320 MP3]/07 Full Circle.mp3
Track gain : -7.54 dB Peak : 0.988586 CRC32 hash (test run) : 00E47207 CRC32 hash : 00E47207 CRC32 hash (skip zero) : CAB25025 AccurateRip v1 signature : 7BFBCA16 AccurateRip v2 signature : 0BCED76C ->Track not present in AccurateRip database. Statistics Read error : 0 Jitter error (maybe fixed) : 0 Retry sector count : 0 Damaged sector count : 0
Track 08 Filename : /Users/aford/Desktop/Transcodes/Lawson Rollins - Full Circle (2013) [FLAC]/08 Serpent's Tale.flac /Users/aford/Desktop/Transcodes/Lawson Rollins - Full Circle (2013) [V0]/08 Serpent's Tale.mp3 /Users/aford/Desktop/Transcodes/Lawson Rollins - Full Circle (2013) [320 MP3]/08 Serpent's Tale.mp3
Track gain : -6.62 dB Peak : 0.988617 CRC32 hash (test run) : 97A49B44 CRC32 hash : 97A49B44 CRC32 hash (skip zero) : F8664A70 AccurateRip v1 signature : 835D5D89 AccurateRip v2 signature : 8CADD678 ->Track not present in AccurateRip database. Statistics Read error : 0 Jitter error (maybe fixed) : 0 Retry sector count : 0 Damaged sector count : 0
Track 09 Filename : /Users/aford/Desktop/Transcodes/Lawson Rollins - Full Circle (2013) [FLAC]/09 The Offering.flac /Users/aford/Desktop/Transcodes/Lawson Rollins - Full Circle (2013) [V0]/09 The Offering.mp3 /Users/aford/Desktop/Transcodes/Lawson Rollins - Full Circle (2013) [320 MP3]/09 The Offering.mp3
Track gain : -8.99 dB Peak : 1.000000 CRC32 hash (test run) : 2277DB1D CRC32 hash : 2277DB1D CRC32 hash (skip zero) : 46F1A29A AccurateRip v1 signature : E4B44F46 AccurateRip v2 signature : DD03F9C0 ->Track not present in AccurateRip database. Statistics Read error : 0 Jitter error (maybe fixed) : 0 Retry sector count : 0 Damaged sector count : 0
Track 10 Filename : /Users/aford/Desktop/Transcodes/Lawson Rollins - Full Circle (2013) [FLAC]/10 Gone From Here.flac /Users/aford/Desktop/Transcodes/Lawson Rollins - Full Circle (2013) [V0]/10 Gone From Here.mp3 /Users/aford/Desktop/Transcodes/Lawson Rollins - Full Circle (2013) [320 MP3]/10 Gone From Here.mp3
Track gain : -7.29 dB Peak : 0.988586 CRC32 hash (test run) : FB4C9C7F CRC32 hash : FB4C9C7F CRC32 hash (skip zero) : 6E048B96 AccurateRip v1 signature : 54135590 AccurateRip v2 signature : 719BA9AA ->Track not present in AccurateRip database. Statistics Read error : 0 Jitter error (maybe fixed) : 0 Retry sector count : 0 Damaged sector count : 0
Track 11 Filename : /Users/aford/Desktop/Transcodes/Lawson Rollins - Full Circle (2013) [FLAC]/11 Shifting Seasons.flac /Users/aford/Desktop/Transcodes/Lawson Rollins - Full Circle (2013) [V0]/11 Shifting Seasons.mp3 /Users/aford/Desktop/Transcodes/Lawson Rollins - Full Circle (2013) [320 MP3]/11 Shifting Seasons.mp3
Track gain : -6.94 dB Peak : 0.988617 CRC32 hash (test run) : E6224EB5 CRC32 hash : E6224EB5 CRC32 hash (skip zero) : A3880629 AccurateRip v1 signature : BD37AC01 AccurateRip v2 signature : 036B562E ->Track not present in AccurateRip database. Statistics Read error : 0 Jitter error (maybe fixed) : 0 Retry sector count : 0 Damaged sector count : 0
Track 12 Filename : /Users/aford/Desktop/Transcodes/Lawson Rollins - Full Circle (2013) [FLAC]/12 Promise.flac /Users/aford/Desktop/Transcodes/Lawson Rollins - Full Circle (2013) [V0]/12 Promise.mp3 /Users/aford/Desktop/Transcodes/Lawson Rollins - Full Circle (2013) [320 MP3]/12 Promise.mp3
Track gain : -5.26 dB Peak : 1.000000 CRC32 hash (test run) : EEE16052 CRC32 hash : EEE16052 CRC32 hash (skip zero) : 5744D462 AccurateRip v1 signature : 62D248E4 AccurateRip v2 signature : F7B4B325 ->Track not present in AccurateRip database. Statistics Read error : 0 Jitter error (maybe fixed) : 0 Retry sector count : 0 Damaged sector count : 0
No errors occurred
End of status report

CUE

auCDtect

[img][/img]

Lawson Rollins - 2015 - Traveler

01. Traveler (03:57)
02. Barcelona Express (05:28)
03. Cafe Paris (03:41)
04. Berlin Bossa (04:17)
05. Meeting in Madrid (04:00)
06. Marching West (04:50)
07. Journey Home (05:19)
08. Beyond the Bayou (06:32)
09. Across the Moors (04:48)
10. Metropolis (08:18)
11. Ancient City (04:57)
12. City Electric (05:06)

EAC LOG

Exact Audio Copy V1.0 beta 3 from 29. August 2011
EAC extraction logfile from 25. February 2015, 16:54
Lawson Rollins / Traveler
Used drive : HL-DT-STDVDRAM GH22NS90 Adapter: 0 ID: 1
Read mode : SecureUtilize accurate stream : YesDefeat audio cache : YesMake use of C2 pointers : No
Read offset correction : 6Overread into Lead-In and Lead-Out : NoFill up missing offset samples with silence : YesDelete leading and trailing silent blocks : NoNull samples used in CRC calculations : YesUsed interface : Native Win32 interface for Win NT & 2000Gap handling : Appended to previous track
Used output format : User Defined EncoderSelected bitrate : 1024 kBit/sQuality : HighAdd ID3 tag : YesCommand line compressor : C:\Program Files (x86)\Exact Audio Copy\Flac\flac.exeAdditional command line options : -8 -V -T "ARTIST=%artist%" -T "TITLE=%title%" -T "ALBUM=%albumtitle%" -T "DATE=%year%" -T "TRACKNUMBER=%tracknr%" -T "GENRE=%genre%" -T "PERFORMER=%albuminterpret%" -T "COMPOSER=%composer%" %haslyrics%--tag-from-file=LYRICS="%lyricsfile%"%haslyrics% -T "ALBUMARTIST=%albumartist%" -T "DISCNUMBER=%cdnumber%" -T "TOTALDISCS=%totalcds%" -T "TOTALTRACKS=%numtracks%" -T "COMMENT=%comment%" %source% -o %dest%
TOC of the extracted CD
Track | Start | Length | Start sector | End sector --------------------------------------------------------- 1 | 0:00.00 | 3:57.70 | 0 | 17844 2 | 3:57.70 | 5:28.70 | 17845 | 42514 3 | 9:26.65 | 3:41.50 | 42515 | 59139 4 | 13:08.40 | 4:17.74 | 59140 | 78488 5 | 17:26.39 | 4:00.41 | 78489 | 96529 6 | 21:27.05 | 4:50.58 | 96530 | 118337 7 | 26:17.63 | 5:19.23 | 118338 | 142285 8 | 31:37.11 | 6:32.12 | 142286 | 171697 9 | 38:09.23 | 4:48.45 | 171698 | 193342 10 | 42:57.68 | 8:18.12 | 193343 | 230704 11 | 51:16.05 | 4:57.23 | 230705 | 253002 12 | 56:13.28 | 5:06.16 | 253003 | 275968
Track 1
Filename M:\Rips\Lawson Rollins - Traveler (2015)[FLAC]\01 - Traveler.wav
Pre-gap length 0:00:02.00
Peak level 98.8 % Extraction speed 1.0 X Track quality 100.0 % Test CRC D9BDAD0B Copy CRC D9BDAD0B Track not present in AccurateRip database Copy OK
Track 2
Filename M:\Rips\Lawson Rollins - Traveler (2015)[FLAC]\02 - Barcelona Express.wav
Peak level 98.8 % Extraction speed 1.2 X Track quality 100.0 % Test CRC CEF51329 Copy CRC CEF51329 Track not present in AccurateRip database Copy OK
Track 3
Filename M:\Rips\Lawson Rollins - Traveler (2015)[FLAC]\03 - Cafe Paris.wav
Peak level 98.8 % Extraction speed 1.2 X Track quality 100.0 % Test CRC FEAD50DE Copy CRC FEAD50DE Track not present in AccurateRip database Copy OK
Track 4
Filename M:\Rips\Lawson Rollins - Traveler (2015)[FLAC]\04 - Berlin Bossa.wav
Peak level 98.8 % Extraction speed 1.2 X Track quality 99.9 % Test CRC 7B641B8A Copy CRC 7B641B8A Track not present in AccurateRip database Copy OK
Track 5
Filename M:\Rips\Lawson Rollins - Traveler (2015)[FLAC]\05 - Meeting in Madrid.wav
Peak level 98.8 % Extraction speed 1.4 X Track quality 100.0 % Test CRC A75CFADE Copy CRC A75CFADE Track not present in AccurateRip database Copy OK
Track 6
Filename M:\Rips\Lawson Rollins - Traveler (2015)[FLAC]\06 - Marching West.wav
Peak level 98.8 % Extraction speed 1.6 X Track quality 100.0 % Test CRC 42B188F6 Copy CRC 42B188F6 Track not present in AccurateRip database Copy OK
Track 7
Filename M:\Rips\Lawson Rollins - Traveler (2015)[FLAC]\07 - Journey Home.wav
Peak level 98.8 % Extraction speed 1.7 X Track quality 100.0 % Test CRC 5BF2E479 Copy CRC 5BF2E479 Track not present in AccurateRip database Copy OK
Track 8
Filename M:\Rips\Lawson Rollins - Traveler (2015)[FLAC]\08 - Beyond the Bayou.wav
Peak level 98.8 % Extraction speed 1.9 X Track quality 100.0 % Test CRC 99D9F651 Copy CRC 99D9F651 Track not present in AccurateRip database Copy OK
Track 9
Filename M:\Rips\Lawson Rollins - Traveler (2015)[FLAC]\09 - Across the Moors.wav
Peak level 98.8 % Extraction speed 1.9 X Track quality 100.0 % Test CRC 3571992B Copy CRC 3571992B Track not present in AccurateRip database Copy OK
Track 10
Filename M:\Rips\Lawson Rollins - Traveler (2015)[FLAC]\10 - Metropolis.wav
Peak level 98.8 % Extraction speed 2.1 X Track quality 100.0 % Test CRC 7BE2A41E Copy CRC 7BE2A41E Track not present in AccurateRip database Copy OK
Track 11
Filename M:\Rips\Lawson Rollins - Traveler (2015)[FLAC]\11 - Ancient City.wav
Peak level 98.8 % Extraction speed 2.1 X Track quality 100.0 % Test CRC 84AC7F08 Copy CRC 84AC7F08 Track not present in AccurateRip database Copy OK
Track 12
Filename M:\Rips\Lawson Rollins - Traveler (2015)[FLAC]\12 - City Electric.wav
Peak level 98.8 % Extraction speed 2.2 X Track quality 100.0 % Test CRC A2CEDD4A Copy CRC A2CEDD4A Track not present in AccurateRip database Copy OK
None of the tracks are present in the AccurateRip database
No errors occurred
End of status report
==== Log checksum 30FCEAB1903D8ECD5CF52C4AD98AB4A8879D88D45A2DD22BEA4BF2ABDC4338C4 ====

CUE

REM GENRE "World Music"REM DATE 2015REM DISCID CE0E5F0CREM COMMENT "ExactAudioCopy v1.0b3"PERFORMER "Lawson Rollins"TITLE "Traveler"FILE "01 - Traveler.wav" WAVE TRACK 01 AUDIO TITLE "Traveler" PERFORMER "Lawson Rollins" ISRC USMNT1452268 INDEX 01 00:00:00FILE "02 - Barcelona Express.wav" WAVE TRACK 02 AUDIO TITLE "Barcelona Express" PERFORMER "Lawson Rollins" ISRC USMNT1452269 INDEX 01 00:00:00FILE "03 - Cafe Paris.wav" WAVE TRACK 03 AUDIO TITLE "Cafe Paris" PERFORMER "Lawson Rollins" ISRC USMNT1452270 INDEX 01 00:00:00FILE "04 - Berlin Bossa.wav" WAVE TRACK 04 AUDIO TITLE "Berlin Bossa" PERFORMER "Lawson Rollins" ISRC USMNT1452271 INDEX 01 00:00:00FILE "05 - Meeting in Madrid.wav" WAVE TRACK 05 AUDIO TITLE "Meeting in Madrid" PERFORMER "Lawson Rollins" ISRC USMNT1452272 INDEX 01 00:00:00FILE "06 - Marching West.wav" WAVE TRACK 06 AUDIO TITLE "Marching West" PERFORMER "Lawson Rollins" ISRC USMNT1452273 INDEX 01 00:00:00FILE "07 - Journey Home.wav" WAVE TRACK 07 AUDIO TITLE "Journey Home" PERFORMER "Lawson Rollins" ISRC USMNT1452273 INDEX 01 00:00:00FILE "08 - Beyond the Bayou.wav" WAVE TRACK 08 AUDIO TITLE "Beyond the Bayou" PERFORMER "Lawson Rollins" ISRC USMNT1452275 INDEX 01 00:00:00FILE "09 - Across the Moors.wav" WAVE TRACK 09 AUDIO TITLE "Across the Moors" PERFORMER "Lawson Rollins" ISRC USMNT1452275 INDEX 01 00:00:00FILE "10 - Metropolis.wav" WAVE TRACK 10 AUDIO TITLE "Metropolis" PERFORMER "Lawson Rollins" ISRC USMNT1452277 INDEX 01 00:00:00FILE "11 - Ancient City.wav" WAVE TRACK 11 AUDIO TITLE "Ancient City" PERFORMER "Lawson Rollins" ISRC USMNT1452278 INDEX 01 00:00:00FILE "12 - City Electric.wav" WAVE TRACK 12 AUDIO TITLE "City Electric" PERFORMER "Lawson Rollins" ISRC USMNT1452279 INDEX 01 00:00:00

auCDtect

[img][/img]

[doutdess.info].t81186.torrent
Torrent: Registered [ 2015-10-05 14:30 ] · F7E7036433B85F26F280FAEFC66E8806F3D32802

29 KB

Status: checked
Completed: 2 times
Size: 2.98 GB
(World-music, Flamenco) Dan Young & Rollins Lawson - Discography (9 albums) - (2000-2015), FLAC (tracks + cue) Lossless скачать торрент бесплатно и без регистрации

[Profile] [PM]
Forum Topic Author Size
NewAge & Meditative lossy (World-Music, Folk, Ethno, Meditative) Gammarius - Были вдвоём - 2017, MP3, 320 kbps Vi$itReal 97 MB
Display posts:    

Current time is: 24-Jun 18:40

All times are UTC + 3



You cannot post new topics in this forum
You cannot reply to topics in this forum
You cannot edit your posts in this forum
You cannot delete your posts in this forum
You cannot vote in polls in this forum
You cannot attach files in this forum
You can download files in this forum