Reply to topic
DL-List and Torrent activity [Update пиров]
Size:  485 MB   |    Registered:  3 years 8 months   |    Completed:  0 times
Seeders:  149  [  0 KB/s  ]   Leechers:  36  [  0 KB/s  ]  
 
     
 
 
Author Message

RelizMAN ®

11

Post 05-Oct-2015 00:31

[Quote]

Deep Forest / Soul Elevator. The Best Hits
Жанр: New Age
Год издания: 2002
Издание: Bootleg
Страна исполнителя: Франция
Аудиокодек: FLAC (*.flac)
Тип рипа: image+.cue
Битрейт аудио: lossless
Продолжительность: 01:18:22
Источник: Audio CD из собственной коллекции
Наличие сканов в содержимом раздачи: нет
Треклист:
01. Deep Forest
02. Marta's Song
03. Soul Elevator
04. Pacifique
05. Sweet Lullaby
06. Foreast Himn
07. Elemental
08. Bohemian Ballet
09. La Legende Part 2
10. Night Bird
11. Computer Machine
12. Savanna Dance
13. Freedom Cry
14. Cafe Europa
15. Lament
16. Yuki Song
17. Desert Walk
18. Boheme

Отчёт EAC об извлечении

Exact Audio Copy V1.0 beta 6 from 9. April 2015
Отчёт EAC об извлечении, выполненном 26. июля 2015, 14:52
Deep Forest / Soul Elevator
Дисковод: ATAPI iHAS124 E Adapter: 1 ID: 1
Режим чтения : ДостоверностьИспользование точного потока : ДаОтключение кэша аудио : ДаИспользование указателей C2 : Нет
Коррекция смещения при чтении : 6Способность читать области Lead-in и Lead-out : НетЗаполнение пропущенных сэмплов тишиной : ДаУдаление блоков с тишиной в начале и конце : НетПри вычислениях CRC использовались нулевые сэмплы : ДаИнтерфейс : Встроенный Win32-интерфейс для Win NT/2000
Выходной формат : Пользовательский кодировщикВыбранный битрейт : 768 kBit/sКачество : ВысокийДобавление ID3-тега : НетУтилита сжатия : C:\Program Files\Exact Audio Copy\FLAC\FLAC.EXEДополнительные параметры : -6 -V -T "ARTIST=%artist%" -T "TITLE=%title%" -T "ALBUM=%albumtitle%" -T "DATE=%year%" -T "TRACKNUMBER=%tracknr%" -T "GENRE=%genre%" -T "COMMENT=%comment%" -T "BAND=%albuminterpret%" -T "ALBUMARTIST=%albuminterpret%" -T "COMPOSER=%composer%" %haslyrics%--tag-from-file=LYRICS="%lyricsfile%"%haslyrics% -T "DISCNUMBER=%cdnumber%" -T "TOTALDISCS=%totalcds%" -T "TOTALTRACKS=%numtracks%" %hascover%--picture="%coverfile%"%hascover% %source% -o %dest%
TOC извлечённого CD
Трек | Старт | Длительность | Начальный сектор | Конечный сектор --------------------------------------------------------------------- 1 | 0:00.00 | 5:34.01 | 0 | 25050 2 | 5:34.01 | 4:14.47 | 25051 | 44147 3 | 9:48.48 | 4:12.58 | 44148 | 63105 4 | 14:01.31 | 3:45.44 | 63106 | 80024 5 | 17:47.00 | 3:54.00 | 80025 | 97574 6 | 21:41.00 | 4:43.02 | 97575 | 118801 7 | 26:24.02 | 5:24.07 | 118802 | 143108 8 | 31:48.09 | 5:15.67 | 143109 | 166800 9 | 37:04.01 | 4:03.01 | 166801 | 185026 10 | 41:07.02 | 4:19.05 | 185027 | 204456 11 | 45:26.07 | 5:12.00 | 204457 | 227856 12 | 50:38.07 | 4:27.69 | 227857 | 247950 13 | 55:06.01 | 3:18.37 | 247951 | 262837 14 | 58:24.38 | 4:19.65 | 262838 | 282327 15 | 62:44.28 | 3:08.48 | 282328 | 296475 16 | 65:53.01 | 5:23.02 | 296476 | 320702 17 | 71:16.03 | 2:29.74 | 320703 | 331951 18 | 73:46.02 | 4:35.72 | 331952 | 352648
Характеристики диапазона извлечения и сообщения об ошибках
Выбранный диапазон
Имя файла R:\Deep Forest - Soul Elevator. The Best Hits (Bootleg 2002) lossless [rutracker.org]\Deep Forest - Soul Elevator.wav
Пиковый уровень 100.0 % Скорость извлечения 10.0 X Качество диапазона 100.0 % CRC теста 5D484E79 CRC копии 5D484E79 Копирование... OK
Ошибок не произошло
AccurateRip: сводка
Трек 1 отсутствует в базе данныхТрек 2 отсутствует в базе данныхТрек 3 отсутствует в базе данныхТрек 4 отсутствует в базе данныхТрек 5 отсутствует в базе данныхТрек 6 отсутствует в базе данныхТрек 7 отсутствует в базе данныхТрек 8 отсутствует в базе данныхТрек 9 отсутствует в базе данныхТрек 10 отсутствует в базе данныхТрек 11 отсутствует в базе данныхТрек 12 отсутствует в базе данныхТрек 13 отсутствует в базе данныхТрек 14 отсутствует в базе данныхТрек 15 отсутствует в базе данныхТрек 16 отсутствует в базе данныхТрек 17 отсутствует в базе данныхТрек 18 отсутствует в базе данных
Ни одного трека нет в базе AccurateRip
Конец отчёта
==== Контрольная сумма отчёта 1952479A79CE0E165714DB08DA26C22341CAA0001D9A11AA9C6580C264163E61 ====

Волновая форма Спектральный вид Огибающая

Об альбоме

Это неофициальное издание - бутлег. К дискографии не относится.
Deep Forest (в переводе с английского - дремучий лес) музыкальный проект, состоящий из двух французских музыкантов, Эрика Муке и Мишеля Санчеса. История гласит, что Deep Forest начался с возвращения Санчеса из Африки, где он занимался изучением структур и гармонии африканской музыки. Методом проб и ошибок Санчес и Муке искали необходимые для их проекта формы подачи музыкальных композиций. Пробовали различные формы как лидирующего так и бэк-вокала. Они остановились на форме, для которой характерны выведенный на передний план голос, который "плавает" по ткани композиций, опираясь на гармонические структуры стилизованной народной музыки Заира, Камеруна и Центральной Африканской Республики, и многих других...Состав">

Об исполнителе Deep Forest (в переводе с английского - дремучий лес) музыкальный проект, состоящий из двух французских музыкантов, Эрика Муке и Мишеля Санчеса. История гласит, что Deep Forest начался с возвращения Санчеса из Африки, где он занимался изучением структур и гармонии африканской музыки. Методом проб и ошибок Санчес и Муке искали необходимые для их проекта формы подачи музыкальных композиций. Пробовали различные формы как лидирующего так и бэк-вокала. Они остановились на форме, для которой характерны выведенный на передний план голос, который "плавает" по ткани композиций, опираясь на гармонические структуры стилизованной народной музыки Заира, Камеруна и Центральной Африканской Республики, и многих других...Состав


Мишель Санчес Эрик Муке

Дополнительная информация

Раздача: По возможности!!!

[doutdess.info].t81085.torrent
Torrent: Registered [ 2015-10-05 00:30 ] · 9553A3D3378D80786FABD6B8FAB846CB8C89871F

20 KB

Status: checked
Completed: 0 times
Size: 485 MB
(New Age) Deep Forest - Soul Elevator. The Best Hits (Bootleg) 2002, FLAC (image+.cue), lossless скачать торрент бесплатно и без регистрации

[Profile] [PM]
Forum Topic Author Size
NewAge & Meditative lossless (New Age) Al Gromer Khan & Emin Corrado - Tantra Electronica - 2004, FLAC (tracks+.cue), lossless RelizMAN 284 MB
NewAge & Meditative lossless (New Age) Al Gromer Khan - Negus - The Royal Principle - 2008, FLAC (tracks+.cue), lossless RelizMAN 227 MB
NewAge & Meditative lossless (New Age) Amethystium - 2005 - "Transversa" [APE (image + .cue)], lossless RelizMAN 437 MB
NewAge & Meditative lossless (New Age) Anima - Temple of the Stars - 2010, FLAC (tracks+.cue), lossless RelizMAN 376 MB
NewAge & Meditative lossless (New Age) Anne Linnet - Relax, No. 1 - 2003, FLAC (tracks+.cue), lossless RelizMAN 312 MB
NewAge & Meditative lossless (New Age) Anthony Miles - Music For Children - 1995, APE (image+.cue) lossless RelizMAN 212 MB
NewAge & Meditative lossless (New Age) Anuragi - Highway Back Home (1990), Morning & Evening Meditation (1992), APE (image + .cue), lossless RelizMAN 331 MB
NewAge & Meditative lossless (New Age) Asha - Chosen by You - 2002, FLAC (tracks+.cue), lossless RelizMAN 350 MB
Display posts:    

Current time is: 24-Jun 19:32

All times are UTC + 3



You cannot post new topics in this forum
You cannot reply to topics in this forum
You cannot edit your posts in this forum
You cannot delete your posts in this forum
You cannot vote in polls in this forum
You cannot attach files in this forum
You can download files in this forum