Reply to topic
DL-List and Torrent activity [Update пиров]
Size:  204 MB   |    Registered:  1 year 3 months   |    Completed:  0 times
Seeders:  818  [  0 KB/s  ]   Leechers:  48  [  0 KB/s  ]  
 
     
 
 
Author Message

RelizMAN ®

11

Post 19-Apr-2018 21:40

[Quote]

Handel - Dixit Dominus / Vivaldi - Magnificat -- Camerata Vocale Freiburg, Camerata Freiburg, Winfried Toll
Жанр: Classical
Страна-производитель диска: Germany
Год издания диска: 2009
Издатель (лейбл): Ars Musici
Дата записи: 1992
Аудиокодек: FLAC
Тип рипа: image+.cue
Битрейт аудио: lossless
Продолжительность: 47:23
Источник: собственный рип
Наличие сканов в содержимом раздачи: да
Треклист:
Georg Friedrich Handel
[1]-[9] Dixit Dominus
Antonio Vivaldi
[10]-[18] Magnificat
Исполнители:
Dorothea Röschmann soprano
Mona Spägele soprano
Beat Duddeck alt
Tobias Hiller tenor (Handel)
Hans Jörg Mammel tenor (Vivaldi)
Ekkehard Abele baritone
Camerata Vocale Freiburg
Camerata Freiburg
Winfried Toll

Лог создания рипа

Exact Audio Copy V1.1 from 23. June 2015
EAC extraction logfile from 7. November 2016, 2:04
Camerata Vocale Freiburg, Camerata Freiburg, Winfried Toll / Handel - Dixit Dominus; Vivaldi - Magnificat
Used drive : HL-DT-STDVDRAM GU70N Adapter: 1 ID: 0
Read mode : SecureUtilize accurate stream : YesDefeat audio cache : YesMake use of C2 pointers : No
Read offset correction : 48Overread into Lead-In and Lead-Out : NoFill up missing offset samples with silence : YesDelete leading and trailing silent blocks : NoNull samples used in CRC calculations : YesUsed interface : Native Win32 interface for Win NT & 2000
Used output format : User Defined EncoderSelected bitrate : 128 kBit/sQuality : HighAdd ID3 tag : NoCommand line compressor : C:\Program Files (x86)\Exact Audio Copy\Flac\flac.exeAdditional command line options : -V -8 -T "Date=%year%" -T "Genre=%genre%" %source%
TOC of the extracted CD
Track | Start | Length | Start sector | End sector --------------------------------------------------------- 1 | 0:00.00 | 5:48.24 | 0 | 26123 2 | 5:48.24 | 3:01.00 | 26124 | 39698 3 | 8:49.24 | 3:07.50 | 39699 | 53773 4 | 11:56.74 | 2:24.25 | 53774 | 64598 5 | 14:21.24 | 1:30.12 | 64599 | 71360 6 | 15:51.36 | 2:59.13 | 71361 | 84798 7 | 18:50.49 | 3:46.25 | 84799 | 101773 8 | 22:36.74 | 4:17.37 | 101774 | 121085 9 | 26:54.36 | 6:13.31 | 121086 | 149091 10 | 33:07.67 | 1:07.53 | 149092 | 154169 11 | 34:15.45 | 2:07.50 | 154170 | 163744 12 | 36:23.20 | 3:32.00 | 163745 | 179644 13 | 39:55.20 | 0:26.25 | 179645 | 181619 14 | 40:21.45 | 0:50.62 | 181620 | 185431 15 | 41:12.32 | 1:30.63 | 185432 | 192244 16 | 42:43.20 | 0:55.25 | 192245 | 196394 17 | 43:38.45 | 1:34.37 | 196395 | 203481 18 | 45:13.07 | 1:58.36 | 203482 | 212367
Range status and errors
Selected range
Filename C:\temp\Handel - Dixit Dominus; Vivaldi - Magnificat\Handel - Dixit Dominus; Vivaldi - Magnificat.wav
Peak level 94.8 % Extraction speed 4.6 X Range quality 100.0 % Test CRC 7E044E46 Copy CRC 7E044E46 Copy OK
No errors occurred
AccurateRip summary
Track 1 accurately ripped (confidence 1) [A271BCA0] (AR v2)Track 2 accurately ripped (confidence 1) [79597593] (AR v2)Track 3 accurately ripped (confidence 1) [4D524321] (AR v2)Track 4 accurately ripped (confidence 1) [D9B7C1CB] (AR v2)Track 5 accurately ripped (confidence 1) [AB31A780] (AR v2)Track 6 accurately ripped (confidence 1) [D5703FEE] (AR v2)Track 7 accurately ripped (confidence 1) [868AF3B9] (AR v2)Track 8 accurately ripped (confidence 1) [0F6F94F2] (AR v2)Track 9 accurately ripped (confidence 1) [41BAD003] (AR v2)Track 10 accurately ripped (confidence 1) [3E7C9120] (AR v2)Track 11 accurately ripped (confidence 1) [66738F5B] (AR v2)Track 12 accurately ripped (confidence 1) [8275170C] (AR v2)Track 13 accurately ripped (confidence 1) [8C9661AF] (AR v2)Track 14 accurately ripped (confidence 1) [5EFD61B4] (AR v2)Track 15 accurately ripped (confidence 1) [20EE32A6] (AR v2)Track 16 accurately ripped (confidence 1) [F49BEE0C] (AR v2)Track 17 accurately ripped (confidence 1) [0F8BFA23] (AR v2)Track 18 accurately ripped (confidence 1) [B4101907] (AR v2)
All tracks accurately ripped
End of status report
==== Log checksum 4587B8FE98680BB560FC4C0176461DF2C0087EA4F864421492D4E2C243A7BAF1 ====
[doutdess.info].t262302.torrent
Torrent: Registered [ 2018-04-19 21:40 ] · BE764354C92F6205C2F3B4E636D9210285CC9608

34 KB

Status: checked
Completed: 0 times
Size: 204 MB
(Classical) Handel - Dixit Dominus / Vivaldi - Magnificat -- Camerata Vocale Freiburg, Camerata Freiburg, Winfried Toll - 2009, FLAC (image+.cue) lossless скачать торрент бесплатно и без регистрации

[Profile] [PM]
Forum Topic Author Size
Вокальная музыка в lossless ((classical/operetta)) Schönes bleibt. Unvergessene Tenöre bei WDR 4 / Прекрасное остаётся - 2000, FLAC (image+.cue) lossless Vi$itReal 401 MB
Вокальная и хоровая музыка lossy (Classical (Lieder)) (Lieder) Norman Bailey - Songs of Hugo Wolf - 1979, MP3 (tracks) 320 kbps RelizMAN 120 MB
Концерт для инструмента с оркестром в lossless (Classical ) Top 20 CDs for your Classical Music Collection - ClassicalCDguide.com: 02 - W. A. Mozart - Great Piano Concertos N 20 - 25 (1997) APE (tracks), 450-566 kb/s RelizMAN 582 MB
Концерт для инструмента с оркестром в lossless (Classical ) Top 20 CDs for your Classical Music Collection - ClassicalCDguide.com: 04 - Bach: Die Brandenburgische Konzerte - Orchestra of the Age of Enlightenment 2 CD (1999) APE (tracks), 610-769... RelizMAN 462 MB
Оркестровая музыка в lossless (Classical ) Top 20 CDs for your Classical Music Collection - ClassicalCDguide.com: 06 - Igor Stravinsky; Petroushka, Le Sacre du Printemps - Columbia Symphony Orchestra (Sony 1990) APE (tracks),... Vi$itReal 274 MB
Камерная инструментальная музыка в lossless (Classical ) Top 20 CDs for your Classical Music Collection - ClassicalCDguide.com: 07 - Franz Schubert - \'Trout\' Quintet & \'Death and the Maiden\' - Amadeus Quartet (DG ... Vi$itReal 343 MB
Камерная инструментальная музыка в lossless (Classical ) Top 20 CDs for your Classical Music Collection - ClassicalCDguide.com: 10 - Georges Bizet; Carmen - Sir Thomas Beecham, de Los Angeles, Gedda, Michau, Blanc (EMI 2000) аре (по-треково),... Vi$itReal 745 MB
Камерная инструментальная музыка в lossless (Classical ) Top 20 CDs for your Classical Music Collection - ClassicalCDguide.com: 12 - Франц Шуберт - Симфония No. 3, Unfinished 39; - Carlos Kleiber и Wiener Philharmoniker (DG 1... Vi$itReal 186 MB
Display posts:    

Current time is: 22-Jul 09:17

All times are UTC + 3



You cannot post new topics in this forum
You cannot reply to topics in this forum
You cannot edit your posts in this forum
You cannot delete your posts in this forum
You cannot vote in polls in this forum
You cannot attach files in this forum
You can download files in this forum