Ответить на тему
Статистика раздачи [Обновить пиров]
Размер:  592 MB   |    Зарегистрирован:  7 месяцев 8 дней   |    Скачан:  0 раз
Сидов:  332  [  0 KB/s  ]   Личеров:  21  [  0 KB/s  ]  
 
     
 
 
Автор Сообщение

RelizMAN ®

11

Создавать темы 10-Авг-2018 08:50

[Цитировать]

Handel - Israel in Egypt / Гендель - Израиль в Египте
Жанр: Classical oratorio
Страна-производитель диска: Made in Germany
Год издания диска: 2000
Издатель (лейбл): Decca
Номер по каталогу: 452 295-2
Дата записи: 2000
Аудиокодек: FLAC
Тип рипа: image+.cue
Битрейт аудио: lossless
Продолжительность: 73:43 + 52:02 / 02:05:21
Источник: релизер
сайт-источник/ник/другое: makdelart, подарок; Caterina Sforza - работа с cue, доп. сканы
Наличие сканов в содержимом раздачи: да, полный авторский буклет, 47 страниц

Треклист

CD1

Part I: The Lamentations Of The Israelites For The Death Of Joseph Or The Ways Of Zion Do Mourn1-1 Prelude 1:461-2 Chorus: The Sons Of Israel Do Mourn      8:471-3 Chorus: He Put On Righteousness 2:181-4 Quartet: When The Ear Heard Him     3:19Alto Vocals – Michael ChanceBass Vocals – Stephen VarcoeSoprano Vocals – Susan GrittonTenor Vocals – Ian Bostridge
1-5 Chorus: How Is The Mighty Fall'n 1:021-6 Chorus: He Deliver'd The Poor 5:451-7 Chorus: How Is The Is The Mighty Fall'n 1:031-8 Quartet - Chorus: The Righteous Shall Be Had 3:24Alto Vocals – Michael ChanceBass Vocals – Stephen VarcoeSoprano Vocals – Susan GrittonTenor Vocals – Ian Bostridge
1-9 Chorus: Their Bodies Are Buried In Peace 5:051-10 Chorus: The People Will Tell Of Their Wisdom 2:031-11 Quartet: They Shall Recieve A Glorious Kingdom 3:22Alto Vocals – Michael ChanceBass Vocals – Stephen VarcoeSoprano Vocals – Susan GrittonTenor Vocals – Ian Bostridge
1-12 Chorus: The Merciful Goodness Of The Lord 3:29
Part II: Exodus1-13 Recitative: Now There Arose A New King Over Egypt 0:24Tenor Vocals – Ian Bostridge
1-14 Chorus: And The Children Of Israel Sighed 3:33Alto Vocals – Robert Ogden
1-15 Recitative: Then Sent He Moses 0:32Tenor Vocals – Ian Bostridge
1-16 Chorus: They Loathed To Drink The River 2:021-17 Air: Their Land Brought Forth Frogs 2:20Alto Vocals – Michael Chance
1-18 Chorus: He Spake The Word 2:181-19 Chorus: He Gave Them Hailstones For Rain 2:151-20 Chorus: He Sent A Thick Darkness 2:551-21 Chorus: He Smote All The First Born Of Egypt 2:321-22 Chorus: But As For His People 3:591-23 Chorus: Egypt Was Glad 2:151-24 Chorus: He Rebuked The Red Sea 0:431-25 Chorus: He Led Them Through The Deep 1:291-26 Chorus: But The Waters Overwhelmed Their Enemies 1:081-27 Chorus: And Israel Saw That Great Work 0:511-28 Chorus: And Believed The Lord 2:57

CD2

Part III: Moses' Song2-1 Introitus - Chorus: moses and the children of Israel 0:502-2 Chorus: I Will Sing Unto The Lord 2:392-3 Duet: The Lord Is My Strength      3:35Soprano Vocals – Libby Crabtree, Susan Gritton
2-4 Chorus: He Is My God ; Chorus: And I Will Exalt Him 3:132-5 Duet: The Lord Is A Man Of War 5:32Bass Vocals – Henry Herford, Stephen Varcoe
2-6 Chorus: The Depths Have Covered Them 2:012-7 Chorus: Thy Right Hand, O Lord ; Chorus: And In The Greatness 2:052-8 Chorus: thou sentest forth my wrath 1:532-9 Chorus: And With A Blast Of Thy Nostrils 3:052-10 Air: The Enemy Said 2:27Tenor Vocals – Ian Bostridge
2-11 Air: Thou Didst Blow With The Wind 2:09Soprano Vocals – Susan Gritton
2-12 Chorus: Wo Is Like Untot Thee, O Lord; Chorus: The Earth Swallowed Them 2:162-13 Duet: Thou In My Mercy 3:59Alto Vocals – Michael ChanceTenor Vocals – Ian Bostridge
2-14 Chorus: The People Shall Hear 6:492-15 Air: Thou Shalt Bring Them In 3:51Alto Vocals – Michael Chance
2-16 Chorus: The Lord Shall Reign For Ever And Ever 0:402-17 Recitative: for the horse of pharaoh 0:27Tenor Vocals – Ian Bostridge
2-18 Chorus: The Lord Shall Reign For Ever And Ever 0:402-19 Recitative: and miriam the prophetess 0:22Tenor Vocals – Ian Bostridge
2-20 Chorus: Sing Ye To The Lord 3:34Soprano Vocals – Susan Gritton

Исполнители

George Frideric Handel (1685-1759)
Israel in Egypt
Susan Gritton (soprano I)Libby Crabtree (soprano II)Michael Chance (alto I)Robert Ogden (alto II)Ian Bostridge (tenor)Stephen Varcoe (bass I)Henry Herford (bass II)
Continuo:Alastair Ross (harpsichord continuo)James Vivian (organ continuo)Angela East (cello)
The Choir of King’s College, CambridgeThe Brandenburg Consort (leader Roy Goodman)Stephen Cleobury (conductor)
Audio CD (14 Aug. 2000)

Лог создания рипа

CD1

Exact Audio Copy V1.3 from 2. September 2016
EAC extraction logfile from 4. August 2018, 17:39
Susan Gritton, Libby Crabtree, Michael Chance, Robert Ogden, Ian Bostridge, Stephen Varcoe, Henry Herford; Stephen Cleobury / Handel - Israel in Egypt (Disc 1)
Used drive : ATAPI iHAS124 F Adapter: 1 ID: 0
Read mode : SecureUtilize accurate stream : YesDefeat audio cache : YesMake use of C2 pointers : No
Read offset correction : 6Overread into Lead-In and Lead-Out : NoFill up missing offset samples with silence : YesDelete leading and trailing silent blocks : NoNull samples used in CRC calculations : YesUsed interface : Native Win32 interface for Win NT & 2000
Used output format : User Defined EncoderSelected bitrate : 1024 kBit/sQuality : HighAdd ID3 tag : NoCommand line compressor : C:\Program Files (x86)\Exact Audio Copy\FLAC\FLAC.EXEAdditional command line options : -8 -V -T "TITLE=%title%" -T "ARTIST=%artist%" -T "ALBUMARTIST=%albumartist%" -T "ALBUM=%albumtitle%" -T "DATE=%year%" -T "TRACKNUMBER=%tracknr%" -T "TRACKTOTAL=%numtracks%" -T "GENRE=%genre%" -T "COMMENT=%comment%" -T "PERFORMER=%albuminterpret%" -T "COMPOSER=%composer%" %source% -o %dest%
TOC of the extracted CD
Track | Start | Length | Start sector | End sector --------------------------------------------------------- 1 | 0:00.00 | 1:45.60 | 0 | 7934 2 | 1:45.60 | 8:47.00 | 7935 | 47459 3 | 10:32.60 | 2:18.16 | 47460 | 57825 4 | 12:51.01 | 3:18.69 | 57826 | 72744 5 | 16:09.70 | 1:01.56 | 72745 | 77375 6 | 17:11.51 | 5:44.48 | 77376 | 103223 7 | 22:56.24 | 1:02.68 | 103224 | 107941 8 | 23:59.17 | 3:23.71 | 107942 | 123237 9 | 27:23.13 | 5:05.20 | 123238 | 146132 10 | 32:28.33 | 2:02.39 | 146133 | 155321 11 | 34:30.72 | 3:21.37 | 155322 | 170433 12 | 37:52.34 | 3:41.74 | 170434 | 187082 13 | 41:34.33 | 0:23.55 | 187083 | 188862 14 | 41:58.13 | 3:33.20 | 188863 | 204857 15 | 45:31.33 | 0:31.39 | 204858 | 207221 16 | 46:02.72 | 2:01.31 | 207222 | 216327 17 | 48:04.28 | 2:19.60 | 216328 | 226812 18 | 50:24.13 | 2:17.68 | 226813 | 237155 19 | 52:42.06 | 2:15.02 | 237156 | 247282 20 | 54:57.08 | 2:54.72 | 247283 | 260404 21 | 57:52.05 | 2:31.69 | 260405 | 271798 22 | 60:23.74 | 3:58.32 | 271799 | 289680 23 | 64:22.31 | 2:14.35 | 289681 | 299765 24 | 66:36.66 | 0:43.05 | 299766 | 302995 25 | 67:19.71 | 1:28.60 | 302996 | 309655 26 | 68:48.56 | 1:07.33 | 309656 | 314713 27 | 69:56.14 | 0:50.66 | 314714 | 318529 28 | 70:47.05 | 2:56.27 | 318530 | 331756
Range status and errors
Selected range
Filename C:\EACRip\HANDEL\Handel - Israel in Egypt (Stephen Cleobury) (2000)\CD1\Handel - Israel in Egypt (Disc 1) - Stephen Cleobury.wav
Peak level 96.9 % Extraction speed 9.8 X Range quality 100.0 % Test CRC 17D77CEB Copy CRC 17D77CEB Copy OK
No errors occurred
AccurateRip summary
Track 1 accurately ripped (confidence 20) [5115BECF] (AR v2)Track 2 accurately ripped (confidence 20) [C0735735] (AR v2)Track 3 accurately ripped (confidence 20) [D563EA97] (AR v2)Track 4 accurately ripped (confidence 20) [38F85DE1] (AR v2)Track 5 accurately ripped (confidence 20) [6D803F34] (AR v2)Track 6 accurately ripped (confidence 20) [D7DE4A4B] (AR v2)Track 7 accurately ripped (confidence 20) [35AB5EF3] (AR v2)Track 8 accurately ripped (confidence 20) [34A444D5] (AR v2)Track 9 accurately ripped (confidence 20) [402B51D1] (AR v2)Track 10 accurately ripped (confidence 20) [23450017] (AR v2)Track 11 accurately ripped (confidence 20) [6292D8CC] (AR v2)Track 12 accurately ripped (confidence 20) [BEC948ED] (AR v2)Track 13 accurately ripped (confidence 19) [37C77506] (AR v2)Track 14 accurately ripped (confidence 19) [1E804D88] (AR v2)Track 15 accurately ripped (confidence 19) [1D5D7C53] (AR v2)Track 16 accurately ripped (confidence 19) [A35D2205] (AR v2)Track 17 accurately ripped (confidence 19) [C653BF86] (AR v2)Track 18 accurately ripped (confidence 19) [05AA55BC] (AR v2)Track 19 accurately ripped (confidence 18) [2D33C768] (AR v2)Track 20 accurately ripped (confidence 18) [584BBD01] (AR v2)Track 21 accurately ripped (confidence 18) [C8E341F6] (AR v2)Track 22 accurately ripped (confidence 18) [B8D5F01E] (AR v2)Track 23 accurately ripped (confidence 18) [CE47B46B] (AR v2)Track 24 accurately ripped (confidence 19) [E730AC94] (AR v2)Track 25 accurately ripped (confidence 18) [13F3552A] (AR v2)Track 26 accurately ripped (confidence 18) [7D760FF2] (AR v2)Track 27 accurately ripped (confidence 19) [D979514D] (AR v2)Track 28 accurately ripped (confidence 17) [36137926] (AR v2)
All tracks accurately ripped
End of status report
---- CUETools DB Plugin V2.1.6
[CTDB TOCID: nTDEFfRX4MOx_XM9z6MMs8rWK48-] foundSubmit result: nTDEFfRX4MOx_XM9z6MMs8rWK48- has been confirmedTrack | CTDB Status 1 | (31/31) Accurately ripped 2 | (31/31) Accurately ripped 3 | (31/31) Accurately ripped 4 | (31/31) Accurately ripped 5 | (31/31) Accurately ripped 6 | (30/31) Accurately ripped 7 | (31/31) Accurately ripped 8 | (31/31) Accurately ripped 9 | (31/31) Accurately ripped 10 | (31/31) Accurately ripped 11 | (31/31) Accurately ripped 12 | (31/31) Accurately ripped 13 | (31/31) Accurately ripped 14 | (31/31) Accurately ripped 15 | (31/31) Accurately ripped 16 | (31/31) Accurately ripped 17 | (31/31) Accurately ripped 18 | (31/31) Accurately ripped 19 | (31/31) Accurately ripped 20 | (31/31) Accurately ripped 21 | (31/31) Accurately ripped 22 | (31/31) Accurately ripped 23 | (31/31) Accurately ripped 24 | (31/31) Accurately ripped 25 | (31/31) Accurately ripped 26 | (31/31) Accurately ripped 27 | (31/31) Accurately ripped 28 | (30/31) Accurately ripped
==== Log checksum 36C997EBCCEFA504D125D28F48C9D4800E4186A304D17C544C4C97A6F58B02B9 ====

CD2

Exact Audio Copy V1.3 from 2. September 2016
EAC extraction logfile from 4. August 2018, 18:42
Susan Gritton, Libby Crabtree, Michael Chance, Robert Ogden, Ian Bostridge, Stephen Varcoe, Henry Herford; Stephen Cleobury / Handel - Israel in Egypt (Disc 2)
Used drive : ATAPI iHAS124 F Adapter: 1 ID: 0
Read mode : SecureUtilize accurate stream : YesDefeat audio cache : YesMake use of C2 pointers : No
Read offset correction : 6Overread into Lead-In and Lead-Out : NoFill up missing offset samples with silence : YesDelete leading and trailing silent blocks : NoNull samples used in CRC calculations : YesUsed interface : Native Win32 interface for Win NT & 2000
Used output format : User Defined EncoderSelected bitrate : 1024 kBit/sQuality : HighAdd ID3 tag : NoCommand line compressor : C:\Program Files (x86)\Exact Audio Copy\FLAC\FLAC.EXEAdditional command line options : -8 -V -T "TITLE=%title%" -T "ARTIST=%artist%" -T "ALBUMARTIST=%albumartist%" -T "ALBUM=%albumtitle%" -T "DATE=%year%" -T "TRACKNUMBER=%tracknr%" -T "TRACKTOTAL=%numtracks%" -T "GENRE=%genre%" -T "COMMENT=%comment%" -T "PERFORMER=%albuminterpret%" -T "COMPOSER=%composer%" %source% -o %dest%
TOC of the extracted CD
Track | Start | Length | Start sector | End sector --------------------------------------------------------- 1 | 0:00.00 | 0:49.37 | 0 | 3711 2 | 0:49.37 | 2:39.20 | 3712 | 15656 3 | 3:28.57 | 3:34.56 | 15657 | 31762 4 | 7:03.38 | 3:12.27 | 31763 | 46189 5 | 10:15.65 | 5:31.69 | 46190 | 71083 6 | 15:47.59 | 2:00.21 | 71084 | 80104 7 | 17:48.05 | 2:05.02 | 80105 | 89481 8 | 19:53.07 | 1:52.42 | 89482 | 97923 9 | 21:45.49 | 3:04.34 | 97924 | 111757 10 | 24:50.08 | 2:26.46 | 111758 | 122753 11 | 27:16.54 | 2:09.09 | 122754 | 132437 12 | 29:25.63 | 2:15.45 | 132438 | 142607 13 | 31:41.33 | 3:59.22 | 142608 | 160554 14 | 35:40.55 | 6:49.13 | 160555 | 191242 15 | 42:29.68 | 3:50.46 | 191243 | 208538 16 | 46:20.39 | 0:39.33 | 208539 | 211496 17 | 46:59.72 | 0:26.69 | 211497 | 213515 18 | 47:26.66 | 0:40.00 | 213516 | 216515 19 | 48:06.66 | 0:21.70 | 216516 | 218160 20 | 48:28.61 | 3:33.25 | 218161 | 234160
Range status and errors
Selected range
Filename C:\EACRip\HANDEL\Handel - Israel in Egypt (Stephen Cleobury) (2000)\CD2\Handel - Israel in Egypt (Disc 2) - Stephen Cleobury.wav
Peak level 94.3 % Extraction speed 8.3 X Range quality 99.9 % Test CRC 34BBB289 Copy CRC 34BBB289 Copy OK
No errors occurred
AccurateRip summary
Track 1 accurately ripped (confidence 18) [A828271F] (AR v2)Track 2 accurately ripped (confidence 18) [FC006785] (AR v2)Track 3 accurately ripped (confidence 18) [42946A4F] (AR v2)Track 4 accurately ripped (confidence 18) [26B1E40B] (AR v2)Track 5 accurately ripped (confidence 18) [F9F4F671] (AR v2)Track 6 accurately ripped (confidence 18) [52E17ED8] (AR v2)Track 7 accurately ripped (confidence 18) [69932648] (AR v2)Track 8 accurately ripped (confidence 18) [5D6C20BF] (AR v2)Track 9 accurately ripped (confidence 18) [B3786171] (AR v2)Track 10 accurately ripped (confidence 18) [0E6066E7] (AR v2)Track 11 accurately ripped (confidence 18) [E26296CD] (AR v2)Track 12 accurately ripped (confidence 18) [6B68E9E8] (AR v2)Track 13 accurately ripped (confidence 18) [F4F67A76] (AR v2)Track 14 accurately ripped (confidence 18) [8A6E91B0] (AR v2)Track 15 accurately ripped (confidence 18) [13EA4CB6] (AR v2)Track 16 accurately ripped (confidence 18) [937AA79C] (AR v2)Track 17 accurately ripped (confidence 18) [8D2B2387] (AR v2)Track 18 accurately ripped (confidence 18) [6059AD4D] (AR v2)Track 19 accurately ripped (confidence 18) [54429E12] (AR v2)Track 20 accurately ripped (confidence 18) [61EE35EA] (AR v2)
All tracks accurately ripped
End of status report
---- CUETools DB Plugin V2.1.6
[CTDB TOCID: cFW5_NeD3aikWhRGSjeYCw6Fbk8-] foundSubmit result: cFW5_NeD3aikWhRGSjeYCw6Fbk8- has been confirmedTrack | CTDB Status 1 | (28/28) Accurately ripped 2 | (28/28) Accurately ripped 3 | (27/28) Accurately ripped 4 | (27/28) Accurately ripped 5 | (28/28) Accurately ripped 6 | (28/28) Accurately ripped 7 | (28/28) Accurately ripped 8 | (28/28) Accurately ripped 9 | (28/28) Accurately ripped 10 | (28/28) Accurately ripped 11 | (28/28) Accurately ripped 12 | (28/28) Accurately ripped 13 | (28/28) Accurately ripped 14 | (28/28) Accurately ripped 15 | (27/28) Accurately ripped 16 | (28/28) Accurately ripped 17 | (28/28) Accurately ripped 18 | (28/28) Accurately ripped 19 | (27/28) Accurately ripped 20 | (27/28) Accurately ripped
==== Log checksum D3696CB6728FC9CAA8083F53673E9D258FDE844935BF3FDCEFA6DB13D55F661A ====

Содержание индексной карты (.CUE)

CD1

REM GENRE ChoralREM DATE 2000REM DISCID AD11471CREM COMMENT "ExactAudioCopy v1.3"PERFORMER "The Choir of King’s College, Cambridge, The Brandenburg Consort (leader Roy Goodman), Stephen Cleobury (conductor) / Susan Gritton (soprano I), Libby Crabtree (soprano II), Michael Chance (alto I), Robert Ogden (alto II), Ian Bostridge (tenor), Stephen Varcoe (bass I), Henry Herford (bass II) / Continuo: Alastair Ross (harpsichord continuo), James Vivian (organ continuo), Angela East (cello)"TITLE "Handel - Israel in Egypt (Disc 1)"REM COMPOSER "George Frideric Handel (1685-1759)"FILE "Handel - Israel in Egypt (Disc 1) - Stephen Cleobury.flac" WAVE  TRACK 01 AUDIO    TITLE "ISRAEL IN EGYPT, oratorio, HWV 54 (1739 Version 1) - PART I: The Lamentations of the Israelites for the Death of Joseph or The Ways of Zion Do Mourn - No.1. Prelude"    PERFORMER "The Brandenburg Consort, Stephen Cleobury"    REM COMPOSER "George Frideric Handel"    INDEX 01 00:00:00  TRACK 02 AUDIO    TITLE "No.2. Chorus: The sons of Israel do mourn"    PERFORMER "The Choir of King’s College, Cambridge, The Brandenburg Consort, Stephen Cleobury"    REM COMPOSER "George Frideric Handel"    INDEX 01 01:45:60  TRACK 03 AUDIO    TITLE "No.3. Chorus: He put on righteousness"    PERFORMER "The Choir of King’s College, Cambridge, The Brandenburg Consort, Stephen Cleobury"    REM COMPOSER "George Frideric Handel"    INDEX 01 10:32:60  TRACK 04 AUDIO    TITLE "No.4. Quartet (Soprano I, Alto I, Tenor, Bass I): When the ear heard him"    PERFORMER "The Brandenburg Consort, Stephen Cleobury & Susan Gritton, Michael Chance, Ian Bostridge, Stephen Varcoe"    REM COMPOSER "George Frideric Handel"    INDEX 01 12:51:01  TRACK 05 AUDIO    TITLE "No.5. Chorus: How is the mighty fall’n"    PERFORMER "The Choir of King’s College, Cambridge, The Brandenburg Consort, Stephen Cleobury"    REM COMPOSER "George Frideric Handel"    INDEX 01 16:09:70  TRACK 06 AUDIO    TITLE "No.6. Chorus: He deliver’d the poor"    PERFORMER "The Choir of King’s College, Cambridge, The Brandenburg Consort, Stephen Cleobury"    REM COMPOSER "George Frideric Handel"    INDEX 01 17:11:51  TRACK 07 AUDIO    TITLE "No.7. Chorus: How is the mighty fall’n"    PERFORMER "The Choir of King’s College, Cambridge, The Brandenburg Consort, Stephen Cleobury"    REM COMPOSER "George Frideric Handel"    INDEX 01 22:56:24  TRACK 08 AUDIO    TITLE "No.8. Quartet (Soprano I, Alto I, Tenor, Bass I) & Chorus: The righteous shall be had"    PERFORMER "The Brandenburg Consort, Stephen Cleobury & Susan Gritton, Michael Chance, Ian Bostridge, Stephen Varcoe"    REM COMPOSER "George Frideric Handel"    INDEX 01 23:59:17  TRACK 09 AUDIO    TITLE "No.9. Chorus: Their bodies are buried in peace"    PERFORMER "The Choir of King’s College, Cambridge, The Brandenburg Consort, Stephen Cleobury"    REM COMPOSER "George Frideric Handel"    INDEX 01 27:23:13  TRACK 10 AUDIO    TITLE "No.10. Chorus: The people will tell of their wisdom"    PERFORMER "The Choir of King’s College, Cambridge, The Brandenburg Consort, Stephen Cleobury"    REM COMPOSER "George Frideric Handel"    INDEX 01 32:28:33  TRACK 11 AUDIO    TITLE "No.11. Quartet (Soprano I, Alto I, Tenor, Bass I): They shall receive a glorious kingdom"    PERFORMER "The Brandenburg Consort, Stephen Cleobury & Susan Gritton, Michael Chance, Ian Bostridge, Stephen Varcoe"    REM COMPOSER "George Frideric Handel"    INDEX 01 34:30:72  TRACK 12 AUDIO    TITLE "No.12. Chorus: The merciful goodness of the Lord"    PERFORMER "The Choir of King’s College, Cambridge, The Brandenburg Consort, Stephen Cleobury"    REM COMPOSER "George Frideric Handel"    INDEX 01 37:52:34  TRACK 13 AUDIO    TITLE "PART II: Exodus - No.1. Recitative (Tenor): Now there arose a new king over Egypt"    PERFORMER "The Brandenburg Consort, Stephen Cleobury & "    REM COMPOSER "George Frideric Handel"    INDEX 00 41:21:53    INDEX 01 41:34:33  TRACK 14 AUDIO    TITLE "No.2. Chorus (with Alto II): And the children of Israel sighed"    PERFORMER "The Choir of King’s College, Cambridge, The Brandenburg Consort, Stephen Cleobury & Robert Ogden"    REM COMPOSER "George Frideric Handel"    INDEX 01 41:58:13  TRACK 15 AUDIO    TITLE "No.3. Recitative (Tenor): Then sent he Moses"    PERFORMER "The Brandenburg Consort, Stephen Cleobury & Ian Bostridge"    REM COMPOSER "George Frideric Handel"    INDEX 01 45:31:33  TRACK 16 AUDIO    TITLE "No.4. Chorus: They loathed to drink of the river"    PERFORMER "The Choir of King’s College, Cambridge, The Brandenburg Consort, Stephen Cleobury"    REM COMPOSER "George Frideric Handel"    INDEX 01 46:02:72  TRACK 17 AUDIO    TITLE "No.5. Air (Alto I): Their land brought forth frogs"    PERFORMER "The Brandenburg Consort, Stephen Cleobury & Michael Chance"    REM COMPOSER "George Frideric Handel"    INDEX 01 48:04:28  TRACK 18 AUDIO    TITLE "No.6. Chorus: He spake the word"    PERFORMER "The Choir of King’s College, Cambridge, The Brandenburg Consort, Stephen Cleobury"    REM COMPOSER "George Frideric Handel"    INDEX 01 50:24:13  TRACK 19 AUDIO    TITLE "No.7. Chorus: He gave them hailstones for rain"    PERFORMER "The Choir of King’s College, Cambridge, The Brandenburg Consort, Stephen Cleobury"    REM COMPOSER "George Frideric Handel"    INDEX 01 52:42:06  TRACK 20 AUDIO    TITLE "No.8. Chorus: He sent a thick darkness"    PERFORMER "The Choir of King’s College, Cambridge, The Brandenburg Consort, Stephen Cleobury"    REM COMPOSER "George Frideric Handel"    INDEX 01 54:57:08  TRACK 21 AUDIO    TITLE "No.9. Chorus: He smote all the first-born of Egypt"    PERFORMER "The Choir of King’s College, Cambridge, The Brandenburg Consort, Stephen Cleobury"    REM COMPOSER "George Frideric Handel"    INDEX 01 57:52:05  TRACK 22 AUDIO    TITLE "No.10. Chorus: But as for his people"    PERFORMER "The Choir of King’s College, Cambridge, The Brandenburg Consort, Stephen Cleobury"    REM COMPOSER "George Frideric Handel"    INDEX 01 60:23:74  TRACK 23 AUDIO    TITLE "No.11. Chorus: Egypt was glad"    PERFORMER "The Choir of King’s College, Cambridge, The Brandenburg Consort, Stephen Cleobury"    REM COMPOSER "George Frideric Handel"    INDEX 01 64:22:31  TRACK 24 AUDIO    TITLE "No.12. Chorus: He rebuked the Red Sea"    PERFORMER "The Choir of King’s College, Cambridge, The Brandenburg Consort, Stephen Cleobury"    REM COMPOSER "George Frideric Handel"    INDEX 01 66:36:66  TRACK 25 AUDIO    TITLE "No.13. Chorus: He led them through the deep"    PERFORMER "The Choir of King’s College, Cambridge, The Brandenburg Consort, Stephen Cleobury"    REM COMPOSER "George Frideric Handel"    INDEX 01 67:19:71  TRACK 26 AUDIO    TITLE "No.14. Chorus: But the waters overwhelmed their enemies"    PERFORMER "The Choir of King’s College, Cambridge, The Brandenburg Consort, Stephen Cleobury"    REM COMPOSER "George Frideric Handel"    INDEX 01 68:48:56  TRACK 27 AUDIO    TITLE "No.15. Chorus: And Israel saw the great work"    PERFORMER "The Choir of King’s College, Cambridge, The Brandenburg Consort, Stephen Cleobury"    REM COMPOSER "George Frideric Handel"    INDEX 01 69:56:14  TRACK 28 AUDIO    TITLE "No.16. Chorus: And believed the Lord"    PERFORMER "The Choir of King’s College, Cambridge, The Brandenburg Consort, Stephen Cleobury"    REM COMPOSER "George Frideric Handel"    INDEX 01 70:47:05

CD2

REM GENRE ChoralREM DATE 2000REM DISCID 140C3214REM COMMENT "ExactAudioCopy v1.3"PERFORMER "The Choir of King’s College, Cambridge, The Brandenburg Consort (leader Roy Goodman), Stephen Cleobury (conductor) / Susan Gritton (soprano I), Libby Crabtree (soprano II), Michael Chance (alto I), Robert Ogden (alto II), Ian Bostridge (tenor), Stephen Varcoe (bass I), Henry Herford (bass II) / Continuo: Alastair Ross (harpsichord continuo), James Vivian (organ continuo), Angela East (cello)"TITLE "Handel - Israel in Egypt (Disc 2)"REM COMPOSER "George Frideric Handel (1685-1759)"FILE "Handel - Israel in Egypt (Disc 2) - Stephen Cleobury.flac" WAVE  TRACK 01 AUDIO    TITLE "PART III: Moses’ Song - No.17. Introitus (Chorus): Moses and the children of Israel"    PERFORMER "The Choir of King’s College, Cambridge, The Brandenburg Consort, Stephen Cleobury"    REM COMPOSER "George Frideric Handel"    INDEX 01 00:00:00  TRACK 02 AUDIO    TITLE "No.18. Chorus: I will sing unto the Lord"    PERFORMER "The Choir of King’s College, Cambridge, The Brandenburg Consort, Stephen Cleobury"    REM COMPOSER "George Frideric Handel"    INDEX 01 00:49:37  TRACK 03 AUDIO    TITLE "No.19. Duet (Sopranos I & II): The Lord is my strength"    PERFORMER "The Brandenburg Consort, Stephen Cleobury & Susan Gritton, Libby Crabtree"    REM COMPOSER "George Frideric Handel"    INDEX 01 03:28:57  TRACK 04 AUDIO    TITLE "No.20. Chorus: He is my God - No.21. Chorus: And I will exalt him"    PERFORMER "The Choir of King’s College, Cambridge, The Brandenburg Consort, Stephen Cleobury"    REM COMPOSER "George Frideric Handel"    INDEX 01 07:03:38  TRACK 05 AUDIO    TITLE "No.22. Duet (Basses I & II): The Lord is a man of war"    PERFORMER "The Brandenburg Consort, Stephen Cleobury & Stephen Varcoe, Henry Herford"    REM COMPOSER "George Frideric Handel"    INDEX 01 10:15:65  TRACK 06 AUDIO    TITLE "No.23. Chorus: The depths have covered them"    PERFORMER "The Choir of King’s College, Cambridge, The Brandenburg Consort, Stephen Cleobury"    REM COMPOSER "George Frideric Handel"    INDEX 01 15:47:59  TRACK 07 AUDIO    TITLE "No.24. Chorus: Thy right hand, o Lord - No.25. Chorus: And in the greatness"    PERFORMER "The Choir of King’s College, Cambridge, The Brandenburg Consort, Stephen Cleobury"    REM COMPOSER "George Frideric Handel"    INDEX 01 17:48:05  TRACK 08 AUDIO    TITLE "No.26. Chorus: Thou sentest forth thy wrath"    PERFORMER "The Choir of King’s College, Cambridge, The Brandenburg Consort, Stephen Cleobury"    REM COMPOSER "George Frideric Handel"    INDEX 01 19:53:07  TRACK 09 AUDIO    TITLE "No.27. Chorus: And with the blast of thy nostrils"    PERFORMER "The Choir of King’s College, Cambridge, The Brandenburg Consort, Stephen Cleobury"    REM COMPOSER "George Frideric Handel"    INDEX 01 21:45:49  TRACK 10 AUDIO    TITLE "No.28. Air (Tenor): The enemy said"    PERFORMER "The Brandenburg Consort, Stephen Cleobury & Ian Bostridge"    REM COMPOSER "George Frideric Handel"    INDEX 01 24:50:08  TRACK 11 AUDIO    TITLE "No.29. Air (Soprano I): Thou didst blow with the wind"    PERFORMER "The Brandenburg Consort, Stephen Cleobury & Susan Gritton"    REM COMPOSER "George Frideric Handel"    INDEX 01 27:16:54  TRACK 12 AUDIO    TITLE "No.30. Chorus: Who is like unto thee, o Lord - No.31. Chorus: The earth swallowed them"    PERFORMER "The Choir of King’s College, Cambridge, The Brandenburg Consort, Stephen Cleobury"    REM COMPOSER "George Frideric Handel"    INDEX 01 29:25:63  TRACK 13 AUDIO    TITLE "No.32. Duet (Alto I, Tenor): Thou in thy mercy"    PERFORMER "The Brandenburg Consort, Stephen Cleobury & Michael Chance, Ian Bostridge"    REM COMPOSER "George Frideric Handel"    INDEX 01 31:41:33  TRACK 14 AUDIO    TITLE "No.33. Chorus: The people shall hear"    PERFORMER "The Choir of King’s College, Cambridge, The Brandenburg Consort, Stephen Cleobury"    REM COMPOSER "George Frideric Handel"    INDEX 01 35:40:55  TRACK 15 AUDIO    TITLE "No.34. Air (Alto I): Thou shalt bring them in"    PERFORMER "The Brandenburg Consort, Stephen Cleobury & Michael Chance"    REM COMPOSER "George Frideric Handel"    INDEX 01 42:29:68  TRACK 16 AUDIO    TITLE "No.35. Chorus: The Lord shall reign for ever and ever"    PERFORMER "The Choir of King’s College, Cambridge, The Brandenburg Consort, Stephen Cleobury"    REM COMPOSER "George Frideric Handel"    INDEX 01 46:20:39  TRACK 17 AUDIO    TITLE "No.36. Recitative (Tenor): For the horse of Pharaoh"    PERFORMER "The Brandenburg Consort, Stephen Cleobury & Ian Bostridge"    REM COMPOSER "George Frideric Handel"    INDEX 01 46:59:72  TRACK 18 AUDIO    TITLE "No.37. Chorus: The Lord shall reign for ever and ever"    PERFORMER "The Choir of King’s College, Cambridge, The Brandenburg Consort, Stephen Cleobury"    REM COMPOSER "George Frideric Handel"    INDEX 01 47:26:66  TRACK 19 AUDIO    TITLE "No.38. Recitative (Tenor): And Miriam the prophetess"    PERFORMER "The Brandenburg Consort, Stephen Cleobury & Ian Bostridge"    REM COMPOSER "George Frideric Handel"    INDEX 01 48:06:66  TRACK 20 AUDIO    TITLE "No.39. Chorus (with Soprano I): Sing ye to the Lord"    PERFORMER "The Choir of King’s College, Cambridge, The Brandenburg Consort, Stephen Cleobury"    REM COMPOSER "George Frideric Handel"    INDEX 01 48:28:61

[doutdess.info].t283436.torrent
Торрент: Зарегистрирован [ 2018-08-10 08:50 ] · 24E9743CD32B5E17920BFC49ED3F528ACB5C1E16

15 KB

Статус: проверено
Скачан: 0 раз
Размер: 592 MB
(Classical oratorio) Handel - Israel in Egypt / Гендель - Израиль в Египте [2CD\'s] (Susan Gritton, Michael Chance, Ian Bostridge, Stephen Varcoe / The Brandenburg Consort, Roy Goodman, Stephen Cleobury) - 2000, FLAC (image+.cue) lossless скачать торрент бесплатно и без регистрации

[Профиль] [ЛС]
Форум Тема Автор Размер
Вокальная музыка в lossless ((classical/operetta)) Schönes bleibt. Unvergessene Tenöre bei WDR 4 / Прекрасное остаётся - 2000, FLAC (image+.cue) lossless Vi$itReal 401 MB
Вокальная и хоровая музыка lossy (Classical (Lieder)) (Lieder) Norman Bailey - Songs of Hugo Wolf - 1979, MP3 (tracks) 320 kbps RelizMAN 120 MB
Концерт для инструмента с оркестром в lossless (Classical ) Top 20 CDs for your Classical Music Collection - ClassicalCDguide.com: 02 - W. A. Mozart - Great Piano Concertos N 20 - 25 (1997) APE (tracks), 450-566 kb/s RelizMAN 582 MB
Концерт для инструмента с оркестром в lossless (Classical ) Top 20 CDs for your Classical Music Collection - ClassicalCDguide.com: 04 - Bach: Die Brandenburgische Konzerte - Orchestra of the Age of Enlightenment 2 CD (1999) APE (tracks), 610-769... RelizMAN 462 MB
Оркестровая музыка в lossless (Classical ) Top 20 CDs for your Classical Music Collection - ClassicalCDguide.com: 06 - Igor Stravinsky; Petroushka, Le Sacre du Printemps - Columbia Symphony Orchestra (Sony 1990) APE (tracks),... Vi$itReal 274 MB
Камерная инструментальная музыка в lossless (Classical ) Top 20 CDs for your Classical Music Collection - ClassicalCDguide.com: 07 - Franz Schubert - \'Trout\' Quintet & \'Death and the Maiden\' - Amadeus Quartet (DG ... Vi$itReal 343 MB
Камерная инструментальная музыка в lossless (Classical ) Top 20 CDs for your Classical Music Collection - ClassicalCDguide.com: 10 - Georges Bizet; Carmen - Sir Thomas Beecham, de Los Angeles, Gedda, Michau, Blanc (EMI 2000) аре (по-треково),... Vi$itReal 745 MB
Камерная инструментальная музыка в lossless (Classical ) Top 20 CDs for your Classical Music Collection - ClassicalCDguide.com: 12 - Франц Шуберт - Симфония No. 3, Unfinished 39; - Carlos Kleiber и Wiener Philharmoniker (DG 1... Vi$itReal 186 MB
Показать сообщения:    

Текущее время: 18-Мар 20:39

Часовой пояс: UTC + 3



Вы не можете начинать темы
Вы не можете отвечать на сообщения
Вы не можете редактировать свои сообщения
Вы не можете удалять свои сообщения
Вы не можете голосовать в опросах
Вы не можете прикреплять файлы к сообщениям
Вы можете скачивать файлы